💬 Мини-чат

Для тех, кому интересен процесс переделки сайта - https://rips.club/changelog.html (обновлен 22.02.2024)
OldGamerz1M4p9i0, и этот релиз скачался
Adminatomicheart, встал, но у Вас в профиле не видно. Вам бы перекачать.
OldGamerz1M4p9i0, Хан Соло скачался, но релиз, который был на руторе, там аудиодорожек меньше, чем тут, а видеоряд тот же. Попробуйте оттуда, я пока что сидирую.
OldGamerХан Соло откуда-то по чайной ложке в час скачивается, за сутки 50%, наблюдаем-с дальше
Adminatomicheart, завтра посмотрю, он у меня должен быть.
atomicheartРаздайте, пожалуйста, Тихое место: Дилогия / A Quiet Place: Dilogy (2018-2020) UHD-BDRip 1080p [HEVC] 10 bit [HDR] от Mr. Fox
z1M4p9i0Раздайте, пожалуйста, Хан Соло: Звёздные войны. Истории / Solo: A Star Wars Story (2018) [Локализованная версия] BDRip 1080p [HEVC] 10 bit от Cthulhu
z1M4p9i0Раздайте, пожалуйста, Терминатор: Тёмные судьбы / Terminator: Dark Fate (2019) [iTunes] UHD-BDRip 1440p [HEVC] 10 bit от HANNIBAL
OldGamerKeynol, честно говоря, пока что не планировалось, так как у нас есть отличный рип этого фильма
KeynolПриветствую! А можно сделать HEVC 10 bit на Трон Наследие Hybrid ? там файл на 31 гиг :-( на рутрекере. Хороший, но очень массивный..
  • OldGamer
  • 375509
  • Clockwork_Orange
  • Ignat
  • InSpector
  • pmihail99
  • Лара
Отправка сообщений доступна только зарегистрированным/авторизованным пользователям.
Онлайн (за 10 мин.): 7

Спецназ: Львица / Special Ops: Lioness (2023) [1 сезон] BDRip 1080p [HEVC] 10 bit от OldGamer (RG RIPS CLUB)

HEVC
10 bit
Обложка Спецназ: Львица / Special Ops: Lioness (2023) [1 сезон] BDRip 1080p [HEVC] 10 bit от OldGamer (RG RIPS CLUB) Год: 2023
Страна: США
Студия: 101 Studios, Blossom Films, K Films, Lightnin' Production Rentals, MTV Entertainment Studios, Paramount Network
Жанр: Боевик, Триллер, Драма
Продолжительность: 05:53:37

Режиссер: Джон Хиллкоут, Энтони Бирн, Пол Кэмерон
В ролях: Зои Салдана, Лайсла Де Оливейра, Дэйв Эннэйбл, Джилл Вагнер, ЛаМоника Гаррет, Джеймс Джордан, Остин Хеберт, Джона Уортон, Стефани Нур, Hannah Love Lanier

Описание: «Спецназ: Львица» — шпионский триллер, главной героиней которой является Джо. Она — военнослужащая, стоящая во главе спецотряда, состоящего из женщин-военных, которых обучают и внедряют в террористические и криминальные сети по всему миру. На этот раз им необходимо выполнить опасную миссию и предотвратить теракт на территории США. Чтобы это задание было успешно завершено, Джо нужно найти общий язык с рейдером морской пехоты Круз Мануэлос, чтобы та завела дружбу с дочкой террориста, за которым ведёт охоту ЦРУ…


Исходник: Blu-Ray Remux 1080p (FraMeSToR)
Видео: 1920x960, ~5069 Kbps
Аудио1: AC3, 6 ch, 448 Kbps - РусскийРусский, MVO (HDRezka Studio)
Аудио2: AC3, 6 ch, 448 Kbps - РусскийРусский, MVO (HDRezka Studio без цензуры)
Аудио3: AC3, 6 ch, 384 Kbps - РусскийРусский, MVO (TVShows)
Аудио4: AC3, 6 ch, 640 Kbps - АнглийскийАнглийский
Субтитры: русские (full, forced), английские (SDH)

Как за пару секунд удалить ненужные аудиодорожки и субтитры (Внимание! После удаления вы не сможете поддержать раздачу)

Лог (x265 info)
x265 [info]: frame I: 257, Avg QP:17.97 kb/s: 12495.55
x265 [info]: frame P: 8581, Avg QP:19.19 kb/s: 9647.32
x265 [info]: frame B: 50412, Avg QP:21.35 kb/s: 4250.63
x265 [info]: Weighted P-Frames: Y:10.6% UV:9.0%
x265 [info]: Weighted B-Frames: Y:9.8% UV:7.9%
x265 [info]: encoded 59250 frames in 45802.61s (1.29 fps), 5067.98 kb/s, Avg QP:21.02
Медиаинфо
Общее
Уникальный идентификатор : 93998225799995881628175151073176282106 (0x46B76657E66A67395A4B0401FBA363FA)
Полное имя : \\.\Special.Ops.Lioness.S01E04.The.Choice.of.Failure.mkv
Формат : Matroska
Версия формата : Version 4
Размер файла : 2,01 Гбайт
Продолжительность : 41 м. 11 с.
Общий поток : 6 991 Кбит/сек
Частота кадров : 23,976 кадра/сек
Название фильма : Special.Ops.Lioness.S01E04.The.Choice.of.Failure / Выбор неудачи
Трек/Положение : 1
Кодирование произвёл : OldGamer
Тип содержимого : TV Show
Описание : Круз оказывается в компрометирующем положении, когда гуляет с Алией и друзьями в Хэмптоне; заставляя Джо и Кейтлин сомневаться в ней.
Дата выпуска : 2023-08-06
Дата записи : 2023-08-06
Программа кодирования : mkvmerge v82.0 ('I'm The President') 64-bit
Библиотека кодирования : libebml v1.4.5 + libmatroska v1.7.1 / xvid5psp
Обложка : Yes
Attachments : cover.jpg
ACTOR : Zoe Saldaña, Laysla De Oliveira, Dave Annable, Jill Wagner, LaMonica Garrett, James Jordan, Austin Hébert, Jonah Wharton, Stephanie Nur, Hannah Love Lanier, Nicole Kidman, Michael Kelly, Thad Luckinbill, Ray Corasani, Carla Mansour, Layla Mohammadi, ...
ARTIST : Zoe Saldaña, Laysla De Oliveira, Dave Annable, Jill Wagner, LaMonica Garrett, James Jordan, Austin Hébert, Jonah Wharton, Stephanie Nur, Hannah Love Lanier, Nicole Kidman, Michael Kelly, Thad Luckinbill, Ray Corasani, Carla Mansour, Layla Mohammadi, ...
DIRECTOR : Anthony Byrne
EPISODE.PART_NUM : 4
GENRE : драма
LAW_RATING : TV-MA
RATING : TV-MA
SCREENPLAY_BY : Taylor Sheridan
SEASON.PART_NUM : 1
SUMMARY : Круз оказывается в компрометирующем положении, когда гуляет с Алией и друзьями в Хэмптоне; заставляя Джо и Кейтлин сомневаться в ней.
SYNOPSIS : Круз оказывается в компрометирующем положении, когда гуляет с Алией и друзьями в Хэмптоне; заставляя Джо и Кейтлин сомневаться в ней. Кейтлин и Вестфилд противостоят Кайлу из-за того, что произошло на границе, и это еще больше усложняет ситуацию для Джо и ее команды.
TMDB : tv/113962
TVDB : 388589
WRITTEN_BY : Taylor Sheridan

Видео
Идентификатор : 1
Формат : HEVC
Формат/Информация : High Efficiency Video Coding
Профиль формата : Main 10@L4.1@High
Идентификатор кодека : V_MPEGH/ISO/HEVC
Продолжительность : 41 м. 11 с.
Битрейт : 5 069 Кбит/сек
Ширина : 1 920 пикселей
Высота : 960 пикселей
Соотношение сторон : 2,000
Режим частоты кадров : Постоянный
Частота кадров : 23,976 (24000/1001) кадра/сек
Цветовое пространство : YUV
Субдискретизация насыщенности : 4:2:0
Битовая глубина : 10 бит
Бит/(Пиксели*Кадры) : 0.115
Размер потока : 1,46 Гбайт (73%)
Заголовок : Special Ops: Lioness S01E04 / Rip by OldGamer
Библиотека кодирования : x265 3.5+110-8ee01d45b:[Windows][GCC 13.2.0][64 bit] 10bit
Настройки программы : cpuid=1111039 / frame-threads=3 / numa-pools=8 / wpp / no-pmode / no-pme / no-psnr / no-ssim / log-level=2 / input-csp=1 / input-res=1920x960 / interlace=0 / total-frames=59250 / level-idc=41 / high-tier=1 / uhd-bd=0 / ref=5 / no-allow-non-conformance / no-repeat-headers / annexb / no-aud / no-eob / no-eos / no-hrd / info / hash=0 / temporal-layers=0 / open-gop / min-keyint=23 / keyint=240 / gop-lookahead=0 / bframes=16 / b-adapt=2 / b-pyramid / bframe-bias=0 / rc-lookahead=60 / lookahead-slices=0 / scenecut=40 / no-hist-scenecut / radl=0 / no-splice / no-intra-refresh / ctu=32 / min-cu-size=8 / rect / amp / max-tu-size=32 / tu-inter-depth=4 / tu-intra-depth=4 / limit-tu=1 / rdoq-level=2 / dynamic-rd=0.00 / no-ssim-rd / signhide / no-tskip / nr-intra=0 / nr-inter=0 / no-constrained-intra / no-strong-intra-smoothing / max-merge=5 / limit-refs=3 / no-limit-modes / me=3 / subme=7 / merange=57 / temporal-mvp / no-frame-dup / no-hme / weightp / weightb / no-analyze-src-pics / deblock=-3:-3 / no-sao / no-sao-non-deblock / rd=6 / selective-sao=0 / no-early-skip / no-rskip / no-fast-intra / no-tskip-fast / no-cu-lossless / b-intra / no-splitrd-skip / rdpenalty=0 / psy-rd=2.50 / psy-rdoq=1.25 / no-rd-refine / no-lossless / cbqpoffs=0 / crqpoffs=0 / rc=crf / crf=20.6 / qcomp=0.60 / qpstep=4 / stats-write=0 / stats-read=0 / vbv-maxrate=50000 / vbv-bufsize=50000 / vbv-init=0.9 / min-vbv-fullness=50.0 / max-vbv-fullness=80.0 / crf-max=0.0 / crf-min=0.0 / ipratio=1.40 / pbratio=1.30 / aq-mode=4 / aq-strength=0.80 / no-cutree / zone-count=1 / zones: / start-frame=58122 / end-frame=59250 / qp=36 / no-strict-cbr / qg-size=32 / no-rc-grain / qpmax=69 / qpmin=0 / no-const-vbv / sar=1 / overscan=0 / videoformat=5 / range=0 / colorprim=2 / transfer=2 / colormatrix=2 / chromaloc=0 / display-window=0 / cll=0,0 / min-luma=0 / max-luma=1023 / log2-max-poc-lsb=8 / vui-timing-info / vui-hrd-info / slices=1 / no-opt-qp-pps / no-opt-ref-list-length-pps / no-multi-pass-opt-rps / scenecut-bias=0.00 / no-opt-cu-delta-qp / no-aq-motion / no-hdr10 / no-hdr10-opt / no-dhdr10-opt / no-idr-recovery-sei / analysis-reuse-level=0 / analysis-save-reuse-level=0 / analysis-load-reuse-level=0 / scale-factor=0 / refine-intra=0 / refine-inter=0 / refine-mv=1 / refine-ctu-distortion=0 / no-limit-sao / ctu-info=0 / no-lowpass-dct / refine-analysis-type=0 / copy-pic=1 / max-ausize-factor=1.0 / no-dynamic-refine / no-single-sei / no-hevc-aq / no-svt / no-field / qp-adaptation-range=1.00 / scenecut-aware-qp=0conformance-window-offsets / right=0 / bottom=0 / decoder-max-rate=0 / no-vbv-live-multi-pass / no-mcstf / no-sbrc
Язык : English
Default : Да
Forced : Нет

Аудио #1
Идентификатор : 2
Формат : AC-3
Формат/Информация : Audio Coding 3
Коммерческое название : Dolby Digital
Идентификатор кодека : A_AC3
Продолжительность : 41 м. 9 с.
Вид битрейта : Постоянный
Битрейт : 448 Кбит/сек
Каналы : 6 каналов
Channel layout : L R C LFE Ls Rs
Частота : 48,0 КГц
Частота кадров : 31,250 кадров/сек (1536 SPF)
Метод сжатия : С потерями
Размер потока : 132 Мбайт (6%)
Заголовок : MVO (HDRezka Studio)
Язык : Russian
Service kind : Complete Main
Default : Да
Forced : Нет

Аудио #2
Идентификатор : 3
Формат : AC-3
Формат/Информация : Audio Coding 3
Коммерческое название : Dolby Digital
Идентификатор кодека : A_AC3
Продолжительность : 41 м. 9 с.
Вид битрейта : Постоянный
Битрейт : 448 Кбит/сек
Каналы : 6 каналов
Channel layout : L R C LFE Ls Rs
Частота : 48,0 КГц
Частота кадров : 31,250 кадров/сек (1536 SPF)
Метод сжатия : С потерями
Размер потока : 132 Мбайт (6%)
Заголовок : MVO (HDRezka Studio 18+)
Язык : Russian
Service kind : Complete Main
Default : Нет
Forced : Нет

Аудио #3
Идентификатор : 4
Формат : AC-3
Формат/Информация : Audio Coding 3
Коммерческое название : Dolby Digital
Идентификатор кодека : A_AC3
Продолжительность : 41 м. 9 с.
Вид битрейта : Постоянный
Битрейт : 384 Кбит/сек
Каналы : 6 каналов
Channel layout : L R C LFE Ls Rs
Частота : 48,0 КГц
Частота кадров : 31,250 кадров/сек (1536 SPF)
Метод сжатия : С потерями
Размер потока : 113 Мбайт (5%)
Заголовок : MVO (TVShows)
Язык : Russian
Service kind : Complete Main
Default : Нет
Forced : Нет

Аудио #4
Идентификатор : 5
Формат : AC-3
Формат/Информация : Audio Coding 3
Коммерческое название : Dolby Digital
Идентификатор кодека : A_AC3
Продолжительность : 41 м. 11 с.
Вид битрейта : Постоянный
Битрейт : 640 Кбит/сек
Каналы : 6 каналов
Channel layout : L R C LFE Ls Rs
Частота : 48,0 КГц
Частота кадров : 31,250 кадров/сек (1536 SPF)
Метод сжатия : С потерями
Размер потока : 189 Мбайт (9%)
Язык : English
Service kind : Complete Main
Default : Нет
Forced : Нет

Текст #1
Идентификатор : 6
Формат : UTF-8
Идентификатор кодека : S_TEXT/UTF8
Идентификатор кодека/Информация : UTF-8 Plain Text
Продолжительность : 38 м. 22 с.
Битрейт : 0 бит/сек
Частота кадров : 0,003 кадр/сек
Count of elements : 6
Размер потока : 269 байт (0%)
Заголовок : Russian @ forced SRT
Язык : Russian
Default : Да
Forced : Нет

Текст #2
Идентификатор : 7
Формат : UTF-8
Идентификатор кодека : S_TEXT/UTF8
Идентификатор кодека/Информация : UTF-8 Plain Text
Продолжительность : 40 м. 13 с.
Битрейт : 87 бит/сек
Частота кадров : 0,249 кадр/сек
Count of elements : 600
Размер потока : 25,9 Кбайт (0%)
Заголовок : Russian @ SRT
Язык : Russian
Default : Нет
Forced : Нет

Текст #3
Идентификатор : 8
Формат : UTF-8
Идентификатор кодека : S_TEXT/UTF8
Идентификатор кодека/Информация : UTF-8 Plain Text
Продолжительность : 4 с. 649 мс.
Битрейт : 103 бит/сек
Частота кадров : 0,430 кадр/сек
Count of elements : 2
Размер потока : 60,0 байт (0%)
Заголовок : English @ forced SRT
Язык : English
Default : Нет
Forced : Нет

Текст #4
Идентификатор : 9
Формат : UTF-8
Идентификатор кодека : S_TEXT/UTF8
Идентификатор кодека/Информация : UTF-8 Plain Text
Продолжительность : 40 м. 13 с.
Битрейт : 60 бит/сек
Частота кадров : 0,262 кадр/сек
Count of elements : 632
Размер потока : 18,0 Кбайт (0%)
Заголовок : English @ SRT
Язык : English
Default : Нет
Forced : Нет

Текст #5
Идентификатор : 10
Формат : UTF-8
Идентификатор кодека : S_TEXT/UTF8
Идентификатор кодека/Информация : UTF-8 Plain Text
Продолжительность : 40 м. 18 с.
Битрейт : 62 бит/сек
Частота кадров : 0,278 кадр/сек
Count of elements : 672
Размер потока : 18,5 Кбайт (0%)
Заголовок : English @ SRT SDH
Язык : English
Default : Нет
Forced : Нет

Меню
00:00:00.000 : en:Chapter 1
00:07:19.230 : en:Chapter 2
00:13:07.203 : en:Chapter 3
00:16:51.886 : en:Chapter 4
00:23:42.504 : en:Chapter 5
00:34:20.433 : en:Chapter 6
00:40:24.172 : en:Chapter 7
Загрузка...Cкриншот1 Спецназ: Львица / Special Ops: Lioness (2023) [1 сезон] BDRip 1080p [HEVC] 10 bit от OldGamer (RG RIPS CLUB)Загрузка...Cкриншот2 Спецназ: Львица / Special Ops: Lioness (2023) [1 сезон] BDRip 1080p [HEVC] 10 bit от OldGamer (RG RIPS CLUB)Загрузка...Cкриншот3 Спецназ: Львица / Special Ops: Lioness (2023) [1 сезон] BDRip 1080p [HEVC] 10 bit от OldGamer (RG RIPS CLUB)Загрузка...Cкриншот4 Спецназ: Львица / Special Ops: Lioness (2023) [1 сезон] BDRip 1080p [HEVC] 10 bit от OldGamer (RG RIPS CLUB)
Релиз-группа: RIPS CLUB
Сэмпл Торрент🧲 Магнет

Рейтинги КП и IMDB, кнопки "Позвать в чате" и "Спасибо", а также мультитрекерная статистика доступны только зарегистрированным/авторизованным пользователям!

Файлы: 8
  • Special.Ops.Lioness.S01.BDRip-HEVC.1080p
    • Special.Ops.Lioness.S01E01.Sacrificial.Soldiers.mkv   2 ГБ
    • Special.Ops.Lioness.S01E02.The.Beating.mkv   1.85 ГБ
    • Special.Ops.Lioness.S01E03.Bruise.Like.a.Fist.mkv   2.3 ГБ
    • Special.Ops.Lioness.S01E04.The.Choice.of.Failure.mkv   2.01 ГБ
    • Special.Ops.Lioness.S01E05.Truth.is.the.Shrewdest.Lie.mkv   1.9 ГБ
    • Special.Ops.Lioness.S01E06.The.Lie.is.the.Truth.mkv   1.62 ГБ
    • Special.Ops.Lioness.S01E07.Wish.the.Fight.Away.mkv   2.93 ГБ
    • Special.Ops.Lioness.S01E08.Gone.is.the.Illusion.of.Order.mkv   2.85 ГБ
Поблагодарили: 2
D16T, InSpector
OldGamer
0363212 (8)  17.47 ГБ

Добавление нового комментария

Добавление комментариев доступно только зарегистрированным/авторизованным пользователям.