Чат

⚫︎
Список изменений сайта - https://rips.club/changelog.html (обновлен 24.05.2024)
  • ancestor87
  • Art1967
  • arwis
  • Banzai
  • ExoticDeer
Онлайн (за 10 мин.): 5
  • Tastod: Раздайте, пожалуйста, Загадочная история Бенджамина Баттона / The Curious Case of Benjamin Button (2008) BDRip 1080p [HEVC] 10 bit от Spartanec1308
  • Гл. Админ: Исправил баг, когда после анонса коллекции все анонсы показывались в спойлере, даже если не являлись коллекцией.
  • Гл. Админ: Исправил баг, когда в ЛС не возможно было удалить сообщение.
  • bronsonw200: Гл. Админ, Как по мне, так смотрится приятнее.
  • Гл. Админ: В светлой теме задний фон сделал чуть потемнее, чтобы было не слишком ярко. В темной теме поисковую строку сделал черной (как в светлой теме), чтобы выделялась. Убрал рамки вокруг элементов форм. Прокрутку страницы в начало сделал плавной. ( отредактировано: )
  • Гл. Админ: В ближайшие дни по вечерам начну подправлять дизайн.
  • Гл. Админ: Готово.
  • Гл. Админ: Управление релизами закончил, но не буду выкладывать на ночь глядя. Утром протестирую на локальном компе, и днем выложу.
  • Гл. Админ: Фон баннера релиз-группы сделал прозрачным и перезалил на внешнем хостинге.
  • OldGamer: было бы неплохо
  • Гл. Админ: Управление релизами наверно сегодня закончу.
  • HANNIBAL: Сообщение удалено (удалил: HANNIBAL)
  • HANNIBAL: Гл. Админ, не привычно
  • Гл. Админ: HANNIBAL, хорошего или плохого?
  • HANNIBAL: эт чей-то вы тут натворили с сайтом ;)
  • Гл. Админ: ExoticDeer, просто в будущем будет несколько новостных строчек и они будут автоматически переключаться по кругу, поэтому не хочется статичную. Могу ещё уменьшить частоту, если всё равно будет отвлекать. ( отредактировано: )
  • Гл. Админ: ExoticDeer, уменьшил частоту мигания с 5 сек. до 10 сек.
  • ExoticDeer: Гл. Админ, про мигание, скорее отвлекает, особенно на тёмной теме. статичная хорошо смотрелась
  • Гл. Админ: Winsent, Исправил. Теперь, при просмотре комментариев конкретного пользователя, эта галочка не играет роли. Спасибо, что сообщили.
  • Гл. Админ: Winsent, сначала не поверил своим глазам. Это было оооочень странно. Но кажется теперь понял в чем проблема. Ошибка появляется, если в настройках не установлена галочка "Получать уведомления о всех комментариях". Причем у разных пользователей проявляется по разному - у кого-то ничего не показывается, а у кого-то показывается часть комментариев. Поэтому мне долго не удавалось воспроизвести ошибку. Сейчас исправлю.
Отправка сообщений доступна только зарегистрированным/авторизованным пользователям.

🎥︎📺︎Пространство / Экспансия / The Expanse (2015-2022) BDRip 1080p [HEVC] 10 bit от OldGamer (RG RIPS CLUB)


Обложка Пространство / Экспансия / The Expanse (2015-2022) BDRip 1080p [HEVC] 10 bit от OldGamer (RG RIPS CLUB)
HEVC
10 bit
⤓︎Торрент🧲︎Магнет$Пожертвования

При перезаливке на другие сайты просьба указать автора и релиз-группу.


Год: 2015-2022
Страна: США, Канада
Жанр: Фантастика, Драма, Детектив


Релиз-группа: RIPS CLUB
1. Пространство / Экспансия / The Expanse (2015) [1 сезон] BDRip 1080p [HEVC] 10 bit от OldGamer
Обложка Пространство / Экспансия / The Expanse (2015) [1 сезон] BDRip 1080p [HEVC] 10 bit от OldGamer
HEVC
10 bit
✂︎Сэмпл
Год: 2015
Страна: США, Канада
Студия: Alcon Entertainment, Sean Daniel Company
Жанр: Фантастика, Драма, Детектив
Длительность: 07:07:09

Режиссер: Джефф Вулнаф, Брек Эйснер, Терри МакДонаф
В ролях: Стивен Стрейт, Доминик Типпер, Уэс Чэтэм, Шохре Агдашлу, Кэс Анвар, Фрэнки Адамс, Кара Ги, Шон Дойл, Томас Джейн, Флоренс Ванида Фэйвр

Описание: Через двести лет от дня сегодняшнего некий сыщик, привыкший всё доводить до конца при любых обстоятельствах, в рамках расследования дела об исчезновении молодой женщины оказывается на борту звездолета, капитан которого решает помочь детективу в его непростом деле. Величайший заговор в истории человечества гарантируется, как и его непременное раскрытие.


Исходник: Blu-Ray Remux 1080p
Видео: 1920x1080 (16:9), 3455-5126 Kbps
Аудио1: AC3, 6 ch, 640 Kbps - РусскийРусский, MVO (LostFilm)
Аудио2: AC3, 6 ch, 640 Kbps - РусскийРусский, MVO (AlexFilm)
Аудио3: AC3, 6 ch, 640 Kbps - АнглийскийАнглийский
Субтитры: русские, английские

Как за несколько секунд удалить ненужные аудиодорожки и субтитры (Внимание! После удаления вы не сможете поддержать раздачу)


Лог (x265 info)x265 [info]: frame I: 264, Avg QP:17.59 kb/s: 14095.99
x265 [info]: frame P: 11710, Avg QP:18.97 kb/s: 8606.13
x265 [info]: frame B: 49993, Avg QP:21.27 kb/s: 2673.25
x265 [info]: Weighted P-Frames: Y:4.2% UV:3.3%
x265 [info]: Weighted B-Frames: Y:4.8% UV:3.4%
x265 [info]: consecutive B-frames: 1.5% 2.0% 10.9% 27.7% 14.4% 27.5% 6.0% 5.4% 1.9% 1.4% 0.7% 0.3% 0.2% 0.2%
x265 [info]: encoded 61967 frames in 47659.71s (1.30 fps), 3843.06 kb/s, Avg QP:20.82
МедиаинфоОбщее
Уникальный идентификатор : 245886395566707803059351892725070820268 (0xB8FBFF49699D6DD1CD5F3DEBE3CFF3AC)
Полное имя : \\.\The Expanse\The.Expanse.S01.BDRip-HEVC.1080p\The.Expanse.S01E06.Rock.Bottom.mkv
Формат : Matroska
Версия формата : Version 4
Размер файла : 1,74 Гбайт
Продолжительность : 43 м. 4 с.
Общий поток : 5 768 Кбит/сек
Частота кадров : 23,976 кадра/сек
Название фильма : The.Expanse.S01E06.Rock.Bottom / На дне
Трек/Положение : 1
Кодирование произвёл : OldGamer
Тип содержимого : TV Show
Описание : Андерсон Доус угрожает Миллеру. Детективу грозит смертельная опасность. Конфликт между Марсом и Поясом Астероидов усугубляется. Фред Джонсон, глава станции «Тихо» предлагает экипажу «Росинанта» сотрудничество.
Дата выпуска : 2016-01-12
Дата записи : 2016-01-12
Программа кодирования : mkvmerge v82.0 ('I'm The President') 64-bit
Библиотека кодирования : libebml v1.4.5 + libmatroska v1.7.1 / xvid5psp
Обложка : Yes
Attachments : cover.jpg
ACTOR : Steven Strait, Dominique Tipper, Cas Anvar, Wes Chatham, Shohreh Aghdashloo, Thomas Jane, Florence Faivre, Shawn Doyle, Lola Glaudini, Greg Bryk, Yatharth Bhatt, Tig Fong, Alex Karzis, Caleb Olivieri, Phillip Samuel, Felicia Simone, Rossif Sutherland...
ARTIST : Steven Strait, Dominique Tipper, Cas Anvar, Wes Chatham, Shohreh Aghdashloo, Thomas Jane, Florence Faivre, Shawn Doyle, Lola Glaudini, Greg Bryk, Yatharth Bhatt, Tig Fong, Alex Karzis, Caleb Olivieri, Phillip Samuel, Felicia Simone, Rossif Sutherland...
DIRECTOR : Rob Lieberman
EPISODE.PART_NUM : 6
GENRE : драма, детектив, НФ и Фэнтези
LAW_RATING : TV-14
PRODUCER : Daniel Abraham, Ty Franck, Dan Nowak
RATING : TV-14
SCREENPLAY_BY : Hawk Ostby, Mark Fergus
SEASON.PART_NUM : 1
SUMMARY : Андерсон Доус угрожает Миллеру. Детективу грозит смертельная опасность. Конфликт между Марсом и Поясом Астероидов усугубляется. Фред Джонсон, глава станции «Тихо» предлагает экипажу «Росинанта» сотрудничество.
SYNOPSIS : Андерсон Доус угрожает Миллеру. Детективу грозит смертельная опасность. Конфликт между Марсом и Поясом Астероидов усугубляется. Фред Джонсон, глава станции «Тихо» предлагает экипажу «Росинанта» сотрудничество. Крисьен Авасарала просит старого знакомого оказать ей услугу и раздобыть сведения об одной отдаленной станции Пояса. «Росинант» проходит модификацию. Холден, Наоми, Алекс и Эймос получают секретное задание.
WRITTEN_BY : Hawk Ostby, Mark Fergus

Видео
Идентификатор : 1
Формат : HEVC
Формат/Информация : High Efficiency Video Coding
Профиль формата : Main 10@L4.1@High
Идентификатор кодека : V_MPEGH/ISO/HEVC
Продолжительность : 43 м. 4 с.
Битрейт : 3 844 Кбит/сек
Ширина : 1 920 пикселей
Высота : 1 080 пикселей
Соотношение сторон : 16:9
Режим частоты кадров : Постоянный
Частота кадров : 23,976 (24000/1001) кадра/сек
Цветовое пространство : YUV
Субдискретизация насыщенности : 4:2:0
Битовая глубина : 10 бит
Бит/(Пиксели*Кадры) : 0.077
Размер потока : 1,16 Гбайт (67%)
Заголовок : The Expanse S01E06 / Rip by OldGamer
Библиотека кодирования : x265 3.2.1+3-b4b2ecac21f6:[Windows][MSVC 1924][64 bit] 10bit
Настройки программы : cpuid=1111039 / frame-threads=4 / numa-pools=16 / wpp / no-pmode / no-pme / no-psnr / no-ssim / log-level=2 / input-csp=1 / input-res=1920x1080 / interlace=0 / total-frames=61967 / level-idc=41 / high-tier=1 / uhd-bd=0 / ref=5 / no-allow-non-conformance / no-repeat-headers / annexb / no-aud / no-hrd / info / hash=0 / no-temporal-layers / open-gop / min-keyint=23 / keyint=240 / gop-lookahead=0 / bframes=13 / b-adapt=2 / b-pyramid / bframe-bias=0 / rc-lookahead=80 / lookahead-slices=0 / scenecut=40 / radl=0 / no-splice / no-intra-refresh / ctu=64 / min-cu-size=8 / rect / amp / max-tu-size=32 / tu-inter-depth=4 / tu-intra-depth=4 / limit-tu=1 / rdoq-level=2 / dynamic-rd=0.00 / no-ssim-rd / signhide / no-tskip / nr-intra=0 / nr-inter=0 / no-constrained-intra / no-strong-intra-smoothing / max-merge=5 / limit-refs=3 / no-limit-modes / me=3 / subme=7 / merange=57 / temporal-mvp / no-hme / weightp / weightb / no-analyze-src-pics / deblock=-3:-3 / no-sao / no-sao-non-deblock / rd=6 / selective-sao=0 / no-early-skip / rskip / no-fast-intra / no-tskip-fast / no-cu-lossless / b-intra / no-splitrd-skip / rdpenalty=0 / psy-rd=2.00 / psy-rdoq=1.00 / no-rd-refine / no-lossless / cbqpoffs=0 / crqpoffs=0 / rc=crf / crf=20.5 / qcomp=0.60 / qpstep=4 / stats-write=0 / stats-read=0 / vbv-maxrate=50000 / vbv-bufsize=50000 / vbv-init=0.9 / crf-max=0.0 / crf-min=0.0 / ipratio=1.40 / pbratio=1.30 / aq-mode=4 / aq-strength=0.80 / no-cutree / zone-count=0 / no-strict-cbr / qg-size=32 / no-rc-grain / qpmax=69 / qpmin=0 / no-const-vbv / sar=1 / overscan=0 / videoformat=5 / range=0 / colorprim=2 / transfer=2 / colormatrix=2 / chromaloc=0 / display-window=0 / cll=0,0 / min-luma=0 / max-luma=1023 / log2-max-poc-lsb=8 / vui-timing-info / vui-hrd-info / slices=1 / no-opt-qp-pps / no-opt-ref-list-length-pps / no-multi-pass-opt-rps / scenecut-bias=0.00 / no-opt-cu-delta-qp / no-aq-motion / no-hdr / no-hdr-opt / no-dhdr10-opt / no-idr-recovery-sei / analysis-reuse-level=5 / scale-factor=0 / refine-intra=0 / refine-inter=0 / refine-mv=1 / refine-ctu-distortion=0 / no-limit-sao / ctu-info=0 / no-lowpass-dct / refine-analysis-type=0 / copy-pic=1 / max-ausize-factor=1.0 / no-dynamic-refine / no-single-sei / no-hevc-aq / no-svt / no-field / qp-adaptation-range=1.00
Язык : English
Default : Да
Forced : Нет

Аудио #1
Идентификатор : 2
Формат : AC-3
Формат/Информация : Audio Coding 3
Коммерческое название : Dolby Digital
Идентификатор кодека : A_AC3
Продолжительность : 43 м. 4 с.
Вид битрейта : Постоянный
Битрейт : 640 Кбит/сек
Каналы : 6 каналов
Channel layout : L R C LFE Ls Rs
Частота : 48,0 КГц
Частота кадров : 31,250 кадров/сек (1536 SPF)
Метод сжатия : С потерями
Размер потока : 197 Мбайт (11%)
Заголовок : MVO (LostFilm)
Язык : Russian
Service kind : Complete Main
Default : Да
Forced : Нет

Аудио #2
Идентификатор : 3
Формат : AC-3
Формат/Информация : Audio Coding 3
Коммерческое название : Dolby Digital
Идентификатор кодека : A_AC3
Продолжительность : 43 м. 4 с.
Вид битрейта : Постоянный
Битрейт : 640 Кбит/сек
Каналы : 6 каналов
Channel layout : L R C LFE Ls Rs
Частота : 48,0 КГц
Частота кадров : 31,250 кадров/сек (1536 SPF)
Метод сжатия : С потерями
Размер потока : 197 Мбайт (11%)
Заголовок : MVO (AlexFilm)
Язык : Russian
Service kind : Complete Main
Default : Нет
Forced : Нет

Аудио #3
Идентификатор : 4
Формат : AC-3
Формат/Информация : Audio Coding 3
Коммерческое название : Dolby Digital
Идентификатор кодека : A_AC3
Продолжительность : 43 м. 4 с.
Вид битрейта : Постоянный
Битрейт : 640 Кбит/сек
Каналы : 6 каналов
Channel layout : L R C LFE Ls Rs
Частота : 48,0 КГц
Частота кадров : 31,250 кадров/сек (1536 SPF)
Метод сжатия : С потерями
Размер потока : 197 Мбайт (11%)
Заголовок : Original
Язык : English
Service kind : Complete Main
Default : Нет
Forced : Нет

Текст #1
Идентификатор : 5
Формат : UTF-8
Идентификатор кодека : S_TEXT/UTF8
Идентификатор кодека/Информация : UTF-8 Plain Text
Продолжительность : 42 м. 45 с.
Битрейт : 107 бит/сек
Частота кадров : 0,235 кадр/сек
Count of elements : 604
Размер потока : 33,6 Кбайт (0%)
Язык : Russian
Default : Нет
Forced : Нет

Текст #2
Идентификатор : 6
Формат : UTF-8
Идентификатор кодека : S_TEXT/UTF8
Идентификатор кодека/Информация : UTF-8 Plain Text
Продолжительность : 42 м. 6 с.
Битрейт : 69 бит/сек
Частота кадров : 0,271 кадр/сек
Count of elements : 685
Размер потока : 21,4 Кбайт (0%)
Язык : English
Default : Нет
Forced : Нет

Меню
00:00:00.000 : en:Chapter 1
00:06:36.688 : en:Chapter 2
00:12:23.868 : en:Chapter 3
00:30:17.733 : en:Chapter 4
Загрузка...Cкриншот1 Пространство / Экспансия / The Expanse (2015) [1 сезон] BDRip 1080p [HEVC] 10 bit от OldGamerЗагрузка...Cкриншот2 Пространство / Экспансия / The Expanse (2015) [1 сезон] BDRip 1080p [HEVC] 10 bit от OldGamerЗагрузка...Cкриншот3 Пространство / Экспансия / The Expanse (2015) [1 сезон] BDRip 1080p [HEVC] 10 bit от OldGamerЗагрузка...Cкриншот4 Пространство / Экспансия / The Expanse (2015) [1 сезон] BDRip 1080p [HEVC] 10 bit от OldGamer
2. Пространство / Экспансия / The Expanse (2017) [2 сезон] BDRip 1080p [HEVC] 10 bit от OldGamer
Обложка Пространство / Экспансия / The Expanse (2017) [2 сезон] BDRip 1080p [HEVC] 10 bit от OldGamer
HEVC
10 bit
✂︎Сэмпл
Год: 2017
Страна: США, Канада
Студия: Alcon Entertainment, Sean Daniel Company
Жанр: Фантастика, Драма, Детектив
Длительность: 09:28:17

Режиссер: Джефф Вулнаф, Брек Эйснер, Терри МакДонаф
В ролях: Стивен Стрейт, Доминик Типпер, Уэс Чэтэм, Шохре Агдашлу, Кэс Анвар, Фрэнки Адамс, Кара Ги, Шон Дойл, Томас Джейн, Флоренс Ванида Фэйвр

Описание: Через двести лет от дня сегодняшнего некий сыщик, привыкший всё доводить до конца при любых обстоятельствах, в рамках расследования дела об исчезновении молодой женщины оказывается на борту звездолета, капитан которого решает помочь детективу в его непростом деле. Величайший заговор в истории человечества гарантируется, как и его непременное раскрытие.


Исходник: Blu-Ray Remux 1080p
Видео: 1920x1080 (16:9), 2702-4169 Kbps
Аудио1: AC3, 6 ch, 640 Kbps - РусскийРусский, MVO (LostFilm)
Аудио2: AC3, 6 ch, 384 Kbps - РусскийРусский, MVO (AlexFilm)
Аудио3: AC3, 6 ch, 640 Kbps - АнглийскийАнглийский
Субтитры: русские, английские

Как за несколько секунд удалить ненужные аудиодорожки и субтитры (Внимание! После удаления вы не сможете поддержать раздачу)


Лог (x265 info)x265 [info]: frame I: 268, Avg QP:17.71 kb/s: 17558.16
x265 [info]: frame P: 10773, Avg QP:18.90 kb/s: 9341.86
x265 [info]: frame B: 51916, Avg QP:21.25 kb/s: 2875.79
x265 [info]: Weighted P-Frames: Y:5.7% UV:4.6%
x265 [info]: Weighted B-Frames: Y:5.8% UV:4.3%
x265 [info]: consecutive B-frames: 2.0% 2.6% 10.2% 24.0% 11.6% 22.3% 6.2% 8.3% 3.5% 3.5% 2.4% 1.8% 0.7% 0.8%
x265 [info]: encoded 62957 frames in 48196.66s (1.31 fps), 4044.74 kb/s, Avg QP:20.84
МедиаинфоОбщее
Уникальный идентификатор : 334232224930785573926058652776303925945 (0xFB72C8F834F889F572D7A8F3F1879AB9)
Полное имя : \\.\The.Expanse.S02E04.Godspeed.mkv
Формат : Matroska
Версия формата : Version 4
Размер файла : 1,75 Гбайт
Продолжительность : 43 м. 45 с.
Общий поток : 5 714 Кбит/сек
Частота кадров : 23,976 кадра/сек
Название фильма : The.Expanse.S02E04.Godspeed / В добрый путь
Трек/Положение : 2
Кодирование произвёл : OldGamer
Тип содержимого : TV Show
Описание : Крисьен Авасарала и Садавир Эрринграйт устраивают допрос Жюлю-Пьеру Мао. По приказу Джонсона гигантскому кораблю «Нову» задают новый курс. Миллер вместе с напарником готовится выйти в открытый космос.
Дата выпуска : 2017-02-15
Дата записи : 2017-02-15
Программа кодирования : mkvmerge v82.0 ('I'm The President') 64-bit
Библиотека кодирования : libebml v1.4.5 + libmatroska v1.7.1 / xvid5psp
Обложка : Yes
Attachments : cover.jpg
ACTOR : Steven Strait, Dominique Tipper, Cas Anvar, Wes Chatham, Shohreh Aghdashloo, Frankie Adams, Thomas Jane, Florence Faivre, Shawn Doyle, Cara Gee, Bruno Verdoni, Alex Woods, Jeff Clarke, Alden Adair, Nick E. Tarabay, François Chau, Andrew Rotilio, Chad...
ARTIST : Steven Strait, Dominique Tipper, Cas Anvar, Wes Chatham, Shohreh Aghdashloo, Frankie Adams, Thomas Jane, Florence Faivre, Shawn Doyle, Cara Gee, Bruno Verdoni, Alex Woods, Jeff Clarke, Alden Adair, Nick E. Tarabay, François Chau, Andrew Rotilio, Chad...
DIRECTOR : Jeff Woolnough
EPISODE.PART_NUM : 4
GENRE : драма, детектив, НФ и Фэнтези
LAW_RATING : TV-14
RATING : TV-14
SCREENPLAY_BY : Dan Nowak
SEASON.PART_NUM : 2
SUMMARY : Крисьен Авасарала и Садавир Эрринграйт устраивают допрос Жюлю-Пьеру Мао. По приказу Джонсона гигантскому кораблю «Нову» задают новый курс. Миллер вместе с напарником готовится выйти в открытый космос.
SYNOPSIS : Крисьен Авасарала и Садавир Эрринграйт устраивают допрос Жюлю-Пьеру Мао. По приказу Джонсона гигантскому кораблю «Нову» задают новый курс. Миллер вместе с напарником готовится выйти в открытый космос. Холдер и его команда обнаруживают у станции Эрос корабль, экипажу которого угрожает опасность заражения протомолекулой.
WRITTEN_BY : Dan Nowak

Видео
Идентификатор : 1
Формат : HEVC
Формат/Информация : High Efficiency Video Coding
Профиль формата : Main 10@L4.1@High
Идентификатор кодека : V_MPEGH/ISO/HEVC
Продолжительность : 43 м. 45 с.
Битрейт : 4 046 Кбит/сек
Ширина : 1 920 пикселей
Высота : 1 080 пикселей
Соотношение сторон : 16:9
Режим частоты кадров : Постоянный
Частота кадров : 23,976 (24000/1001) кадра/сек
Цветовое пространство : YUV
Субдискретизация насыщенности : 4:2:0
Битовая глубина : 10 бит
Бит/(Пиксели*Кадры) : 0.081
Размер потока : 1,24 Гбайт (71%)
Заголовок : The Expanse S02E04 / Rip by OldGamer
Библиотека кодирования : x265 3.2.1+3-b4b2ecac21f6:[Windows][MSVC 1924][64 bit] 10bit
Настройки программы : cpuid=1111039 / frame-threads=4 / numa-pools=16 / wpp / no-pmode / no-pme / no-psnr / no-ssim / log-level=2 / input-csp=1 / input-res=1920x1080 / interlace=0 / total-frames=62957 / level-idc=41 / high-tier=1 / uhd-bd=0 / ref=5 / no-allow-non-conformance / no-repeat-headers / annexb / no-aud / no-hrd / info / hash=0 / no-temporal-layers / open-gop / min-keyint=23 / keyint=240 / gop-lookahead=0 / bframes=13 / b-adapt=2 / b-pyramid / bframe-bias=0 / rc-lookahead=80 / lookahead-slices=0 / scenecut=40 / radl=0 / no-splice / no-intra-refresh / ctu=64 / min-cu-size=8 / rect / amp / max-tu-size=32 / tu-inter-depth=4 / tu-intra-depth=4 / limit-tu=1 / rdoq-level=2 / dynamic-rd=0.00 / no-ssim-rd / signhide / no-tskip / nr-intra=0 / nr-inter=0 / no-constrained-intra / no-strong-intra-smoothing / max-merge=5 / limit-refs=3 / no-limit-modes / me=3 / subme=7 / merange=57 / temporal-mvp / no-hme / weightp / weightb / no-analyze-src-pics / deblock=-3:-3 / no-sao / no-sao-non-deblock / rd=6 / selective-sao=0 / no-early-skip / rskip / no-fast-intra / no-tskip-fast / no-cu-lossless / b-intra / no-splitrd-skip / rdpenalty=0 / psy-rd=2.00 / psy-rdoq=1.00 / no-rd-refine / no-lossless / cbqpoffs=0 / crqpoffs=0 / rc=crf / crf=20.5 / qcomp=0.60 / qpstep=4 / stats-write=0 / stats-read=0 / vbv-maxrate=50000 / vbv-bufsize=50000 / vbv-init=0.9 / crf-max=0.0 / crf-min=0.0 / ipratio=1.40 / pbratio=1.30 / aq-mode=4 / aq-strength=0.80 / no-cutree / zone-count=0 / no-strict-cbr / qg-size=32 / no-rc-grain / qpmax=69 / qpmin=0 / no-const-vbv / sar=1 / overscan=0 / videoformat=5 / range=0 / colorprim=2 / transfer=2 / colormatrix=2 / chromaloc=0 / display-window=0 / cll=0,0 / min-luma=0 / max-luma=1023 / log2-max-poc-lsb=8 / vui-timing-info / vui-hrd-info / slices=1 / no-opt-qp-pps / no-opt-ref-list-length-pps / no-multi-pass-opt-rps / scenecut-bias=0.00 / no-opt-cu-delta-qp / no-aq-motion / no-hdr / no-hdr-opt / no-dhdr10-opt / no-idr-recovery-sei / analysis-reuse-level=5 / scale-factor=0 / refine-intra=0 / refine-inter=0 / refine-mv=1 / refine-ctu-distortion=0 / no-limit-sao / ctu-info=0 / no-lowpass-dct / refine-analysis-type=0 / copy-pic=1 / max-ausize-factor=1.0 / no-dynamic-refine / no-single-sei / no-hevc-aq / no-svt / no-field / qp-adaptation-range=1.00
Язык : English
Default : Да
Forced : Нет

Аудио #1
Идентификатор : 2
Формат : AC-3
Формат/Информация : Audio Coding 3
Коммерческое название : Dolby Digital
Идентификатор кодека : A_AC3
Продолжительность : 43 м. 45 с.
Вид битрейта : Постоянный
Битрейт : 640 Кбит/сек
Каналы : 6 каналов
Channel layout : L R C LFE Ls Rs
Частота : 48,0 КГц
Частота кадров : 31,250 кадров/сек (1536 SPF)
Метод сжатия : С потерями
Размер потока : 200 Мбайт (11%)
Заголовок : MVO (LostFilm)
Язык : Russian
Service kind : Complete Main
Default : Да
Forced : Нет

Аудио #2
Идентификатор : 3
Формат : AC-3
Формат/Информация : Audio Coding 3
Коммерческое название : Dolby Digital
Идентификатор кодека : A_AC3
Продолжительность : 43 м. 45 с.
Вид битрейта : Постоянный
Битрейт : 384 Кбит/сек
Каналы : 6 каналов
Channel layout : L R C LFE Ls Rs
Частота : 48,0 КГц
Частота кадров : 31,250 кадров/сек (1536 SPF)
Метод сжатия : С потерями
Размер потока : 120 Мбайт (7%)
Заголовок : MVO (AlexFilm)
Язык : Russian
Service kind : Complete Main
Default : Нет
Forced : Нет

Аудио #3
Идентификатор : 4
Формат : AC-3
Формат/Информация : Audio Coding 3
Коммерческое название : Dolby Digital
Идентификатор кодека : A_AC3
Продолжительность : 43 м. 45 с.
Вид битрейта : Постоянный
Битрейт : 640 Кбит/сек
Каналы : 6 каналов
Channel layout : L R C LFE Ls Rs
Частота : 48,0 КГц
Частота кадров : 31,250 кадров/сек (1536 SPF)
Метод сжатия : С потерями
Размер потока : 200 Мбайт (11%)
Заголовок : Original
Язык : English
Service kind : Complete Main
Default : Нет
Forced : Нет

Текст #1
Идентификатор : 5
Формат : UTF-8
Идентификатор кодека : S_TEXT/UTF8
Идентификатор кодека/Информация : UTF-8 Plain Text
Продолжительность : 42 м. 36 с.
Битрейт : 124 бит/сек
Частота кадров : 0,264 кадр/сек
Count of elements : 675
Размер потока : 38,8 Кбайт (0%)
Язык : Russian
Default : Нет
Forced : Нет

Текст #2
Идентификатор : 6
Формат : UTF-8
Идентификатор кодека : S_TEXT/UTF8
Идентификатор кодека/Информация : UTF-8 Plain Text
Продолжительность : 42 м. 22 с.
Битрейт : 80 бит/сек
Частота кадров : 0,317 кадр/сек
Count of elements : 806
Размер потока : 25,0 Кбайт (0%)
Язык : English
Default : Нет
Forced : Нет

Меню
00:00:00.000 : en:Chapter 1
00:02:05.042 : en:Chapter 2
00:18:55.634 : en:Chapter 3
00:31:16.541 : en:Chapter 4
Загрузка...Cкриншот1 Пространство / Экспансия / The Expanse (2017) [2 сезон] BDRip 1080p [HEVC] 10 bit от OldGamerЗагрузка...Cкриншот2 Пространство / Экспансия / The Expanse (2017) [2 сезон] BDRip 1080p [HEVC] 10 bit от OldGamerЗагрузка...Cкриншот3 Пространство / Экспансия / The Expanse (2017) [2 сезон] BDRip 1080p [HEVC] 10 bit от OldGamerЗагрузка...Cкриншот4 Пространство / Экспансия / The Expanse (2017) [2 сезон] BDRip 1080p [HEVC] 10 bit от OldGamer
3. Пространство / Экспансия / The Expanse (2018) [3 сезон] BDRip 1080p [HEVC] 10 bit от OldGamer
Обложка Пространство / Экспансия / The Expanse (2018) [3 сезон] BDRip 1080p [HEVC] 10 bit от OldGamer
HEVC
10 bit
✂︎Сэмпл
Год: 2018
Страна: США, Канада
Студия: Alcon Entertainment, Sean Daniel Company
Жанр: Фантастика, Драма, Детектив
Длительность: 09:23:28

Режиссер: Джефф Вулнаф, Брек Эйснер, Терри МакДонаф
В ролях: Стивен Стрейт, Доминик Типпер, Уэс Чэтэм, Шохре Агдашлу, Кэс Анвар, Фрэнки Адамс, Кара Ги, Шон Дойл, Томас Джейн, Флоренс Ванида Фэйвр

Описание: Через двести лет от дня сегодняшнего некий сыщик, привыкший всё доводить до конца при любых обстоятельствах, в рамках расследования дела об исчезновении молодой женщины оказывается на борту звездолета, капитан которого решает помочь детективу в его непростом деле. Величайший заговор в истории человечества гарантируется, как и его непременное раскрытие.


Исходник: Blu-Ray Remux 1080p
Видео: 1920x1080, 4061-6829 Kbps
Аудио1: AC3, 6 ch, 640 Kbps - РусскийРусский, MVO (LostFilm)
Аудио2: AC3, 6 ch, 384 Kbps - РусскийРусский, MVO (AlexFilm)
Аудио3: AC3, 6 ch, 640 Kbps - АнглийскийАнглийский
Субтитры: русские, английские

Как за несколько секунд удалить ненужные аудиодорожки и субтитры (Внимание! После удаления вы не сможете поддержать раздачу)


Лог (x265 info)x265 [info]: frame I: 265, Avg QP:17.88 kb/s: 16644.86
x265 [info]: frame P: 8438, Avg QP:19.08 kb/s: 14220.99
x265 [info]: frame B: 54022, Avg QP:21.17 kb/s: 4246.26
x265 [info]: Weighted P-Frames: Y:10.5% UV:8.9%
x265 [info]: Weighted B-Frames: Y:9.4% UV:7.0%
x265 [info]: consecutive B-frames: 3.6% 2.6% 5.0% 13.2% 9.7% 19.4% 7.3% 10.4% 5.4% 5.3% 3.9% 4.4% 2.3% 2.2% 1.6% 1.9% 2.1%
x265 [info]: encoded 62725 frames in 40723.99s (1.54 fps), 5640.48 kb/s, Avg QP:20.88
МедиаинфоОбщее
Уникальный идентификатор : 109183770735935187645061389007924965388 (0x522407837DB834AD7F656A78374F300C)
Полное имя : \\.\The.Expanse.S03E01.Fight.or.Flight.mkv
Формат : Matroska
Версия формата : Version 4
Размер файла : 2,23 Гбайт
Продолжительность : 43 м. 36 с.
Общий поток : 7 309 Кбит/сек
Частота кадров : 23,976 кадра/сек
Название фильма : The.Expanse.S03E01.Fight.or.Flight / Дерись или улетай
Трек/Положение : 3
Кодирование произвёл : OldGamer
Тип содержимого : TV Show
Описание : В свете произошедших событий, а также после разговора с Савидаром, генеральный секретарь объявляет Марсу войну.
Дата выпуска : 2018-04-11
Дата записи : 2018-04-11
Программа кодирования : mkvmerge v82.0 ('I'm The President') 64-bit
Библиотека кодирования : libebml v1.4.5 + libmatroska v1.7.1 / xvid5psp
Обложка : Yes
Attachments : cover.jpg
ACTOR : Steven Strait, Dominique Tipper, Cas Anvar, Wes Chatham, Shohreh Aghdashloo, Frankie Adams, Shawn Doyle, Cara Gee, Briana Templeton, David Chinchilla, David Patrick Green, Samora Smallwood, David Tompa, Nick E. Tarabay, Jonathan Whittaker, Chad L. Co...
ARTIST : Steven Strait, Dominique Tipper, Cas Anvar, Wes Chatham, Shohreh Aghdashloo, Frankie Adams, Shawn Doyle, Cara Gee, Briana Templeton, David Chinchilla, David Patrick Green, Samora Smallwood, David Tompa, Nick E. Tarabay, Jonathan Whittaker, Chad L. Co...
DIRECTOR : Breck Eisner
EPISODE.PART_NUM : 1
GENRE : драма, детектив, НФ и Фэнтези
LAW_RATING : TV-14
RATING : TV-14
SCREENPLAY_BY : Hawk Ostby, Mark Fergus
SEASON.PART_NUM : 3
SUMMARY : В свете произошедших событий, а также после разговора с Савидаром, генеральный секретарь объявляет Марсу войну.
SYNOPSIS : В свете произошедших событий, а также после разговора с Савидаром, генеральный секретарь объявляет Марсу войну. Узнав о его решении, Нагата как может маскирует космолет, однако для выживания команде приходится срочно искать надежное место укрытия от врагов. Вскоре чувствующий себя обязанным Праксу Холден предлагает экипажу вместо плана Наоми отправиться на один из спутников Венеры, где у них, возможно, появится шанс спасти дочь Менга. Корабль Авасаралы между тем оказывается под прицелом ракет Эрринрайта, и у оказавшихся на борту людей остается 15 минут до взрыва, чтобы покинуть судно и попытаться спастись.
WRITTEN_BY : Hawk Ostby, Mark Fergus

Видео
Идентификатор : 1
Формат : HEVC
Формат/Информация : High Efficiency Video Coding
Профиль формата : Main 10@L4.1@High
Идентификатор кодека : V_MPEGH/ISO/HEVC
Продолжительность : 43 м. 36 с.
Битрейт : 5 641 Кбит/сек
Ширина : 1 920 пикселей
Высота : 1 080 пикселей
Соотношение сторон : 16:9
Режим частоты кадров : Постоянный
Частота кадров : 23,976 (24000/1001) кадра/сек
Цветовое пространство : YUV
Субдискретизация насыщенности : 4:2:0
Битовая глубина : 10 бит
Бит/(Пиксели*Кадры) : 0.113
Размер потока : 1,72 Гбайт (77%)
Заголовок : The Expanse S03E01 / Rip by OldGamer
Библиотека кодирования : x265 3.2.1+3-b4b2ecac21f6:[Windows][MSVC 1924][64 bit] 10bit
Настройки программы : cpuid=1111039 / frame-threads=3 / numa-pools=8 / wpp / no-pmode / no-pme / psnr / ssim / log-level=2 / input-csp=1 / input-res=1920x1080 / interlace=0 / total-frames=62725 / level-idc=41 / high-tier=1 / uhd-bd=0 / ref=5 / no-allow-non-conformance / no-repeat-headers / annexb / no-aud / no-hrd / info / hash=0 / no-temporal-layers / open-gop / min-keyint=23 / keyint=240 / gop-lookahead=0 / bframes=16 / b-adapt=2 / b-pyramid / bframe-bias=0 / rc-lookahead=60 / lookahead-slices=0 / scenecut=40 / radl=0 / no-splice / no-intra-refresh / ctu=64 / min-cu-size=8 / rect / amp / max-tu-size=32 / tu-inter-depth=4 / tu-intra-depth=4 / limit-tu=1 / rdoq-level=2 / dynamic-rd=0.00 / no-ssim-rd / signhide / no-tskip / nr-intra=0 / nr-inter=0 / no-constrained-intra / no-strong-intra-smoothing / max-merge=5 / limit-refs=3 / no-limit-modes / me=3 / subme=7 / merange=57 / temporal-mvp / no-hme / weightp / weightb / no-analyze-src-pics / deblock=-3:-3 / no-sao / no-sao-non-deblock / rd=6 / selective-sao=0 / no-early-skip / rskip / no-fast-intra / no-tskip-fast / no-cu-lossless / b-intra / no-splitrd-skip / rdpenalty=0 / psy-rd=2.00 / psy-rdoq=1.00 / no-rd-refine / no-lossless / cbqpoffs=0 / crqpoffs=0 / rc=crf / crf=20.0 / qcomp=0.60 / qpstep=4 / stats-write=0 / stats-read=0 / vbv-maxrate=50000 / vbv-bufsize=50000 / vbv-init=0.9 / crf-max=0.0 / crf-min=0.0 / ipratio=1.40 / pbratio=1.30 / aq-mode=4 / aq-strength=0.80 / no-cutree / zone-count=0 / no-strict-cbr / qg-size=32 / no-rc-grain / qpmax=69 / qpmin=0 / no-const-vbv / sar=1 / overscan=0 / videoformat=5 / range=0 / colorprim=2 / transfer=2 / colormatrix=2 / chromaloc=0 / display-window=0 / cll=0,0 / min-luma=0 / max-luma=1023 / log2-max-poc-lsb=8 / vui-timing-info / vui-hrd-info / slices=1 / no-opt-qp-pps / no-opt-ref-list-length-pps / no-multi-pass-opt-rps / scenecut-bias=0.00 / no-opt-cu-delta-qp / no-aq-motion / no-hdr / no-hdr-opt / no-dhdr10-opt / no-idr-recovery-sei / analysis-reuse-level=5 / scale-factor=0 / refine-intra=0 / refine-inter=0 / refine-mv=1 / refine-ctu-distortion=0 / no-limit-sao / ctu-info=0 / no-lowpass-dct / refine-analysis-type=0 / copy-pic=1 / max-ausize-factor=1.0 / no-dynamic-refine / no-single-sei / no-hevc-aq / no-svt / no-field / qp-adaptation-range=1.00
Язык : English
Default : Да
Forced : Нет

Аудио #1
Идентификатор : 2
Формат : AC-3
Формат/Информация : Audio Coding 3
Коммерческое название : Dolby Digital
Идентификатор кодека : A_AC3
Продолжительность : 43 м. 36 с.
Вид битрейта : Постоянный
Битрейт : 640 Кбит/сек
Каналы : 6 каналов
Channel layout : L R C LFE Ls Rs
Частота : 48,0 КГц
Частота кадров : 31,250 кадров/сек (1536 SPF)
Метод сжатия : С потерями
Размер потока : 200 Мбайт (9%)
Заголовок : MVO (LostFilm)
Язык : Russian
Service kind : Complete Main
Default : Да
Forced : Нет

Аудио #2
Идентификатор : 3
Формат : AC-3
Формат/Информация : Audio Coding 3
Коммерческое название : Dolby Digital
Идентификатор кодека : A_AC3
Продолжительность : 43 м. 32 с.
Вид битрейта : Постоянный
Битрейт : 384 Кбит/сек
Каналы : 6 каналов
Channel layout : L R C LFE Ls Rs
Частота : 48,0 КГц
Частота кадров : 31,250 кадров/сек (1536 SPF)
Метод сжатия : С потерями
Размер потока : 120 Мбайт (5%)
Заголовок : MVO (AlexFilm)
Язык : Russian
Service kind : Complete Main
Default : Нет
Forced : Нет

Аудио #3
Идентификатор : 4
Формат : AC-3
Формат/Информация : Audio Coding 3
Коммерческое название : Dolby Digital
Идентификатор кодека : A_AC3
Продолжительность : 43 м. 36 с.
Вид битрейта : Постоянный
Битрейт : 640 Кбит/сек
Каналы : 6 каналов
Channel layout : L R C LFE Ls Rs
Частота : 48,0 КГц
Частота кадров : 31,250 кадров/сек (1536 SPF)
Метод сжатия : С потерями
Размер потока : 200 Мбайт (9%)
Заголовок : Original
Язык : English
Service kind : Complete Main
Default : Нет
Forced : Нет

Текст #1
Идентификатор : 5
Формат : UTF-8
Идентификатор кодека : S_TEXT/UTF8
Идентификатор кодека/Информация : UTF-8 Plain Text
Продолжительность : 42 м. 24 с.
Битрейт : 125 бит/сек
Частота кадров : 0,263 кадр/сек
Count of elements : 669
Размер потока : 39,0 Кбайт (0%)
Язык : Russian
Default : Нет
Forced : Нет

Текст #2
Идентификатор : 6
Формат : UTF-8
Идентификатор кодека : S_TEXT/UTF8
Идентификатор кодека/Информация : UTF-8 Plain Text
Продолжительность : 42 м. 24 с.
Битрейт : 66 бит/сек
Частота кадров : 0,284 кадр/сек
Count of elements : 724
Размер потока : 20,8 Кбайт (0%)
Язык : English
Default : Нет
Forced : Нет

Меню
00:00:00.000 : en:Chapter 1
00:03:29.876 : en:Chapter 2
00:21:12.980 : en:Chapter 3
00:34:15.178 : en:Chapter 4
Загрузка...Cкриншот1 Пространство / Экспансия / The Expanse (2018) [3 сезон] BDRip 1080p [HEVC] 10 bit от OldGamerЗагрузка...Cкриншот2 Пространство / Экспансия / The Expanse (2018) [3 сезон] BDRip 1080p [HEVC] 10 bit от OldGamerЗагрузка...Cкриншот3 Пространство / Экспансия / The Expanse (2018) [3 сезон] BDRip 1080p [HEVC] 10 bit от OldGamerЗагрузка...Cкриншот4 Пространство / Экспансия / The Expanse (2018) [3 сезон] BDRip 1080p [HEVC] 10 bit от OldGamer
4. Пространство / Экспансия / The Expanse (2019) [4 сезон] BDRip 1080p [HEVC] 10 bit от OldGamer
Обложка Пространство / Экспансия / The Expanse (2019) [4 сезон] BDRip 1080p [HEVC] 10 bit от OldGamer
HEVC
10 bit
✂︎Сэмпл
Год: 2019
Страна: США, Канада
Студия: Alcon Entertainment, Sean Daniel Company
Жанр: Фантастика, Драма, Детектив
Длительность: 07:48:36

Режиссер: Джефф Вулнаф, Брек Эйснер, Терри МакДонаф
В ролях: Стивен Стрейт, Доминик Типпер, Уэс Чэтэм, Шохре Агдашлу, Кэс Анвар, Фрэнки Адамс, Кара Ги, Шон Дойл, Томас Джейн, Флоренс Ванида Фэйвр

Описание: Через двести лет от дня сегодняшнего некий сыщик, привыкший всё доводить до конца при любых обстоятельствах, в рамках расследования дела об исчезновении молодой женщины оказывается на борту звездолета, капитан которого решает помочь детективу в его непростом деле. Величайший заговор в истории человечества гарантируется, как и его непременное раскрытие.


Исходник: BDRemux (SiCFoI)
Видео: 1920x1080, 2350-4751 Kbps
Аудио1: AC3, 6 ch, 640 Kbps - РусскийРусский, MVO (LostFilm)
Аудио2: AC3, 6 ch, 384 Kbps - РусскийРусский, MVO (AlexFilm)
Аудио3: AC3, 6 ch, 640 Kbps - АнглийскийАнглийский
Субтитры: русские, английские (SDH)

Как за несколько секунд удалить ненужные аудиодорожки и субтитры (Внимание! После удаления вы не сможете поддержать раздачу)


Лог (x265 info)x265 [info]: frame I: 269, Avg QP:16.27 kb/s: 14915.16
x265 [info]: frame P: 9016, Avg QP:17.63 kb/s: 8774.05
x265 [info]: frame B: 54565, Avg QP:19.96 kb/s: 3161.41
x265 [info]: Weighted P-Frames: Y:5.5% UV:4.6%
x265 [info]: Weighted B-Frames: Y:6.3% UV:4.8%
x265 [info]: consecutive B-frames: 1.7% 1.7% 3.9% 13.9% 9.7% 26.9% 7.6% 11.1% 5.4% 4.6% 4.0% 4.7% 1.7% 1.0% 1.2% 0.9%
x265 [info]: encoded 63850 frames in 32209.70s (1.98 fps), 4003.47 kb/s, Avg QP:19.61
МедиаинфоОбщее
Уникальный идентификатор : 130849844286706381476038693475023827125 (0x6270C369CAEA12BFA5EB4B0075FBB0B5)
Полное имя : \\.\The.Expanse.S04E07.A.Shot.In.The.Dark.mkv
Формат : Matroska
Версия формата : Version 4
Размер файла : 1,76 Гбайт
Продолжительность : 44 м. 23 с.
Общий поток : 5 672 Кбит/сек
Частота кадров : 23,976 кадра/сек
Название фильма : The.Expanse.S04E07.A.Shot.In.The.Dark / Выстрел в темноте
Трек/Положение : 4
Кодирование произвёл : OldGamer
Тип содержимого : TV Show
Описание : Наоми и Алекс работают над тем, чтобы Барбапиккола оставалась на орбите во время отключения электроэнергии. Авасарала сталкивается с трудным решением. Холден и Элви мчатся, чтобы найти лекарство от болезни, распространяющейся на Илусе.
Дата выпуска : 2019-12-13
Дата записи : 2019-12-13
Программа кодирования : mkvmerge v82.0 ('I'm The President') 64-bit
Библиотека кодирования : libebml v1.4.5 + libmatroska v1.7.1 / xvid5psp
Обложка : Yes
Attachments : cover.jpg
ACTOR : Steven Strait, Dominique Tipper, Cas Anvar, Wes Chatham, Shohreh Aghdashloo, Frankie Adams, Cara Gee, Keon Alexander, Benz Antoine, Burn Gorman, Rosa Gilmore, Lyndie Greenwood, Jess Salgueiro, Keon Alexander, Benz Antoine, Burn Gorman, Rosa Gilmore, ...
ARTIST : Steven Strait, Dominique Tipper, Cas Anvar, Wes Chatham, Shohreh Aghdashloo, Frankie Adams, Cara Gee, Keon Alexander, Benz Antoine, Burn Gorman, Rosa Gilmore, Lyndie Greenwood, Jess Salgueiro, Keon Alexander, Benz Antoine, Burn Gorman, Rosa Gilmore, ...
DIRECTOR : Sarah Harding
EPISODE.PART_NUM : 7
GENRE : драма, детектив, НФ и Фэнтези
LAW_RATING : TV-14
PRODUCER : Laura Marks
RATING : TV-14
SCREENPLAY_BY : Dan Nowak
SEASON.PART_NUM : 4
SUMMARY : Наоми и Алекс работают над тем, чтобы Барбапиккола оставалась на орбите во время отключения электроэнергии. Авасарала сталкивается с трудным решением. Холден и Элви мчатся, чтобы найти лекарство от болезни, распространяющейся на Илусе.
SYNOPSIS : Наоми и Алекс работают над тем, чтобы Барбапиккола оставалась на орбите во время отключения электроэнергии. Авасарала сталкивается с трудным решением. Холден и Элви мчатся, чтобы найти лекарство от болезни, распространяющейся на Илусе.
WRITTEN_BY : Dan Nowak

Видео
Идентификатор : 1
Формат : HEVC
Формат/Информация : High Efficiency Video Coding
Профиль формата : Main 10@L4.1@High
Идентификатор кодека : V_MPEGH/ISO/HEVC
Продолжительность : 44 м. 23 с.
Битрейт : 4 004 Кбит/сек
Ширина : 1 920 пикселей
Высота : 1 080 пикселей
Соотношение сторон : 16:9
Режим частоты кадров : Постоянный
Частота кадров : 23,976 (24000/1001) кадра/сек
Цветовое пространство : YUV
Субдискретизация насыщенности : 4:2:0
Битовая глубина : 10 бит
Бит/(Пиксели*Кадры) : 0.081
Размер потока : 1,24 Гбайт (71%)
Заголовок : The Expanse S04E07 / Rip by OldGamer
Библиотека кодирования : x265 3.4+12-g9103319fc:[Windows][GCC 10.2.0][64 bit] 10bit
Настройки программы : cpuid=1111039 / frame-threads=3 / numa-pools=8 / wpp / no-pmode / no-pme / no-psnr / no-ssim / log-level=2 / input-csp=1 / input-res=1920x1080 / interlace=0 / total-frames=63850 / level-idc=41 / high-tier=1 / uhd-bd=0 / ref=5 / no-allow-non-conformance / no-repeat-headers / annexb / no-aud / no-hrd / info / hash=0 / no-temporal-layers / open-gop / min-keyint=23 / keyint=240 / gop-lookahead=0 / bframes=15 / b-adapt=2 / b-pyramid / bframe-bias=0 / rc-lookahead=40 / lookahead-slices=0 / scenecut=40 / hist-scenecut=0 / radl=0 / no-splice / no-intra-refresh / ctu=32 / min-cu-size=8 / rect / amp / max-tu-size=32 / tu-inter-depth=4 / tu-intra-depth=4 / limit-tu=1 / rdoq-level=2 / dynamic-rd=0.00 / no-ssim-rd / signhide / no-tskip / nr-intra=0 / nr-inter=0 / no-constrained-intra / no-strong-intra-smoothing / max-merge=5 / limit-refs=3 / no-limit-modes / me=3 / subme=7 / merange=57 / temporal-mvp / no-frame-dup / no-hme / weightp / weightb / no-analyze-src-pics / deblock=-3:-3 / no-sao / no-sao-non-deblock / rd=6 / selective-sao=0 / no-early-skip / rskip / no-fast-intra / no-tskip-fast / no-cu-lossless / b-intra / no-splitrd-skip / rdpenalty=0 / psy-rd=1.00 / psy-rdoq=1.00 / no-rd-refine / no-lossless / cbqpoffs=0 / crqpoffs=0 / rc=crf / crf=19.5 / qcomp=0.70 / qpstep=4 / stats-write=0 / stats-read=0 / vbv-maxrate=50000 / vbv-bufsize=50000 / vbv-init=0.9 / crf-max=0.0 / crf-min=0.0 / ipratio=1.40 / pbratio=1.30 / aq-mode=4 / aq-strength=0.80 / no-cutree / zone-count=0 / no-strict-cbr / qg-size=32 / no-rc-grain / qpmax=69 / qpmin=0 / no-const-vbv / sar=1 / overscan=0 / videoformat=5 / range=0 / colorprim=2 / transfer=2 / colormatrix=2 / chromaloc=0 / display-window=0 / cll=0,0 / min-luma=0 / max-luma=1023 / log2-max-poc-lsb=8 / vui-timing-info / vui-hrd-info / slices=1 / no-opt-qp-pps / no-opt-ref-list-length-pps / no-multi-pass-opt-rps / scenecut-bias=0.00 / hist-threshold=0.01 / no-opt-cu-delta-qp / no-aq-motion / no-hdr10 / no-hdr10-opt / no-dhdr10-opt / no-idr-recovery-sei / analysis-reuse-level=0 / analysis-save-reuse-level=0 / analysis-load-reuse-level=0 / scale-factor=0 / refine-intra=0 / refine-inter=0 / refine-mv=1 / refine-ctu-distortion=0 / no-limit-sao / ctu-info=0 / no-lowpass-dct / refine-analysis-type=0 / copy-pic=1 / max-ausize-factor=1.0 / no-dynamic-refine / no-single-sei / no-hevc-aq / no-svt / no-field / qp-adaptation-range=1.00 / no-scenecut-aware-qpconformance-window-offsets / right=0 / bottom=0 / decoder-max-rate=0
Язык : English
Default : Да
Forced : Нет

Аудио #1
Идентификатор : 2
Формат : AC-3
Формат/Информация : Audio Coding 3
Коммерческое название : Dolby Digital
Идентификатор кодека : A_AC3
Продолжительность : 44 м. 22 с.
Вид битрейта : Постоянный
Битрейт : 640 Кбит/сек
Каналы : 6 каналов
Channel layout : L R C LFE Ls Rs
Частота : 48,0 КГц
Частота кадров : 31,250 кадров/сек (1536 SPF)
Метод сжатия : С потерями
Размер потока : 203 Мбайт (11%)
Заголовок : MVO (LostFilm)
Язык : Russian
Service kind : Complete Main
Default : Да
Forced : Нет

Аудио #2
Идентификатор : 3
Формат : AC-3
Формат/Информация : Audio Coding 3
Коммерческое название : Dolby Digital
Идентификатор кодека : A_AC3
Продолжительность : 44 м. 22 с.
Вид битрейта : Постоянный
Битрейт : 384 Кбит/сек
Каналы : 6 каналов
Channel layout : L R C LFE Ls Rs
Частота : 48,0 КГц
Частота кадров : 31,250 кадров/сек (1536 SPF)
Метод сжатия : С потерями
Размер потока : 122 Мбайт (7%)
Заголовок : MVO (AlexFilm)
Язык : Russian
Service kind : Complete Main
Default : Нет
Forced : Да

Аудио #3
Идентификатор : 4
Формат : AC-3
Формат/Информация : Audio Coding 3
Коммерческое название : Dolby Digital
Идентификатор кодека : A_AC3
Продолжительность : 44 м. 23 с.
Вид битрейта : Постоянный
Битрейт : 640 Кбит/сек
Каналы : 6 каналов
Channel layout : L R C LFE Ls Rs
Частота : 48,0 КГц
Частота кадров : 31,250 кадров/сек (1536 SPF)
Метод сжатия : С потерями
Размер потока : 203 Мбайт (11%)
Заголовок : Original
Язык : English
Service kind : Complete Main
Default : Нет
Forced : Нет

Текст #1
Идентификатор : 5
Формат : UTF-8
Идентификатор кодека : S_TEXT/UTF8
Идентификатор кодека/Информация : UTF-8 Plain Text
Продолжительность : 39 м. 35 с.
Битрейт : 145 бит/сек
Частота кадров : 0,264 кадр/сек
Count of elements : 628
Размер потока : 42,1 Кбайт (0%)
Язык : Russian
Default : Нет
Forced : Нет

Текст #2
Идентификатор : 6
Формат : UTF-8
Идентификатор кодека : S_TEXT/UTF8
Идентификатор кодека/Информация : UTF-8 Plain Text
Продолжительность : 44 м. 19 с.
Битрейт : 84 бит/сек
Частота кадров : 0,299 кадр/сек
Count of elements : 794
Размер потока : 27,4 Кбайт (0%)
Заголовок : SDH
Язык : English
Default : Нет
Forced : Нет

Меню
00:00:00.000 : en:Chapter 01
00:01:09.278 : en:Chapter 02
00:07:56.017 : en:Chapter 03
00:20:35.985 : en:Chapter 04
00:33:23.668 : en:Chapter 05
00:42:08.735 : en:Chapter 06
Загрузка...Cкриншот1 Пространство / Экспансия / The Expanse (2019) [4 сезон] BDRip 1080p [HEVC] 10 bit от OldGamerЗагрузка...Cкриншот2 Пространство / Экспансия / The Expanse (2019) [4 сезон] BDRip 1080p [HEVC] 10 bit от OldGamerЗагрузка...Cкриншот3 Пространство / Экспансия / The Expanse (2019) [4 сезон] BDRip 1080p [HEVC] 10 bit от OldGamerЗагрузка...Cкриншот4 Пространство / Экспансия / The Expanse (2019) [4 сезон] BDRip 1080p [HEVC] 10 bit от OldGamer
5. Пространство / Экспансия / The Expanse (2021) [5 сезон] BDRip 1080p [HEVC] 10 bit от OldGamer
Обложка Пространство / Экспансия / The Expanse (2021) [5 сезон] BDRip 1080p [HEVC] 10 bit от OldGamer
HEVC
10 bit
✂︎Сэмпл
Год: 2021
Страна: США, Канада
Студия: Alcon Entertainment, Sean Daniel Company
Жанр: Фантастика, Драма, Детектив
Длительность: 08:30:53

Режиссер: Джефф Вулнаф, Брек Эйснер, Терри МакДонаф
В ролях: Стивен Стрейт, Доминик Типпер, Уэс Чэтэм, Шохре Агдашлу, Кэс Анвар, Фрэнки Адамс, Кара Ги, Шон Дойл, Томас Джейн, Флоренс Ванида Фэйвр

Описание: Через двести лет от дня сегодняшнего некий сыщик, привыкший всё доводить до конца при любых обстоятельствах, в рамках расследования дела об исчезновении молодой женщины оказывается на борту звездолета, капитан которого решает помочь детективу в его непростом деле. Величайший заговор в истории человечества гарантируется, как и его непременное раскрытие.


Исходник: Blu-Ray Remux 1080p (SiCFoI)
Видео: 1920x960, 4187-6044 Kbps
Аудио1: AC3, 6 ch, 640 Kbps - РусскийРусский, MVO (LostFilm)
Аудио2: AC3, 6 ch, 384 Kbps - РусскийРусский, MVO (AlexFilm)
Аудио3: AC3, 6 ch, 640 Kbps - АнглийскийАнглийский
Субтитры: русские (full, forced), английские (SDH)

Как за несколько секунд удалить ненужные аудиодорожки и субтитры (Внимание! После удаления вы не сможете поддержать раздачу)


Лог (x265 info)x265 [info]: frame I: 300, Avg QP:18.21 kb/s: 16452.65
x265 [info]: frame P: 8501, Avg QP:19.28 kb/s: 12172.80
x265 [info]: frame B: 61782, Avg QP:21.58 kb/s: 4023.89
x265 [info]: Weighted P-Frames: Y:9.9% UV:7.6%
x265 [info]: Weighted B-Frames: Y:11.0% UV:7.3%
x265 [info]: encoded 70583 frames in 56521.38s (1.25 fps), 5058.17 kb/s, Avg QP:21.29
МедиаинфоОбщее
Уникальный идентификатор : 54802708308950985752289384047102130447 (0x293A9E215CD2F9CFB075E8FAD48FF90F)
Полное имя : \.\The.Expanse.S05E05.Down.and.Out.mkv
Формат : Matroska
Версия формата : Version 4
Размер файла : 2,31 Гбайт
Продолжительность : 49 м. 3 с.
Общий поток : 6 727 Кбит/сек
Частота кадров : 23,976 кадра/сек
Название фильма : The.Expanse.S05E05.Down.and.Out / Безнадежность
Трек/Положение : 5
Кодирование произвёл : OldGamer
Тип содержимого : TV Show
Описание : Амос и Кларисса оказались в ловушке обрушившегося здания. Наоми борется со своей старой семьей. Холден собирает новую команду на «Роси». Алекс и Бобби делают опасное открытие в Поясе.
Дата выпуска : 2020-12-30
Дата записи : 2020-12-30
Программа кодирования : mkvmerge v82.0 ('I'm The President') 64-bit
Библиотека кодирования : libebml v1.4.5 + libmatroska v1.7.1 / xvid4psp5
Обложка : Yes
Attachments : cover.jpg
ACTOR : Steven Strait, Dominique Tipper, Cas Anvar, Wes Chatham, Shohreh Aghdashloo, Frankie Adams, Cara Gee, Nadine Nicole, Keon Alexander, Bahia Watson, Natalie Brown, Arnold Pinnock, Boomer Phillips, Brent Sexton, Jasai Chase-Owens, Wilex Ly, George Tchor...
ARTIST : Steven Strait, Dominique Tipper, Cas Anvar, Wes Chatham, Shohreh Aghdashloo, Frankie Adams, Cara Gee, Nadine Nicole, Keon Alexander, Bahia Watson, Natalie Brown, Arnold Pinnock, Boomer Phillips, Brent Sexton, Jasai Chase-Owens, Wilex Ly, George Tchor...
DIRECTOR : Jeff Woolnough
EPISODE.PART_NUM : 5
GENRE : драма, детектив, НФ и Фэнтези
LAW_RATING : TV-14
RATING : TV-14
SCREENPLAY_BY : Matthew Rasmussen
SEASON.PART_NUM : 5
SUMMARY : Амос и Кларисса оказались в ловушке обрушившегося здания. Наоми борется со своей старой семьей. Холден собирает новую команду на «Роси». Алекс и Бобби делают опасное открытие в Поясе.
SYNOPSIS : Амос и Кларисса оказались в ловушке обрушившегося здания. Наоми борется со своей старой семьей. Холден собирает новую команду на «Роси». Алекс и Бобби делают опасное открытие в Поясе.
WRITTEN_BY : Matthew Rasmussen

Видео
Идентификатор : 1
Формат : HEVC
Формат/Информация : High Efficiency Video Coding
Профиль формата : Main 10@L4.1@High
Идентификатор кодека : V_MPEGH/ISO/HEVC
Продолжительность : 49 м. 3 с.
Битрейт : 5 059 Кбит/сек
Ширина : 1 920 пикселей
Высота : 960 пикселей
Соотношение сторон : 2,000
Режим частоты кадров : Постоянный
Частота кадров : 23,976 (24000/1001) кадра/сек
Цветовое пространство : YUV
Субдискретизация насыщенности : 4:2:0
Битовая глубина : 10 бит
Бит/(Пиксели*Кадры) : 0.114
Размер потока : 1,73 Гбайт (75%)
Заголовок : The Expanse S05E05 / Rip by OldGamer
Библиотека кодирования : x265 3.5+110-8ee01d45b:[Windows][GCC 13.2.0][64 bit] 10bit
Настройки программы : cpuid=1111039 / frame-threads=3 / numa-pools=8 / wpp / no-pmode / no-pme / no-psnr / no-ssim / log-level=2 / input-csp=1 / input-res=1920x960 / interlace=0 / total-frames=70583 / level-idc=41 / high-tier=1 / uhd-bd=0 / ref=5 / no-allow-non-conformance / no-repeat-headers / annexb / no-aud / no-eob / no-eos / no-hrd / info / hash=0 / temporal-layers=0 / open-gop / min-keyint=23 / keyint=240 / gop-lookahead=0 / bframes=16 / b-adapt=2 / b-pyramid / bframe-bias=0 / rc-lookahead=60 / lookahead-slices=0 / scenecut=40 / no-hist-scenecut / radl=0 / no-splice / no-intra-refresh / ctu=32 / min-cu-size=8 / rect / amp / max-tu-size=32 / tu-inter-depth=4 / tu-intra-depth=4 / limit-tu=1 / rdoq-level=2 / dynamic-rd=0.00 / no-ssim-rd / signhide / no-tskip / nr-intra=0 / nr-inter=0 / no-constrained-intra / no-strong-intra-smoothing / max-merge=5 / limit-refs=3 / no-limit-modes / me=3 / subme=7 / merange=57 / temporal-mvp / no-frame-dup / no-hme / weightp / weightb / no-analyze-src-pics / deblock=-3:-3 / no-sao / no-sao-non-deblock / rd=6 / selective-sao=0 / no-early-skip / no-rskip / no-fast-intra / no-tskip-fast / no-cu-lossless / b-intra / no-splitrd-skip / rdpenalty=0 / psy-rd=2.50 / psy-rdoq=1.25 / no-rd-refine / no-lossless / cbqpoffs=0 / crqpoffs=0 / rc=crf / crf=20.3 / qcomp=0.60 / qpstep=4 / stats-write=0 / stats-read=0 / vbv-maxrate=50000 / vbv-bufsize=50000 / vbv-init=0.9 / min-vbv-fullness=50.0 / max-vbv-fullness=80.0 / crf-max=0.0 / crf-min=0.0 / ipratio=1.40 / pbratio=1.30 / aq-mode=4 / aq-strength=0.80 / no-cutree / zone-count=1 / zones: / start-frame=69344 / end-frame=70583 / qp=36 / no-strict-cbr / qg-size=32 / no-rc-grain / qpmax=69 / qpmin=0 / no-const-vbv / sar=1 / overscan=0 / videoformat=5 / range=0 / colorprim=2 / transfer=2 / colormatrix=2 / chromaloc=0 / display-window=0 / cll=0,0 / min-luma=0 / max-luma=1023 / log2-max-poc-lsb=8 / vui-timing-info / vui-hrd-info / slices=1 / no-opt-qp-pps / no-opt-ref-list-length-pps / no-multi-pass-opt-rps / scenecut-bias=0.00 / no-opt-cu-delta-qp / no-aq-motion / no-hdr10 / no-hdr10-opt / no-dhdr10-opt / no-idr-recovery-sei / analysis-reuse-level=0 / analysis-save-reuse-level=0 / analysis-load-reuse-level=0 / scale-factor=0 / refine-intra=0 / refine-inter=0 / refine-mv=1 / refine-ctu-distortion=0 / no-limit-sao / ctu-info=0 / no-lowpass-dct / refine-analysis-type=0 / copy-pic=1 / max-ausize-factor=1.0 / no-dynamic-refine / no-single-sei / no-hevc-aq / no-svt / no-field / qp-adaptation-range=1.00 / scenecut-aware-qp=0conformance-window-offsets / right=0 / bottom=0 / decoder-max-rate=0 / no-vbv-live-multi-pass / no-mcstf / no-sbrc
Язык : English
Default : Да
Forced : Нет

Аудио #1
Идентификатор : 2
Формат : AC-3
Формат/Информация : Audio Coding 3
Коммерческое название : Dolby Digital
Идентификатор кодека : A_AC3
Продолжительность : 49 м. 2 с.
Вид битрейта : Постоянный
Битрейт : 640 Кбит/сек
Каналы : 6 каналов
Channel layout : L R C LFE Ls Rs
Частота : 48,0 КГц
Частота кадров : 31,250 кадров/сек (1536 SPF)
Метод сжатия : С потерями
Размер потока : 224 Мбайт (10%)
Заголовок : MVO (LostFilm)
Язык : Russian
Service kind : Complete Main
Default : Да
Forced : Нет

Аудио #2
Идентификатор : 3
Формат : AC-3
Формат/Информация : Audio Coding 3
Коммерческое название : Dolby Digital
Идентификатор кодека : A_AC3
Продолжительность : 49 м. 2 с.
Вид битрейта : Постоянный
Битрейт : 384 Кбит/сек
Каналы : 6 каналов
Channel layout : L R C LFE Ls Rs
Частота : 48,0 КГц
Частота кадров : 31,250 кадров/сек (1536 SPF)
Метод сжатия : С потерями
Размер потока : 135 Мбайт (6%)
Заголовок : MVO (AlexFilm)
Язык : Russian
Service kind : Complete Main
Default : Нет
Forced : Нет

Аудио #3
Идентификатор : 4
Формат : AC-3
Формат/Информация : Audio Coding 3
Коммерческое название : Dolby Digital
Идентификатор кодека : A_AC3
Продолжительность : 49 м. 3 с.
Вид битрейта : Постоянный
Битрейт : 640 Кбит/сек
Каналы : 6 каналов
Channel layout : L R C LFE Ls Rs
Частота : 48,0 КГц
Частота кадров : 31,250 кадров/сек (1536 SPF)
Метод сжатия : С потерями
Размер потока : 225 Мбайт (10%)
Язык : English
Service kind : Complete Main
Default : Нет
Forced : Нет

Текст #1
Идентификатор : 5
Формат : UTF-8
Идентификатор кодека : S_TEXT/UTF8
Идентификатор кодека/Информация : UTF-8 Plain Text
Продолжительность : 46 м. 21 с.
Битрейт : 2 бит/сек
Частота кадров : 0,006 кадр/сек
Count of elements : 17
Размер потока : 990 байт (0%)
Заголовок : Russian @ forced SRT
Язык : Russian
Default : Да
Forced : Нет

Текст #2
Идентификатор : 6
Формат : UTF-8
Идентификатор кодека : S_TEXT/UTF8
Идентификатор кодека/Информация : UTF-8 Plain Text
Продолжительность : 48 м. 49 с.
Битрейт : 81 бит/сек
Частота кадров : 0,197 кадр/сек
Count of elements : 578
Размер потока : 29,0 Кбайт (0%)
Заголовок : Russian @ SRT
Язык : Russian
Default : Нет
Forced : Нет

Текст #3
Идентификатор : 7
Формат : UTF-8
Идентификатор кодека : S_TEXT/UTF8
Идентификатор кодека/Информация : UTF-8 Plain Text
Продолжительность : 46 м. 37 с.
Битрейт : 61 бит/сек
Частота кадров : 0,283 кадр/сек
Count of elements : 792
Размер потока : 20,8 Кбайт (0%)
Заголовок : English @ SRT SDH
Язык : English
Default : Нет
Forced : Нет

Меню
00:00:00.000 : en:Chapter 01
00:10:29.545 : en:Chapter 02
00:20:27.601 : en:Chapter 03
00:30:06.596 : en:Chapter 04
00:39:47.718 : en:Chapter 05
00:46:50.891 : en:Chapter 06
Загрузка...Cкриншот1 Пространство / Экспансия / The Expanse (2021) [5 сезон] BDRip 1080p [HEVC] 10 bit от OldGamerЗагрузка...Cкриншот2 Пространство / Экспансия / The Expanse (2021) [5 сезон] BDRip 1080p [HEVC] 10 bit от OldGamerЗагрузка...Cкриншот3 Пространство / Экспансия / The Expanse (2021) [5 сезон] BDRip 1080p [HEVC] 10 bit от OldGamerЗагрузка...Cкриншот4 Пространство / Экспансия / The Expanse (2021) [5 сезон] BDRip 1080p [HEVC] 10 bit от OldGamer
6. Пространство / Экспансия / The Expanse (2022) [6 сезон] BDRip 1080p [HEVC] 10 bit от OldGamer
Обложка Пространство / Экспансия / The Expanse (2022) [6 сезон] BDRip 1080p [HEVC] 10 bit от OldGamer
HEVC
10 bit
✂︎Сэмпл
Год: 2022
Страна: США, Канада
Студия: Alcon Entertainment, Sean Daniel Company
Жанр: Фантастика, Драма, Детектив
Длительность: 04:51:42

Режиссер: Джефф Вулнаф, Брек Эйснер, Терри МакДонаф
В ролях: Стивен Стрейт, Доминик Типпер, Уэс Чэтэм, Шохре Агдашлу, Кэс Анвар, Фрэнки Адамс, Кара Ги, Шон Дойл, Томас Джейн, Флоренс Ванида Фэйвр

Описание: Через двести лет от дня сегодняшнего некий сыщик, привыкший всё доводить до конца при любых обстоятельствах, в рамках расследования дела об исчезновении молодой женщины оказывается на борту звездолета, капитан которого решает помочь детективу в его непростом деле. Величайший заговор в истории человечества гарантируется, как и его непременное раскрытие.


Исходник: Blu-Ray Remux 1080p (SiCFoI)
Видео: 1920x960, 4255-5380 Kbps
Аудио1: AC3, 6 ch, 448 Kbps - РусскийРусский, MVO (LostFilm)
Аудио2: AC3, 6 ch, 384 Kbps - РусскийРусский, MVO (AlexFilm)
Аудио3: AC3, 6 ch, 640 Kbps - АнглийскийАнглийский
Субтитры: русские (full, forced), английские (SDH)

Как за несколько секунд удалить ненужные аудиодорожки и субтитры (Внимание! После удаления вы не сможете поддержать раздачу)


Лог (x265 info)x265 [info]: frame I: 280, Avg QP:18.38 kb/s: 16690.67
x265 [info]: frame P: 8321, Avg QP:19.45 kb/s: 12229.41
x265 [info]: frame B: 57230, Avg QP:21.68 kb/s: 3950.45
x265 [info]: Weighted P-Frames: Y:10.0% UV:7.6%
x265 [info]: Weighted B-Frames: Y:8.3% UV:5.2%
x265 [info]: encoded 65831 frames in 42684.06s (1.54 fps), 5051.10 kb/s, Avg QP:21.38
МедиаинфоОбщее
Уникальный идентификатор : 312834683871889539940628962263679821985 (0xEB59C4BE75965B69F10F67993ED2E8A1)
Полное имя : \\.\The.Expanse.S06E01.Strange.Dogs.mkv
Формат : Matroska
Версия формата : Version 4
Размер файла : 2,09 Гбайт
Продолжительность : 47 м. 3 с.
Общий поток : 6 372 Кбит/сек
Частота кадров : 23,976 кадра/сек
Название фильма : The.Expanse.S06E01.Strange.Dogs / Странные собаки
Трек/Положение : 6
Кодирование произвёл : OldGamer
Тип содержимого : TV Show
Описание : Команда «Росинанта» совершает посадку на незнакомом астероиде, где их поджидает пугающее открытие. Чем это грозит для них в будущем?
Дата выпуска : 2021-12-09
Дата записи : 2021-12-09
Программа кодирования : mkvmerge v82.0 ('I'm The President') 64-bit
Библиотека кодирования : libebml v1.4.5 + libmatroska v1.7.1 / xvid4psp5
Обложка : Yes
Attachments : cover.jpg
ACTOR : Steven Strait, Dominique Tipper, Wes Chatham, Shohreh Aghdashloo, Frankie Adams, Cara Gee, Nadine Nicole, Keon Alexander, Jasai Chase-Owens, Gabriel Darku, Anna Hopkins, Samer Salem, Vanessa Smythe, Kathleen Robertson, Joanne Vannicola, Ted Dykstra, ...
ARTIST : Steven Strait, Dominique Tipper, Wes Chatham, Shohreh Aghdashloo, Frankie Adams, Cara Gee, Nadine Nicole, Keon Alexander, Jasai Chase-Owens, Gabriel Darku, Anna Hopkins, Samer Salem, Vanessa Smythe, Kathleen Robertson, Joanne Vannicola, Ted Dykstra, ...
DIRECTOR : Breck Eisner
EPISODE.PART_NUM : 1
GENRE : драма, детектив, НФ и Фэнтези
LAW_RATING : TV-14
RATING : TV-14
SCREENPLAY_BY : Naren Shankar
SEASON.PART_NUM : 6
SUMMARY : Команда «Росинанта» совершает посадку на незнакомом астероиде, где их поджидает пугающее открытие. Чем это грозит для них в будущем?
SYNOPSIS : Команда «Росинанта» совершает посадку на незнакомом астероиде, где их поджидает пугающее открытие. Чем это грозит для них в будущем? В это время Авасарала и Бобби пытаются восстановить порядок на опустошенной Земле, а Драммер и ее семье предстоит принять судьбоносное решение. На Церере Марко и Филип сталкиваются с внутренними проблемами.
WRITTEN_BY : Naren Shankar

Видео
Идентификатор : 1
Формат : HEVC
Формат/Информация : High Efficiency Video Coding
Профиль формата : Main 10@L4.1@High
Идентификатор кодека : V_MPEGH/ISO/HEVC
Продолжительность : 45 м. 45 с.
Битрейт : 5 052 Кбит/сек
Ширина : 1 920 пикселей
Высота : 960 пикселей
Соотношение сторон : 2,000
Режим частоты кадров : Постоянный
Частота кадров : 23,976 (24000/1001) кадра/сек
Цветовое пространство : YUV
Субдискретизация насыщенности : 4:2:0
Битовая глубина : 10 бит
Бит/(Пиксели*Кадры) : 0.114
Размер потока : 1,61 Гбайт (77%)
Заголовок : The Expanse S06E01 / Rip by OldGamer
Библиотека кодирования : x265 3.5+110-8ee01d45b:[Windows][GCC 13.2.0][64 bit] 10bit
Настройки программы : cpuid=1111039 / frame-threads=4 / numa-pools=16 / wpp / no-pmode / no-pme / no-psnr / no-ssim / log-level=2 / input-csp=1 / input-res=1920x960 / interlace=0 / total-frames=65831 / level-idc=41 / high-tier=1 / uhd-bd=0 / ref=5 / no-allow-non-conformance / no-repeat-headers / annexb / no-aud / no-eob / no-eos / no-hrd / info / hash=0 / temporal-layers=0 / open-gop / min-keyint=23 / keyint=240 / gop-lookahead=0 / bframes=16 / b-adapt=2 / b-pyramid / bframe-bias=0 / rc-lookahead=40 / lookahead-slices=0 / scenecut=40 / no-hist-scenecut / radl=0 / no-splice / no-intra-refresh / ctu=32 / min-cu-size=8 / rect / amp / max-tu-size=32 / tu-inter-depth=4 / tu-intra-depth=4 / limit-tu=1 / rdoq-level=2 / dynamic-rd=0.00 / no-ssim-rd / signhide / no-tskip / nr-intra=0 / nr-inter=0 / no-constrained-intra / no-strong-intra-smoothing / max-merge=5 / limit-refs=3 / no-limit-modes / me=3 / subme=7 / merange=57 / temporal-mvp / no-frame-dup / no-hme / weightp / weightb / no-analyze-src-pics / deblock=-3:-3 / no-sao / no-sao-non-deblock / rd=6 / selective-sao=0 / no-early-skip / no-rskip / no-fast-intra / no-tskip-fast / no-cu-lossless / b-intra / no-splitrd-skip / rdpenalty=0 / psy-rd=2.50 / psy-rdoq=1.25 / no-rd-refine / no-lossless / cbqpoffs=0 / crqpoffs=0 / rc=crf / crf=20.2 / qcomp=0.60 / qpstep=4 / stats-write=0 / stats-read=0 / vbv-maxrate=50000 / vbv-bufsize=50000 / vbv-init=0.9 / min-vbv-fullness=50.0 / max-vbv-fullness=80.0 / crf-max=0.0 / crf-min=0.0 / ipratio=1.40 / pbratio=1.30 / aq-mode=4 / aq-strength=0.80 / no-cutree / zone-count=1 / zones: / start-frame=64564 / end-frame=65831 / qp=36 / no-strict-cbr / qg-size=32 / no-rc-grain / qpmax=69 / qpmin=0 / no-const-vbv / sar=1 / overscan=0 / videoformat=5 / range=0 / colorprim=2 / transfer=2 / colormatrix=2 / chromaloc=0 / display-window=0 / cll=0,0 / min-luma=0 / max-luma=1023 / log2-max-poc-lsb=8 / vui-timing-info / vui-hrd-info / slices=1 / no-opt-qp-pps / no-opt-ref-list-length-pps / no-multi-pass-opt-rps / scenecut-bias=0.00 / no-opt-cu-delta-qp / no-aq-motion / no-hdr10 / no-hdr10-opt / no-dhdr10-opt / no-idr-recovery-sei / analysis-reuse-level=0 / analysis-save-reuse-level=0 / analysis-load-reuse-level=0 / scale-factor=0 / refine-intra=0 / refine-inter=0 / refine-mv=1 / refine-ctu-distortion=0 / no-limit-sao / ctu-info=0 / no-lowpass-dct / refine-analysis-type=0 / copy-pic=1 / max-ausize-factor=1.0 / no-dynamic-refine / no-single-sei / no-hevc-aq / no-svt / no-field / qp-adaptation-range=1.00 / scenecut-aware-qp=0conformance-window-offsets / right=0 / bottom=0 / decoder-max-rate=0 / no-vbv-live-multi-pass / no-mcstf / no-sbrc
Язык : English
Default : Да
Forced : Нет

Аудио #1
Идентификатор : 2
Формат : AC-3
Формат/Информация : Audio Coding 3
Коммерческое название : Dolby Digital
Идентификатор кодека : A_AC3
Продолжительность : 47 м. 3 с.
Вид битрейта : Постоянный
Битрейт : 448 Кбит/сек
Каналы : 6 каналов
Channel layout : L R C LFE Ls Rs
Частота : 48,0 КГц
Частота кадров : 31,250 кадров/сек (1536 SPF)
Метод сжатия : С потерями
Размер потока : 151 Мбайт (7%)
Заголовок : MVO (LostFilm)
Язык : Russian
Service kind : Complete Main
Default : Да
Forced : Нет

Аудио #2
Идентификатор : 3
Формат : AC-3
Формат/Информация : Audio Coding 3
Коммерческое название : Dolby Digital
Идентификатор кодека : A_AC3
Продолжительность : 47 м. 3 с.
Вид битрейта : Постоянный
Битрейт : 384 Кбит/сек
Каналы : 6 каналов
Channel layout : L R C LFE Ls Rs
Частота : 48,0 КГц
Частота кадров : 31,250 кадров/сек (1536 SPF)
Метод сжатия : С потерями
Размер потока : 129 Мбайт (6%)
Заголовок : MVO (AlexFilm)
Язык : Russian
Service kind : Complete Main
Default : Нет
Forced : Нет

Аудио #3
Идентификатор : 4
Формат : AC-3
Формат/Информация : Audio Coding 3
Коммерческое название : Dolby Digital
Идентификатор кодека : A_AC3
Продолжительность : 45 м. 45 с.
Вид битрейта : Постоянный
Битрейт : 640 Кбит/сек
Каналы : 6 каналов
Channel layout : L R C LFE Ls Rs
Частота : 48,0 КГц
Частота кадров : 31,250 кадров/сек (1536 SPF)
Метод сжатия : С потерями
Размер потока : 209 Мбайт (10%)
Язык : English
Service kind : Complete Main
Default : Нет
Forced : Нет

Текст #1
Идентификатор : 5
Формат : UTF-8
Идентификатор кодека : S_TEXT/UTF8
Идентификатор кодека/Информация : UTF-8 Plain Text
Продолжительность : 37 м. 41 с.
Битрейт : 4 бит/сек
Частота кадров : 0,011 кадр/сек
Count of elements : 24
Размер потока : 1,34 Кбайт (0%)
Заголовок : Russian @ forced SRT
Язык : Russian
Default : Да
Forced : Нет

Текст #2
Идентификатор : 6
Формат : UTF-8
Идентификатор кодека : S_TEXT/UTF8
Идентификатор кодека/Информация : UTF-8 Plain Text
Продолжительность : 45 м. 28 с.
Битрейт : 96 бит/сек
Частота кадров : 0,184 кадр/сек
Count of elements : 503
Размер потока : 32,2 Кбайт (0%)
Заголовок : Russian @ SRT
Язык : Russian
Default : Нет
Forced : Нет

Текст #3
Идентификатор : 7
Формат : UTF-8
Идентификатор кодека : S_TEXT/UTF8
Идентификатор кодека/Информация : UTF-8 Plain Text
Продолжительность : 43 м. 23 с.
Битрейт : 66 бит/сек
Частота кадров : 0,282 кадр/сек
Count of elements : 734
Размер потока : 21,2 Кбайт (0%)
Заголовок : English @ SRT SDH
Язык : English
Default : Нет
Forced : Нет

Меню
00:00:00.000 : en:Chapter 01
00:10:04.895 : en:Chapter 02
00:19:10.274 : en:Chapter 03
00:30:36.501 : en:Chapter 04
00:39:04.800 : en:Chapter 05
00:43:32.943 : en:Chapter 06
Загрузка...Cкриншот1 Пространство / Экспансия / The Expanse (2022) [6 сезон] BDRip 1080p [HEVC] 10 bit от OldGamerЗагрузка...Cкриншот2 Пространство / Экспансия / The Expanse (2022) [6 сезон] BDRip 1080p [HEVC] 10 bit от OldGamerЗагрузка...Cкриншот3 Пространство / Экспансия / The Expanse (2022) [6 сезон] BDRip 1080p [HEVC] 10 bit от OldGamerЗагрузка...Cкриншот4 Пространство / Экспансия / The Expanse (2022) [6 сезон] BDRip 1080p [HEVC] 10 bit от OldGamer

Поблагодарили: 16Alex007, AndresUA, aquarius, Brooklyn, han-nik, hunter, InSpector, maximka, Niflung, Rexfire, Serg1970, SergKote, SoulBoy, vserginbox, Winsent, Херсонец
Файлы: 61
  • The Expanse
    • The.Expanse.S01.BDRip-HEVC.1080p
      • 2.02 ГБThe.Expanse.S01E01.Dulcinea.mkv
      • 2.1 ГБThe.Expanse.S01E02.The.Big.Empty.mkv
      • 1.64 ГБThe.Expanse.S01E03.Remember.the.Cant.mkv
      • 1.68 ГБThe.Expanse.S01E04.CQB.mkv
      • 2.12 ГБThe.Expanse.S01E05.Back.to.the.Butcher.mkv
      • 1.74 ГБThe.Expanse.S01E06.Rock.Bottom.mkv
      • 1.83 ГБThe.Expanse.S01E07.Windmills.mkv
      • 1.93 ГБThe.Expanse.S01E08.Salvage.mkv
      • 3.02 ГБThe.Expanse.S01E09E10.Critical.Mass.Leviathan.Wakes.mkv
    • The.Expanse.S02.BDRip-HEVC.1080p
      • 1.56 ГБThe.Expanse.S02E01.Safe.mkv
      • 1.62 ГБThe.Expanse.S02E02.Doors.&.Corners.mkv
      • 1.48 ГБThe.Expanse.S02E03.Static.mkv
      • 1.75 ГБThe.Expanse.S02E04.Godspeed.mkv
      • 1.82 ГБThe.Expanse.S02E05.Home.mkv
      • 1.5 ГБThe.Expanse.S02E06.Paradigm.Shift.mkv
      • 1.44 ГБThe.Expanse.S02E07.The.Seventh.Man.mkv
      • 1.55 ГБThe.Expanse.S02E08.Pyre.mkv
      • 1.29 ГБThe.Expanse.S02E09.The.Weeping.Somnambulist.mkv
      • 1.58 ГБThe.Expanse.S02E10.Cascade.mkv
      • 1.69 ГБThe.Expanse.S02E11.Here.There.Be.Dragons.mkv
      • 1.45 ГБThe.Expanse.S02E12.The.Monster.and.the.Rocket.mkv
      • 1.56 ГБThe.Expanse.S02E13.Caliban's.War.mkv
    • The.Expanse.S03.BDRip-HEVC.1080p
      • 2.23 ГБThe.Expanse.S03E01.Fight.or.Flight.mkv
      • 2.16 ГБThe.Expanse.S03E02.IFF.mkv
      • 2.07 ГБThe.Expanse.S03E03.Assured.Destruction.mkv
      • 1.95 ГБThe.Expanse.S03E04.Reload.mkv
      • 2.02 ГБThe.Expanse.S03E05.Triple.Point.mkv
      • 2.27 ГБThe.Expanse.S03E06.Immolation.mkv
      • 2.29 ГБThe.Expanse.S03E07.Delta-V.mkv
      • 2.37 ГБThe.Expanse.S03E08.The.Investigator.mkv
      • 2.57 ГБThe.Expanse.S03E09.Aberrations.mkv
      • 2.48 ГБThe.Expanse.S03E10.Dandelion.Sky.mkv
      • 1.78 ГБThe.Expanse.S03E11.Objects.In.Motion.mkv
      • 1.94 ГБThe.Expanse.S03E12.Congregation.mkv
      • 2.01 ГБThe.Expanse.S03E13.Abaddon's.Gate.mkv
    • The.Expanse.S04.BDRip-HEVC.1080p
      • 1.59 ГБThe.Expanse.S04E01.New.Terra.mkv
      • 1.66 ГБThe.Expanse.S04E02.Jetsam.mkv
      • 1.32 ГБThe.Expanse.S04E03.Subduction.mkv
      • 1.31 ГБThe.Expanse.S04E04.Retrograde.mkv
      • 1.27 ГБThe.Expanse.S04E05.Oppressor.mkv
      • 1.56 ГБThe.Expanse.S04E06.Displacement.mkv
      • 1.76 ГБThe.Expanse.S04E07.A.Shot.In.The.Dark.mkv
      • 1.85 ГБThe.Expanse.S04E08.The.One Eyed.Man.mkv
      • 1.94 ГБThe.Expanse.S04E09.Saeculum.mkv
      • 1.59 ГБThe.Expanse.S04E10.Cibola.Burn.mkv
    • The.Expanse.S05.BDRip-HEVC.1080p
      • 2.78 ГБThe.Expanse.S05E01.Exodus.mkv
      • 2.18 ГБThe.Expanse.S05E02.Churn.mkv
      • 2.12 ГБThe.Expanse.S05E03.Mother.mkv
      • 1.93 ГБThe.Expanse.S05E04.Gaugamela.mkv
      • 2.31 ГБThe.Expanse.S05E05.Down.and.Out.mkv
      • 2.44 ГБThe.Expanse.S05E06.Tribes.mkv
      • 2.25 ГБThe.Expanse.S05E07.Oyedeng.mkv
      • 2.44 ГБThe.Expanse.S05E08.Hard.Vacuum.mkv
      • 2.46 ГБThe.Expanse.S05E09.Winnipesaukee.mkv
      • 2.44 ГБThe.Expanse.S05E10.Nemesis.Games.mkv
    • The.Expanse.S06.BDRip-HEVC.1080p
      • 2.09 ГБThe.Expanse.S06E01.Strange.Dogs.mkv
      • 1.76 ГБThe.Expanse.S06E02.Azure.Dragon.mkv
      • 1.98 ГБThe.Expanse.S06E03.Force.Projection.mkv
      • 2.03 ГБThe.Expanse.S06E04.Redoubt.mkv
      • 1.96 ГБThe.Expanse.S06E05.Why.We.Fight.mkv
      • 3.05 ГБThe.Expanse.S06E06.Babylon's.Ashes.mkv

Рейтинги КП и IMDB, кнопки "Раздайте, пожалуйста" и "Спасибо", а также мультитрекерная статистика доступны только зарегистрированным/авторизованным пользователям!

OldGamer
374131710(61) 118.58 ГБ

💬︎ Комментарии

Добавление комментариев доступно только зарегистрированным/авторизованным пользователям.

Всего: 10
Аватар OldGamer
OldGamer
Первые три сезона - косметические изменения в наполнении файлов: вшиты постеры и информация о сериях. Четвёртый сезон - дополнительно замена дорожки LostFilm на более высококачественную и добавлены субтитры. Пятый и шестой сезон ранее отсутствовали.
Аватар GrandConvoy
GrandConvoy
Перенесен из темы Пространство / Экспансия / The Expanse (2017) [2 сезон] BDRip 1080p [HEVC] 10 bit от OldGamer
Не идет закачка((
Аватар не указан
stbred
Перенесен из темы Пространство / Экспансия / The Expanse (2017) [2 сезон] BDRip 1080p [HEVC] 10 bit от OldGamer
OldGamer писал(а):
недельки через 2 примерно смогу раздать, не раньше
Спасибо, буду ждать
Аватар OldGamer
OldGamer
Перенесен из темы Пространство / Экспансия / The Expanse (2017) [2 сезон] BDRip 1080p [HEVC] 10 bit от OldGamer
stbred писал(а):
Спасибо за разадчу.
Если есть у кого возможность, встаньте на нее пожалуйста.
недельки через 2 примерно смогу раздать, не раньше
Аватар не указан
stbred
Перенесен из темы Пространство / Экспансия / The Expanse (2017) [2 сезон] BDRip 1080p [HEVC] 10 bit от OldGamer
Спасибо за разадчу.
Если есть у кого возможность, встаньте на нее пожалуйста.
Аватар Laska020489
Laska020489
Перенесен из темы Пространство / Экспансия / The Expanse (2018) [3 сезон] BDRip 1080p [HEVC] 10 bit от OldGamer
я встал на раздачу
Аватар OldGamer
OldGamer
Перенесен из темы Пространство / Экспансия / The Expanse (2018) [3 сезон] BDRip 1080p [HEVC] 10 bit от OldGamer
Я стараюсь или читать или смотреть)) вот в том числе и во избежание таких ситуаций
Аватар Cthulhu
Cthulhu
Перенесен из темы Пространство / Экспансия / The Expanse (2018) [3 сезон] BDRip 1080p [HEVC] 10 bit от OldGamer
Первый сезон зашел на "ура", потом прочитал книги-первоисточники и дальше сериал смотреть не смог.
Не повторяйте моей ошибки.😎
ЗЫ Конечно спасибо за качественный релиз 👍
Аватар Laska020489
Laska020489
Перенесен из темы Пространство / Экспансия / The Expanse (2018) [3 сезон] BDRip 1080p [HEVC] 10 bit от OldGamer
ща поиграю и встану на раздачу....
Аватар не указан
vash1
Перенесен из темы Пространство / Экспансия / The Expanse (2017) [2 сезон] BDRip 1080p [HEVC] 10 bit от OldGamer
Спс! Тут Алекс 384k как и в 3 и 4 сезоне
DTS-HD MA (и 640k c него) только в первом был