Чат

⚫︎
Список изменений сайта - https://rips.club/changelog.html (обновлен 24.05.2024)
  • OldGamer
  • Kristina
  • sabretooth
  • Winsent
Онлайн (за 10 мин.): 4
  • Antilord90: Может кто переделает "Секс по дружбе" телики не воспроизводят!
  • Гл. Админ: Niflung, раздаю
  • VIS: Раздайте, пожалуйста, Большое путешествие / The Wild (2006) BDRip 1080p [HEVC] 10 bit от Мичман
  • Niflung: Раздайте, пожалуйста, Тихое место: Дилогия / A Quiet Place: Dilogy (2018-2020) UHD-BDRip 1080p [HEVC] 10 bit [HDR] от Mr. Fox
  • Antilord90: Сообщение удалено (удалил: Antilord90)
  • Niflung: Гл. Админ, Ладно, буду качать 10 bit версию)
  • Гл. Админ: Niflung, у меня только 10-битная версия
  • HANNIBAL: Гл. Админ, все норм раздача идет
  • Niflung: Раздайте, пожалуйста, Берегись автомобиля (1966) [Цветная версия] BDRip 1080p [HEVC] 8 bit от ADVOKAT69
  • Гл. Админ: HANNIBAL, Я удалил раздачу, которую заливал я. А другую заливал ты, и она была как на руторе. Теперь не понятно на что ты перезалил (в чем разница по сравнению с предыдущей, т.е. руторовской), потому что сидов нет. По моему ты не исправил, а сломал ) ( отредактировано: )
  • Гл. Админ: OldGamer, вообще задумка была сделать цветовую дифференциацию как в фильме Кин-дза-дза!, но поскольку желтый ник лучше подходит для випов, то немного не получилось.
  • Гл. Админ: HANNIBAL, их 2. Что там нужно исправлять?
  • Гл. Админ: HANNIBAL, Я думаю в добавок к зеленой могут появиться и другие цвета. ( отредактировано: )
  • HANNIBAL: Гл. Админ, и исправь раздачу Голая правда
  • HANNIBAL: Гл. Админ, не пора убрать с посторов эту зеленую надпись )))
  • HANNIBAL: Сообщение удалено (удалил: HANNIBAL)
  • Гл. Админ: HANNIBAL, админов теперь 2 ( отредактировано: )
  • HANNIBAL: админ привет
  • Antilord90: Раздайте, пожалуйста, Мальчикам это нравится / The House Bunny (2008) BDRip 1080p [HEVC] 10 bit от -Star-Lord- (RG RIPS CLUB)
  • Гл. Админ: Продлил доменное имя (адрес сайта) на год. Что-то он подорожал (24 евро вместо прежних 12). Ещё раз спасибо всем, кто поддерживает финансово. ( отредактировано: )
Отправка сообщений доступна только зарегистрированным/авторизованным пользователям.

🎥︎🎥︎Голодные игры: Антология / The Hunger Games: Anthology (2012-2023) BDRip 1080p [HEVC] 10 bit от OldGamer (RG RIPS CLUB)


Обложка Голодные игры: Антология / The Hunger Games: Anthology (2012-2023) BDRip 1080p [HEVC] 10 bit от OldGamer (RG RIPS CLUB)
HEVC
10 bit
⤓︎Торрент🧲︎Магнет$Пожертвования

При перезаливке на другие сайты просьба указать автора и релиз-группу.


Год: 2012-2023
Страна: США, Канада, Франция, Германия
Жанр: Фантастика, Боевик, Триллер, Приключения


Релиз-группа: RIPS CLUB
1. Голодные игры / The Hunger Games (2012) [RUS Transfer] BDRip 1080p [HEVC] 10 bit от OldGamer
Обложка Голодные игры / The Hunger Games (2012) [RUS Transfer] BDRip 1080p [HEVC] 10 bit от OldGamer
HEVC
10 bit
✂︎Сэмпл
Год: 2012
Страна: США
Студия: Color Force, Lions Gate Films
Жанр: Фантастика, Боевик, Триллер, Приключения
Длительность: 02:22:33

Режиссер: Гэри Росс
В ролях: Дженнифер Лоуренс, Джош Хатчерсон, Лиам Хемсворт, Вуди Харрельсон, Элизабет Бэнкс, Уэс Бентли, Дональд Сазерленд, Стэнли Туччи, Ленни Кравиц, Амандла Стенберга

Описание: Будущее. Деспотичное государство ежегодно устраивает показательные игры на выживание, за которыми в прямом эфире следит весь мир. Жребий участвовать в Играх выпадает юной Китнисс и тайно влюблённому в неё Питу. Они знакомы с детства, но теперь должны стать врагами. Ведь по нерушимому закону Голодных игр победить может только один из 24 участников. Судьям не важно, кто выиграет, главное — зрелище. И на этот раз зрелище будет незабываемым.


Исходник: Blu-Ray Remux 1080p (rutracker)
Видео: 1920x800, 10.5 Mbps
Аудио1: AC3, 6 ch, 640 Kbps - РусскийРусский, DUB
Аудио2: AC3, 6 ch, 640 Kbps - АнглийскийАнглийский
Субтитры: русские, английские (SDH)

Как за несколько секунд удалить ненужные аудиодорожки и субтитры (Внимание! После удаления вы не сможете поддержать раздачу)


Лог (x265 info)x265 [info]: frame I: 867, Avg QP:18.67 kb/s: 20333.17
x265 [info]: frame P: 37919, Avg QP:20.21 kb/s: 14727.99
x265 [info]: frame B: 166872, Avg QP:21.95 kb/s: 9515.95
x265 [info]: Weighted P-Frames: Y:8.2% UV:6.8%
x265 [info]: Weighted B-Frames: Y:11.9% UV:9.2%
x265 [info]: encoded 205658 frames in 176385.33s (1.17 fps), 10522.54 kb/s, Avg QP:21.61
МедиаинфоОбщее
Уникальный идентификатор : 289059079899686375442300893103509326457 (0xD976C0F6E98D253FBCF56E06FB11CA79)
Полное имя : \\.\01.Голодные.игры.The.Hunger.Games.2012.RUS.Transfer.BDRip-HEVC.1080p.mkv
Формат : Matroska
Версия формата : Version 4
Размер файла : 11,8 Гбайт
Продолжительность : 2 ч. 22 м.
Общий поток : 11,8 Мбит/сек
Частота кадров : 24,000 кадра/сек
Название фильма : Голодные игры / Голодные игры
Кодирование произвёл : OldGamer
Тип содержимого : Movie
Описание : Да пребудет с вами удача
Дата выпуска : 2012-03-12
Дата записи : 2012-03-12
Программа кодирования : mkvmerge v82.0 ('I'm The President') 64-bit
Библиотека кодирования : libebml v1.4.5 + libmatroska v1.7.1 / xvid4psp5
Обложка : Yes
Attachments : cover.jpg
ACTOR : Jennifer Lawrence, Josh Hutcherson, Liam Hemsworth, Woody Harrelson, Elizabeth Banks, Lenny Kravitz, Stanley Tucci, Donald Sutherland, Wes Bentley, Toby Jones, Alexander Ludwig, Isabelle Fuhrman, Amandla Stenberg, Willow Shields, Sandra Ellis Laffert...
ARTIST : Jennifer Lawrence, Josh Hutcherson, Liam Hemsworth, Woody Harrelson, Elizabeth Banks, Lenny Kravitz, Stanley Tucci, Donald Sutherland, Wes Bentley, Toby Jones, Alexander Ludwig, Isabelle Fuhrman, Amandla Stenberg, Willow Shields, Sandra Ellis Laffert...
DIRECTOR : Gary Ross
GENRE : фантастика, приключения, фэнтези
LAW_RATING : PG-13
PRODUCER : Jon Kilik, Nina Jacobson
PRODUCTION_STUDIO : Color Force
RATING : PG-13
SCREENPLAY_BY : Billy Ray, Gary Ross, Suzanne Collins
SUMMARY : Да пребудет с вами удача
SYNOPSIS : Будущее. Деспотичное государство ежегодно устраивает показательные игры на выживание, за которыми в прямом эфире следит весь мир. Жребий участвовать в Играх выпадает юной Китнисс и тайно влюбленному в нее Питу. Они знакомы с детства, но теперь должны стать врагами. Ведь по нерушимому закону Голодных игр победить может только один из 24 участников. Судьям не важно кто выиграет, главное — зрелище. И на этот раз зрелище будет незабываемым.
WRITTEN_BY : Billy Ray, Gary Ross, Suzanne Collins

Видео
Идентификатор : 1
Формат : HEVC
Формат/Информация : High Efficiency Video Coding
Профиль формата : Main 10@L4.1@High
Идентификатор кодека : V_MPEGH/ISO/HEVC
Продолжительность : 2 ч. 22 м.
Битрейт : 10,5 Мбит/сек
Ширина : 1 920 пикселей
Высота : 800 пикселей
Соотношение сторон : 2,40:1
Режим частоты кадров : Постоянный
Частота кадров : 24,000 кадра/сек
Цветовое пространство : YUV
Субдискретизация насыщенности : 4:2:0
Битовая глубина : 10 бит
Бит/(Пиксели*Кадры) : 0.285
Размер потока : 10,5 Гбайт (89%)
Заголовок : The Hunger Games / Rip by OldGamer
Библиотека кодирования : x265 3.5+110-8ee01d45b:[Windows][GCC 13.2.0][64 bit] 10bit
Настройки программы : cpuid=1111039 / frame-threads=3 / numa-pools=8 / wpp / no-pmode / no-pme / no-psnr / no-ssim / log-level=2 / input-csp=1 / input-res=1920x800 / interlace=0 / total-frames=205658 / level-idc=41 / high-tier=1 / uhd-bd=0 / ref=5 / no-allow-non-conformance / no-repeat-headers / annexb / no-aud / no-eob / no-eos / no-hrd / info / hash=0 / temporal-layers=0 / open-gop / min-keyint=23 / keyint=240 / gop-lookahead=0 / bframes=16 / b-adapt=2 / b-pyramid / bframe-bias=0 / rc-lookahead=60 / lookahead-slices=0 / scenecut=40 / no-hist-scenecut / radl=0 / no-splice / no-intra-refresh / ctu=32 / min-cu-size=8 / rect / amp / max-tu-size=32 / tu-inter-depth=4 / tu-intra-depth=4 / limit-tu=1 / rdoq-level=2 / dynamic-rd=0.00 / no-ssim-rd / signhide / no-tskip / nr-intra=0 / nr-inter=0 / no-constrained-intra / no-strong-intra-smoothing / max-merge=5 / limit-refs=3 / no-limit-modes / me=3 / subme=7 / merange=57 / temporal-mvp / no-frame-dup / no-hme / weightp / weightb / no-analyze-src-pics / deblock=-2:-2 / no-sao / no-sao-non-deblock / rd=6 / selective-sao=0 / no-early-skip / no-rskip / no-fast-intra / no-tskip-fast / no-cu-lossless / b-intra / no-splitrd-skip / rdpenalty=0 / psy-rd=2.00 / psy-rdoq=1.00 / no-rd-refine / no-lossless / cbqpoffs=0 / crqpoffs=0 / rc=crf / crf=19.7 / qcomp=0.60 / qpstep=4 / stats-write=0 / stats-read=0 / vbv-maxrate=50000 / vbv-bufsize=50000 / vbv-init=0.9 / min-vbv-fullness=50.0 / max-vbv-fullness=80.0 / crf-max=0.0 / crf-min=0.0 / ipratio=1.40 / pbratio=1.30 / aq-mode=1 / aq-strength=1.00 / no-cutree / zone-count=1 / zones: / start-frame=192126 / end-frame=205658 / qp=36 / no-strict-cbr / qg-size=32 / no-rc-grain / qpmax=69 / qpmin=0 / no-const-vbv / sar=1 / overscan=0 / videoformat=5 / range=0 / colorprim=2 / transfer=2 / colormatrix=2 / chromaloc=0 / display-window=0 / cll=0,0 / min-luma=0 / max-luma=1023 / log2-max-poc-lsb=8 / vui-timing-info / vui-hrd-info / slices=1 / no-opt-qp-pps / no-opt-ref-list-length-pps / no-multi-pass-opt-rps / scenecut-bias=0.00 / no-opt-cu-delta-qp / no-aq-motion / no-hdr10 / no-hdr10-opt / no-dhdr10-opt / no-idr-recovery-sei / analysis-reuse-level=0 / analysis-save-reuse-level=0 / analysis-load-reuse-level=0 / scale-factor=0 / refine-intra=0 / refine-inter=0 / refine-mv=1 / refine-ctu-distortion=0 / no-limit-sao / ctu-info=0 / no-lowpass-dct / refine-analysis-type=0 / copy-pic=1 / max-ausize-factor=1.0 / no-dynamic-refine / no-single-sei / no-hevc-aq / no-svt / no-field / qp-adaptation-range=1.00 / scenecut-aware-qp=0conformance-window-offsets / right=0 / bottom=0 / decoder-max-rate=0 / no-vbv-live-multi-pass / no-mcstf / no-sbrc
Язык : English
Default : Да
Forced : Нет

Аудио #1
Идентификатор : 2
Формат : AC-3
Формат/Информация : Audio Coding 3
Коммерческое название : Dolby Digital
Идентификатор кодека : A_AC3
Продолжительность : 2 ч. 22 м.
Вид битрейта : Постоянный
Битрейт : 640 Кбит/сек
Каналы : 6 каналов
Channel layout : L R C LFE Ls Rs
Частота : 48,0 КГц
Частота кадров : 31,250 кадров/сек (1536 SPF)
Метод сжатия : С потерями
Размер потока : 653 Мбайт (5%)
Язык : Russian
Service kind : Complete Main
Default : Да
Forced : Нет

Аудио #2
Идентификатор : 3
Формат : AC-3
Формат/Информация : Audio Coding 3
Коммерческое название : Dolby Digital
Идентификатор кодека : A_AC3
Продолжительность : 2 ч. 22 м.
Вид битрейта : Постоянный
Битрейт : 640 Кбит/сек
Каналы : 6 каналов
Channel layout : L R C LFE Ls Rs
Частота : 48,0 КГц
Частота кадров : 31,250 кадров/сек (1536 SPF)
Метод сжатия : С потерями
Размер потока : 653 Мбайт (5%)
Язык : English
Service kind : Complete Main
Default : Нет
Forced : Нет

Текст #1
Идентификатор : 4
Формат : UTF-8
Идентификатор кодека : S_TEXT/UTF8
Идентификатор кодека/Информация : UTF-8 Plain Text
Продолжительность : 2 ч. 12 м.
Битрейт : 51 бит/сек
Частота кадров : 0,160 кадр/сек
Count of elements : 1267
Размер потока : 49,6 Кбайт (0%)
Язык : Russian
Default : Нет
Forced : Нет

Текст #2
Идентификатор : 5
Формат : UTF-8
Идентификатор кодека : S_TEXT/UTF8
Идентификатор кодека/Информация : UTF-8 Plain Text
Продолжительность : 2 ч. 11 м.
Битрейт : 59 бит/сек
Частота кадров : 0,139 кадр/сек
Count of elements : 1101
Размер потока : 57,2 Кбайт (0%)
Язык : Russian
Default : Нет
Forced : Нет

Текст #3
Идентификатор : 6
Формат : UTF-8
Идентификатор кодека : S_TEXT/UTF8
Идентификатор кодека/Информация : UTF-8 Plain Text
Продолжительность : 2 ч. 11 м.
Битрейт : 54 бит/сек
Частота кадров : 0,137 кадр/сек
Count of elements : 1081
Размер потока : 52,9 Кбайт (0%)
Язык : Russian
Default : Нет
Forced : Нет

Текст #4
Идентификатор : 7
Формат : UTF-8
Идентификатор кодека : S_TEXT/UTF8
Идентификатор кодека/Информация : UTF-8 Plain Text
Продолжительность : 2 ч. 11 м.
Битрейт : 36 бит/сек
Частота кадров : 0,141 кадр/сек
Count of elements : 1111
Размер потока : 34,9 Кбайт (0%)
Язык : English
Default : Нет
Forced : Нет

Текст #5
Идентификатор : 8
Формат : UTF-8
Идентификатор кодека : S_TEXT/UTF8
Идентификатор кодека/Информация : UTF-8 Plain Text
Продолжительность : 2 ч. 11 м.
Битрейт : 39 бит/сек
Частота кадров : 0,158 кадр/сек
Count of elements : 1250
Размер потока : 38,1 Кбайт (0%)
Заголовок : SDH
Язык : English
Default : Нет
Forced : Нет

Меню
00:00:00.000 : en:District 12
00:10:05.813 : en:Check In
00:18:00.078 : en:Try to Win
00:25:05.879 : en:Advise
00:31:12.662 : en:First Look
00:43:28.564 : en:Shoot Straight
00:50:38.702 : en:Girl On Fire
00:56:58.915 : en:Special Girl
01:06:57.763 : en:Countdown
01:15:58.970 : en:At the Edge
01:22:06.046 : en:Very Lethal
01:29:00.418 : en:Not Going to Hurt You
01:38:00.749 : en:Trapped
01:43:19.192 : en:Young Love
01:57:56.611 : en:Only Team
02:09:26.550 : en:Star Crossed Lovers
Загрузка...Cкриншот1 Голодные игры / The Hunger Games (2012) [RUS Transfer] BDRip 1080p [HEVC] 10 bit от OldGamerЗагрузка...Cкриншот2 Голодные игры / The Hunger Games (2012) [RUS Transfer] BDRip 1080p [HEVC] 10 bit от OldGamerЗагрузка...Cкриншот3 Голодные игры / The Hunger Games (2012) [RUS Transfer] BDRip 1080p [HEVC] 10 bit от OldGamerЗагрузка...Cкриншот4 Голодные игры / The Hunger Games (2012) [RUS Transfer] BDRip 1080p [HEVC] 10 bit от OldGamer
2. Голодные игры: И вспыхнет пламя / The Hunger Games: Catching Fire (2013) [RUS Transfer] BDRip 1080p [HEVC] 10 bit от OldGamer
Обложка Голодные игры: И вспыхнет пламя / The Hunger Games: Catching Fire (2013) [RUS Transfer] BDRip 1080p [HEVC] 10 bit от OldGamer
HEVC
10 bit
✂︎Сэмпл
Год: 2013
Страна: США
Студия: Color Force, Karno's Film
Жанр: Фантастика, Боевик, Триллер, Приключения
Длительность: 02:20:11

Режиссер: Френсис Лоуренс
В ролях: Дженнифер Лоуренс, Джош Хатчерсон, Лиам Хемсворт, Вуди Харрельсон, Сэм Клафлин, Джеффри Райт, Джена Мэлоун, Элизабет Бэнкс, Дональд Сазерленд, Филип Сеймур Хоффман

Описание: Сумев выжить на безжалостных Голодных играх, Китнисс Эвердин и Пит Мелларк возвращаются домой. Но теперь они в ещё большей опасности, так как своим отказом играть по правилам на Арене бросили вызов Капитолию. По традиции следующие, юбилейные, Голодные игры должны стать особенными, и в этот раз в них участвуют только победители прошлых лет. Китнисс и Пит вынуждены вновь выйти на Арену, где будут соперничать с сильнейшими. Правила игры меняются. Арена ещё опасней, масштаб ещё больше, ставки ещё выше!


Исходник: Blu-Ray Remux 1080p (rutracker)
Видео: 1920x800, 5462 Kbps
Аудио1: AC3, 6 ch, 640 Kbps - РусскийРусский, DUB
Аудио2: AC3, 6 ch, 640 Kbps - АнглийскийАнглийский
Субтитры: русские, английские (SDH)

Как за несколько секунд удалить ненужные аудиодорожки и субтитры (Внимание! После удаления вы не сможете поддержать раздачу)


Лог (x265 info)x265 [info]: frame I: 881, Avg QP:17.89 kb/s: 13652.84
x265 [info]: frame P: 37398, Avg QP:19.42 kb/s: 9542.90
x265 [info]: frame B: 172019, Avg QP:21.34 kb/s: 4532.22
x265 [info]: Weighted P-Frames: Y:6.9% UV:5.6%
x265 [info]: Weighted B-Frames: Y:6.6% UV:4.9%
x265 [info]: encoded 210298 frames in 145185.39s (1.45 fps), 5461.50 kb/s, Avg QP:20.99
МедиаинфоОбщее
Уникальный идентификатор : 81744116131063466776144629573266210971 (0x3D7F5817298AE8BD35B9BB819FEC809B)
Полное имя : \\.\02.Голодные.игры.И.вспыхнет.пламя.The.Hunger.Games.Catching.Fire.2013.RUS.Transfer.BDRip-HEVC.1080p.mkv
Формат : Matroska
Версия формата : Version 4
Размер файла : 6,61 Гбайт
Продолжительность : 2 ч. 20 м.
Общий поток : 6 745 Кбит/сек
Частота кадров : 25,000 кадров/сек
Название фильма : Голодные игры: И вспыхнет пламя / Голодные игры: И вспыхнет пламя
Кодирование произвёл : OldGamer
Тип содержимого : Movie
Описание : Революции начинаются с искры
Дата выпуска : 2013-11-15
Дата записи : 2013-11-15
Программа кодирования : mkvmerge v82.0 ('I'm The President') 64-bit
Библиотека кодирования : libebml v1.4.5 + libmatroska v1.7.1 / xvid4psp5
Обложка : Yes
Attachments : cover.jpg
ACTOR : Jennifer Lawrence, Josh Hutcherson, Liam Hemsworth, Woody Harrelson, Elizabeth Banks, Donald Sutherland, Lenny Kravitz, Philip Seymour Hoffman, Jeffrey Wright, Stanley Tucci, Toby Jones, Willow Shields, Sam Claflin, Lynn Cohen, Jena Malone, Bobby Jor...
ARTIST : Jennifer Lawrence, Josh Hutcherson, Liam Hemsworth, Woody Harrelson, Elizabeth Banks, Donald Sutherland, Lenny Kravitz, Philip Seymour Hoffman, Jeffrey Wright, Stanley Tucci, Toby Jones, Willow Shields, Sam Claflin, Lynn Cohen, Jena Malone, Bobby Jor...
DIRECTOR : Francis Lawrence
GENRE : приключения, боевик, фантастика
LAW_RATING : PG-13
PRODUCER : Jon Kilik, Nina Jacobson
PRODUCTION_STUDIO : Color Force
RATING : PG-13
SCREENPLAY_BY : Michael Arndt, Simon Beaufoy
SUMMARY : Революции начинаются с искры
SYNOPSIS : Сумев выжить на безжалостных Голодных играх, Китнисс Эвердин и Пит Мелларк тщетно пытаются забыть о том, что произошло с ними в Капитолии. Но президент Сноу, диктатор государства Панем, и его клика не готовы оставить девушку и парня в покое, считая их опасными. Власти решают устроить показательные Игры, в которых примут участие победители прошлых лет от каждого дистрикта. Жребий брошен: Китнисс и Пит вынуждены вернуться на Арену. Вновь они лицом к лицу со смертью — ради своих близких, ради своего будущего, ради своей любви!
WRITTEN_BY : Michael Arndt, Simon Beaufoy

Видео
Идентификатор : 1
Формат : HEVC
Формат/Информация : High Efficiency Video Coding
Профиль формата : Main 10@L4.1@High
Идентификатор кодека : V_MPEGH/ISO/HEVC
Продолжительность : 2 ч. 20 м.
Битрейт : 5 462 Кбит/сек
Ширина : 1 920 пикселей
Высота : 800 пикселей
Соотношение сторон : 2,40:1
Режим частоты кадров : Постоянный
Частота кадров : 25,000 кадров/сек
Цветовое пространство : YUV
Субдискретизация насыщенности : 4:2:0
Битовая глубина : 10 бит
Бит/(Пиксели*Кадры) : 0.142
Размер потока : 5,35 Гбайт (81%)
Заголовок : The Hunger Games: Catching Fire / Rip by OldGamer
Библиотека кодирования : x265 3.5+110-8ee01d45b:[Windows][GCC 13.2.0][64 bit] 10bit
Настройки программы : cpuid=1111039 / frame-threads=3 / numa-pools=8 / wpp / no-pmode / no-pme / no-psnr / no-ssim / log-level=2 / input-csp=1 / input-res=1920x800 / interlace=0 / total-frames=210298 / level-idc=41 / high-tier=1 / uhd-bd=0 / ref=5 / no-allow-non-conformance / no-repeat-headers / annexb / no-aud / no-eob / no-eos / no-hrd / info / hash=0 / temporal-layers=0 / open-gop / min-keyint=23 / keyint=240 / gop-lookahead=0 / bframes=16 / b-adapt=2 / b-pyramid / bframe-bias=0 / rc-lookahead=60 / lookahead-slices=0 / scenecut=40 / no-hist-scenecut / radl=0 / no-splice / no-intra-refresh / ctu=32 / min-cu-size=8 / rect / amp / max-tu-size=32 / tu-inter-depth=4 / tu-intra-depth=4 / limit-tu=1 / rdoq-level=2 / dynamic-rd=0.00 / no-ssim-rd / signhide / no-tskip / nr-intra=0 / nr-inter=0 / no-constrained-intra / no-strong-intra-smoothing / max-merge=5 / limit-refs=3 / no-limit-modes / me=3 / subme=7 / merange=57 / temporal-mvp / no-frame-dup / no-hme / weightp / weightb / no-analyze-src-pics / deblock=-2:-2 / no-sao / no-sao-non-deblock / rd=6 / selective-sao=0 / no-early-skip / no-rskip / no-fast-intra / no-tskip-fast / no-cu-lossless / b-intra / no-splitrd-skip / rdpenalty=0 / psy-rd=2.00 / psy-rdoq=1.00 / no-rd-refine / no-lossless / cbqpoffs=0 / crqpoffs=0 / rc=crf / crf=20.3 / qcomp=0.60 / qpstep=4 / stats-write=0 / stats-read=0 / vbv-maxrate=50000 / vbv-bufsize=50000 / vbv-init=0.9 / min-vbv-fullness=50.0 / max-vbv-fullness=80.0 / crf-max=0.0 / crf-min=0.0 / ipratio=1.40 / pbratio=1.30 / aq-mode=1 / aq-strength=1.00 / no-cutree / zone-count=1 / zones: / start-frame=195398 / end-frame=210298 / qp=36 / no-strict-cbr / qg-size=32 / no-rc-grain / qpmax=69 / qpmin=0 / no-const-vbv / sar=1 / overscan=0 / videoformat=5 / range=0 / colorprim=2 / transfer=2 / colormatrix=2 / chromaloc=0 / display-window=0 / cll=0,0 / min-luma=0 / max-luma=1023 / log2-max-poc-lsb=8 / vui-timing-info / vui-hrd-info / slices=1 / no-opt-qp-pps / no-opt-ref-list-length-pps / no-multi-pass-opt-rps / scenecut-bias=0.00 / no-opt-cu-delta-qp / no-aq-motion / no-hdr10 / no-hdr10-opt / no-dhdr10-opt / no-idr-recovery-sei / analysis-reuse-level=0 / analysis-save-reuse-level=0 / analysis-load-reuse-level=0 / scale-factor=0 / refine-intra=0 / refine-inter=0 / refine-mv=1 / refine-ctu-distortion=0 / no-limit-sao / ctu-info=0 / no-lowpass-dct / refine-analysis-type=0 / copy-pic=1 / max-ausize-factor=1.0 / no-dynamic-refine / no-single-sei / no-hevc-aq / no-svt / no-field / qp-adaptation-range=1.00 / scenecut-aware-qp=0conformance-window-offsets / right=0 / bottom=0 / decoder-max-rate=0 / no-vbv-live-multi-pass / no-mcstf / no-sbrc
Язык : English
Default : Да
Forced : Нет

Аудио #1
Идентификатор : 2
Формат : AC-3
Формат/Информация : Audio Coding 3
Коммерческое название : Dolby Digital
Идентификатор кодека : A_AC3
Продолжительность : 2 ч. 20 м.
Вид битрейта : Постоянный
Битрейт : 640 Кбит/сек
Каналы : 6 каналов
Channel layout : L R C LFE Ls Rs
Частота : 48,0 КГц
Частота кадров : 31,250 кадров/сек (1536 SPF)
Метод сжатия : С потерями
Размер потока : 642 Мбайт (9%)
Заголовок : DUB
Язык : Russian
Service kind : Complete Main
Default : Да
Forced : Нет

Аудио #2
Идентификатор : 3
Формат : AC-3
Формат/Информация : Audio Coding 3
Коммерческое название : Dolby Digital
Идентификатор кодека : A_AC3
Продолжительность : 2 ч. 20 м.
Вид битрейта : Постоянный
Битрейт : 640 Кбит/сек
Каналы : 6 каналов
Channel layout : L R C LFE Ls Rs
Частота : 48,0 КГц
Частота кадров : 31,250 кадров/сек (1536 SPF)
Метод сжатия : С потерями
Размер потока : 642 Мбайт (9%)
Язык : English
Service kind : Complete Main
Default : Нет
Forced : Нет

Текст #1
Идентификатор : 4
Формат : UTF-8
Идентификатор кодека : S_TEXT/UTF8
Идентификатор кодека/Информация : UTF-8 Plain Text
Продолжительность : 2 ч. 9 м.
Битрейт : 75 бит/сек
Частота кадров : 0,196 кадр/сек
Count of elements : 1520
Размер потока : 71,1 Кбайт (0%)
Язык : Russian
Default : Нет
Forced : Нет

Текст #2
Идентификатор : 5
Формат : UTF-8
Идентификатор кодека : S_TEXT/UTF8
Идентификатор кодека/Информация : UTF-8 Plain Text
Продолжительность : 2 ч. 8 м.
Битрейт : 48 бит/сек
Частота кадров : 0,200 кадр/сек
Count of elements : 1538
Размер потока : 45,9 Кбайт (0%)
Язык : English
Default : Нет
Forced : Нет

Текст #3
Идентификатор : 6
Формат : UTF-8
Идентификатор кодека : S_TEXT/UTF8
Идентификатор кодека/Информация : UTF-8 Plain Text
Продолжительность : 2 ч. 8 м.
Битрейт : 55 бит/сек
Частота кадров : 0,258 кадр/сек
Count of elements : 1991
Размер потока : 52,0 Кбайт (0%)
Заголовок : SDH
Язык : English
Default : Нет
Forced : Нет

Меню
00:00:00.000 : en:Chapter 01
00:10:19.120 : en:Chapter 02
00:16:47.960 : en:Chapter 03
00:25:37.960 : en:Chapter 04
00:31:34.800 : en:Chapter 05
00:40:32.920 : en:Chapter 06
00:48:56.400 : en:Chapter 07
00:55:42.480 : en:Chapter 08
01:01:11.800 : en:Chapter 09
01:08:11.880 : en:Chapter 10
01:19:19.320 : en:Chapter 11
01:29:22.000 : en:Chapter 12
01:40:40.960 : en:Chapter 13
01:50:47.160 : en:Chapter 14
02:02:47.640 : en:Chapter 15
02:11:33.880 : en:Chapter 16
Загрузка...Cкриншот1 Голодные игры: И вспыхнет пламя / The Hunger Games: Catching Fire (2013) [RUS Transfer] BDRip 1080p [HEVC] 10 bit от OldGamerЗагрузка...Cкриншот2 Голодные игры: И вспыхнет пламя / The Hunger Games: Catching Fire (2013) [RUS Transfer] BDRip 1080p [HEVC] 10 bit от OldGamerЗагрузка...Cкриншот3 Голодные игры: И вспыхнет пламя / The Hunger Games: Catching Fire (2013) [RUS Transfer] BDRip 1080p [HEVC] 10 bit от OldGamerЗагрузка...Cкриншот4 Голодные игры: И вспыхнет пламя / The Hunger Games: Catching Fire (2013) [RUS Transfer] BDRip 1080p [HEVC] 10 bit от OldGamer
3. Голодные игры: Сойка-пересмешница. Часть I / The Hunger Games: Mockingjay - Part 1 (2014) BDRip 1080p [HEVC] 10 bit от OldGamer
Обложка Голодные игры: Сойка-пересмешница. Часть I / The Hunger Games: Mockingjay - Part 1 (2014) BDRip 1080p [HEVC] 10 bit от OldGamer
HEVC
10 bit
✂︎Сэмпл
Год: 2014
Страна: США, Канада, Франция
Студия: Canadian Film or Video Production Tax Credit (CPTC), Color Force, French Tax Credit, Karno's Film
Жанр: Фантастика, Боевик, Триллер, Приключения
Длительность: 02:03:22

Режиссер: Фрэнсис Лоуренс
В ролях: Дженнифер Лоуренс, Лиам Хемсворт, Джош Хатчерсон, Джулианна Мур, Филип Сеймур Хоффман, Дональд Сазерленд, Вуди Харрельсон, Элизабет Бэнкс, Натали Дормер, Сэм Клафлин

Описание: 75-ые Голодные игры изменили всё. Китнисс нарушила правила, и непоколебимое до той поры деспотичное правление Капитолия пошатнулось. У людей появилась надежда, и её символ – Сойка-пересмешница. Теперь, чтобы освободить захваченного в плен Пита и защитить своих близких, Китнисс придётся сражаться в настоящих битвах и стать ещё сильнее, чем на арене игр.


Исходник: Blu-Ray Remux 1080p (rutracker)
Видео: 1920x800, 6790 Kbps
Аудио1: AC3, 6 ch, 640 Kbps - РусскийРусский, DUB (BD RUS)
Аудио2: AC3, 6 ch, 640 Kbps - РусскийРусский, AVO (Юрий Сербин)
Аудио3: AC3, 6 ch, 640 Kbps - РусскийРусский, VO (Алексей Матвеев)
Аудио4: AC3, 6 ch, 640 Kbps - АнглийскийАнглийский
Субтитры: русские (full, forced), английские (SDH)

Как за несколько секунд удалить ненужные аудиодорожки и субтитры (Внимание! После удаления вы не сможете поддержать раздачу)


Лог (x265 info)x265 [info]: frame I: 751, Avg QP:18.79 kb/s: 19152.70
x265 [info]: frame P: 24128, Avg QP:21.12 kb/s: 14347.22
x265 [info]: frame B: 152571, Avg QP:21.78 kb/s: 5532.52
x265 [info]: Weighted P-Frames: Y:10.3% UV:9.0%
x265 [info]: Weighted B-Frames: Y:9.2% UV:7.7%
x265 [info]: encoded 177450 frames in 130904.83s (1.36 fps), 6788.70 kb/s, Avg QP:21.68
МедиаинфоОбщее
Уникальный идентификатор : 165369785999878857229118199821610625692 (0x7C690FF147F6E4AEECB4A6EB53B1AA9C)
Полное имя : \\.\03.Голодные.игры.Сойка-пересмешница.Часть.I.The.Hunger.Games.Mockingjay.Part.1.2014.BDRip-HEVC.1080p.mkv
Формат : Matroska
Версия формата : Version 4
Размер файла : 8,06 Гбайт
Продолжительность : 2 ч. 3 м.
Общий поток : 9 352 Кбит/сек
Частота кадров : 23,976 кадра/сек
Название фильма : Голодные игры: Сойка-пересмешница. Часть 1 / Голодные игры: Сойка-пересмешница. Часть 1
Кодирование произвёл : OldGamer
Тип содержимого : Movie
Описание : Храбрость одного изменит мир
Дата выпуска : 2014-11-19
Дата записи : 2014-11-19
Программа кодирования : mkvmerge v82.0 ('I'm The President') 64-bit
Библиотека кодирования : libebml v1.4.5 + libmatroska v1.7.1 / xvid4psp5
Обложка : Yes
Attachments : cover.jpg
ACTOR : Jennifer Lawrence, Josh Hutcherson, Liam Hemsworth, Woody Harrelson, Elizabeth Banks, Julianne Moore, Philip Seymour Hoffman, Jeffrey Wright, Stanley Tucci, Donald Sutherland, Willow Shields, Sam Claflin, Jena Malone, Mahershala Ali, Natalie Dormer, ...
ARTIST : Jennifer Lawrence, Josh Hutcherson, Liam Hemsworth, Woody Harrelson, Elizabeth Banks, Julianne Moore, Philip Seymour Hoffman, Jeffrey Wright, Stanley Tucci, Donald Sutherland, Willow Shields, Sam Claflin, Jena Malone, Mahershala Ali, Natalie Dormer, ...
DIRECTOR : Francis Lawrence
GENRE : фантастика, приключения, триллер
LAW_RATING : PG-13
PRODUCER : Jon Kilik, Nina Jacobson
PRODUCTION_STUDIO : Color Force
RATING : PG-13
SCREENPLAY_BY : Danny Strong, Peter Craig
SUMMARY : Храбрость одного изменит мир
SYNOPSIS : Таинственный Тринадцатый дистрикт выходит из тени, в которой скрывался долгие годы. Начинается война. Война за справедливость? Война за лучшее будущее? Возможно. Китнисс в этой войне — символ сопротивления. И если она хочет не оказаться пешкой в чужой большой игре, если хочет, чтобы жизнь её любимого не принесли в жертву чужим интересам, ей придется стать сильной. Сильнее, чем на арене Голодных игр…
WRITTEN_BY : Danny Strong, Peter Craig

Видео
Идентификатор : 1
Формат : HEVC
Формат/Информация : High Efficiency Video Coding
Профиль формата : Main 10@L4.1@High
Идентификатор кодека : V_MPEGH/ISO/HEVC
Продолжительность : 2 ч. 3 м.
Битрейт : 6 790 Кбит/сек
Ширина : 1 920 пикселей
Высота : 800 пикселей
Соотношение сторон : 2,40:1
Режим частоты кадров : Постоянный
Частота кадров : 23,976 (24000/1001) кадра/сек
Цветовое пространство : YUV
Субдискретизация насыщенности : 4:2:0
Битовая глубина : 10 бит
Бит/(Пиксели*Кадры) : 0.184
Размер потока : 5,85 Гбайт (73%)
Заголовок : The Hunger Games: Mockingjay - Part 1 / Rip by OldGamer
Библиотека кодирования : x265 3.5+110-8ee01d45b:[Windows][GCC 13.2.0][64 bit] 10bit
Настройки программы : cpuid=1111039 / frame-threads=3 / numa-pools=8 / wpp / no-pmode / no-pme / no-psnr / no-ssim / log-level=2 / input-csp=1 / input-res=1920x800 / interlace=0 / total-frames=177450 / level-idc=41 / high-tier=1 / uhd-bd=0 / ref=5 / no-allow-non-conformance / no-repeat-headers / annexb / no-aud / no-eob / no-eos / no-hrd / info / hash=0 / temporal-layers=0 / open-gop / min-keyint=23 / keyint=240 / gop-lookahead=0 / bframes=16 / b-adapt=2 / b-pyramid / bframe-bias=0 / rc-lookahead=60 / lookahead-slices=0 / scenecut=40 / no-hist-scenecut / radl=0 / no-splice / no-intra-refresh / ctu=32 / min-cu-size=8 / rect / amp / max-tu-size=32 / tu-inter-depth=4 / tu-intra-depth=4 / limit-tu=1 / rdoq-level=2 / dynamic-rd=0.00 / no-ssim-rd / signhide / no-tskip / nr-intra=0 / nr-inter=0 / no-constrained-intra / no-strong-intra-smoothing / max-merge=5 / limit-refs=3 / no-limit-modes / me=3 / subme=7 / merange=57 / temporal-mvp / no-frame-dup / no-hme / weightp / weightb / no-analyze-src-pics / deblock=-2:-2 / no-sao / no-sao-non-deblock / rd=6 / selective-sao=0 / no-early-skip / no-rskip / no-fast-intra / no-tskip-fast / no-cu-lossless / b-intra / no-splitrd-skip / rdpenalty=0 / psy-rd=2.00 / psy-rdoq=1.00 / no-rd-refine / no-lossless / cbqpoffs=0 / crqpoffs=0 / rc=crf / crf=20.4 / qcomp=0.60 / qpstep=4 / stats-write=0 / stats-read=0 / vbv-maxrate=50000 / vbv-bufsize=50000 / vbv-init=0.9 / min-vbv-fullness=50.0 / max-vbv-fullness=80.0 / crf-max=0.0 / crf-min=0.0 / ipratio=1.40 / pbratio=1.30 / aq-mode=1 / aq-strength=1.00 / no-cutree / zone-count=1 / zones: / start-frame=159948 / end-frame=177450 / qp=36 / no-strict-cbr / qg-size=32 / no-rc-grain / qpmax=69 / qpmin=0 / no-const-vbv / sar=1 / overscan=0 / videoformat=5 / range=0 / colorprim=2 / transfer=2 / colormatrix=2 / chromaloc=0 / display-window=0 / cll=0,0 / min-luma=0 / max-luma=1023 / log2-max-poc-lsb=8 / vui-timing-info / vui-hrd-info / slices=1 / no-opt-qp-pps / no-opt-ref-list-length-pps / no-multi-pass-opt-rps / scenecut-bias=0.00 / no-opt-cu-delta-qp / no-aq-motion / no-hdr10 / no-hdr10-opt / no-dhdr10-opt / no-idr-recovery-sei / analysis-reuse-level=0 / analysis-save-reuse-level=0 / analysis-load-reuse-level=0 / scale-factor=0 / refine-intra=0 / refine-inter=0 / refine-mv=1 / refine-ctu-distortion=0 / no-limit-sao / ctu-info=0 / no-lowpass-dct / refine-analysis-type=0 / copy-pic=1 / max-ausize-factor=1.0 / no-dynamic-refine / no-single-sei / no-hevc-aq / no-svt / no-field / qp-adaptation-range=1.00 / scenecut-aware-qp=0conformance-window-offsets / right=0 / bottom=0 / decoder-max-rate=0 / no-vbv-live-multi-pass / no-mcstf / no-sbrc
Язык : English
Default : Да
Forced : Нет

Аудио #1
Идентификатор : 2
Формат : AC-3
Формат/Информация : Audio Coding 3
Коммерческое название : Dolby Digital
Идентификатор кодека : A_AC3
Продолжительность : 2 ч. 3 м.
Вид битрейта : Постоянный
Битрейт : 640 Кбит/сек
Каналы : 6 каналов
Channel layout : L R C LFE Ls Rs
Частота : 48,0 КГц
Частота кадров : 31,250 кадров/сек (1536 SPF)
Метод сжатия : С потерями
Размер потока : 565 Мбайт (7%)
Заголовок : DUB (BD RUS)
Язык : Russian
Service kind : Complete Main
Default : Да
Forced : Нет

Аудио #2
Идентификатор : 3
Формат : AC-3
Формат/Информация : Audio Coding 3
Коммерческое название : Dolby Digital
Идентификатор кодека : A_AC3
Продолжительность : 2 ч. 3 м.
Вид битрейта : Постоянный
Битрейт : 640 Кбит/сек
Каналы : 6 каналов
Channel layout : L R C LFE Ls Rs
Частота : 48,0 КГц
Частота кадров : 31,250 кадров/сек (1536 SPF)
Метод сжатия : С потерями
Размер потока : 565 Мбайт (7%)
Заголовок : AVO (Юрий Сербин)
Язык : Russian
Service kind : Complete Main
Default : Нет
Forced : Нет

Аудио #3
Идентификатор : 4
Формат : AC-3
Формат/Информация : Audio Coding 3
Коммерческое название : Dolby Digital
Идентификатор кодека : A_AC3
Продолжительность : 2 ч. 3 м.
Вид битрейта : Постоянный
Битрейт : 640 Кбит/сек
Каналы : 6 каналов
Channel layout : L R C LFE Ls Rs
Частота : 48,0 КГц
Частота кадров : 31,250 кадров/сек (1536 SPF)
Метод сжатия : С потерями
Размер потока : 565 Мбайт (7%)
Заголовок : VO (Алексей Матвеев)
Язык : Russian
Service kind : Complete Main
Default : Нет
Forced : Нет

Аудио #4
Идентификатор : 5
Формат : AC-3
Формат/Информация : Audio Coding 3
Коммерческое название : Dolby Digital
Идентификатор кодека : A_AC3
Продолжительность : 2 ч. 3 м.
Вид битрейта : Постоянный
Битрейт : 640 Кбит/сек
Каналы : 6 каналов
Channel layout : L R C LFE Ls Rs
Частота : 48,0 КГц
Частота кадров : 31,250 кадров/сек (1536 SPF)
Метод сжатия : С потерями
Размер потока : 565 Мбайт (7%)
Язык : English
Service kind : Complete Main
Default : Нет
Forced : Нет

Текст #1
Идентификатор : 6
Формат : UTF-8
Идентификатор кодека : S_TEXT/UTF8
Идентификатор кодека/Информация : UTF-8 Plain Text
Продолжительность : 6 м. 8 с.
Битрейт : 39 бит/сек
Частота кадров : 0,073 кадр/сек
Count of elements : 27
Размер потока : 1,77 Кбайт (0%)
Заголовок : Sub-forced
Язык : Russian
Default : Да
Forced : Нет

Текст #2
Идентификатор : 7
Формат : UTF-8
Идентификатор кодека : S_TEXT/UTF8
Идентификатор кодека/Информация : UTF-8 Plain Text
Продолжительность : 1 ч. 49 м.
Битрейт : 88 бит/сек
Частота кадров : 0,189 кадр/сек
Count of elements : 1242
Размер потока : 71,1 Кбайт (0%)
Заголовок : Sub-full
Язык : Russian
Default : Нет
Forced : Нет

Текст #3
Идентификатор : 8
Формат : UTF-8
Идентификатор кодека : S_TEXT/UTF8
Идентификатор кодека/Информация : UTF-8 Plain Text
Продолжительность : 1 ч. 49 м.
Битрейт : 56 бит/сек
Частота кадров : 0,192 кадр/сек
Count of elements : 1264
Размер потока : 45,1 Кбайт (0%)
Заголовок : Sub-full
Язык : English
Default : Нет
Forced : Нет

Текст #4
Идентификатор : 9
Формат : UTF-8
Идентификатор кодека : S_TEXT/UTF8
Идентификатор кодека/Информация : UTF-8 Plain Text
Продолжительность : 1 ч. 49 м.
Битрейт : 61 бит/сек
Частота кадров : 0,227 кадр/сек
Count of elements : 1500
Размер потока : 49,3 Кбайт (0%)
Заголовок : Sub-SDH
Язык : English
Default : Нет
Forced : Нет

Меню
00:00:00.000 : en:00:00:00.000
00:03:27.958 : en:00:03:27.958
00:06:57.834 : en:00:06:57.834
00:08:19.541 : en:00:08:19.541
00:11:58.593 : en:00:11:58.593
00:15:01.484 : en:00:15:01.484
00:18:13.509 : en:00:18:13.509
00:19:56.737 : en:00:19:56.737
00:21:43.093 : en:00:21:43.093
00:23:53.849 : en:00:23:53.849
00:28:34.880 : en:00:28:34.880
00:31:32.516 : en:00:31:32.516
00:34:39.077 : en:00:34:39.077
00:40:51.199 : en:00:40:51.199
00:44:37.383 : en:00:44:37.383
00:46:57.815 : en:00:46:57.815
00:49:19.707 : en:00:49:19.707
00:54:13.333 : en:00:54:13.333
01:00:06.686 : en:01:00:06.686
01:03:16.209 : en:01:03:16.209
01:06:08.715 : en:01:06:08.715
01:12:56.998 : en:01:12:56.998
01:15:13.008 : en:01:15:13.008
01:19:54.456 : en:01:19:54.456
01:21:56.120 : en:01:21:56.120
01:27:24.156 : en:01:27:24.156
01:28:12.537 : en:01:28:12.537
01:33:28.561 : en:01:33:28.561
01:39:34.510 : en:01:39:34.510
01:46:26.714 : en:01:46:26.714
01:50:46.515 : en:01:50:46.515
01:56:40.619 : en:01:56:40.619
01:59:06.097 : en:01:59:06.097
Загрузка...Cкриншот1 Голодные игры: Сойка-пересмешница. Часть I / The Hunger Games: Mockingjay - Part 1 (2014) BDRip 1080p [HEVC] 10 bit от OldGamerЗагрузка...Cкриншот2 Голодные игры: Сойка-пересмешница. Часть I / The Hunger Games: Mockingjay - Part 1 (2014) BDRip 1080p [HEVC] 10 bit от OldGamerЗагрузка...Cкриншот3 Голодные игры: Сойка-пересмешница. Часть I / The Hunger Games: Mockingjay - Part 1 (2014) BDRip 1080p [HEVC] 10 bit от OldGamerЗагрузка...Cкриншот4 Голодные игры: Сойка-пересмешница. Часть I / The Hunger Games: Mockingjay - Part 1 (2014) BDRip 1080p [HEVC] 10 bit от OldGamer
4. Голодные игры: Сойка-пересмешница. Часть II / The Hunger Games: Mockingjay - Part 2 (2015) BDRip 1080p [HEVC] 10 bit от OldGamer
Обложка Голодные игры: Сойка-пересмешница. Часть II / The Hunger Games: Mockingjay - Part 2 (2015) BDRip 1080p [HEVC] 10 bit от OldGamer
HEVC
10 bit
✂︎Сэмпл
Год: 2015
Страна: США, Германия, Канада, Франция
Студия: Color Force, Karno's Film, Studio Babelsberg
Жанр: Фантастика, Боевик, Триллер, Приключения
Длительность: 02:16:57

Режиссер: Френсис Лоуренс
В ролях: Дженнифер Лоуренс, Джош Хатчерсон, Лиам Хемсворт, Вуди Харрельсон, Дональд Сазерленд, Филип Сеймур Хоффман, Джулианна Мур, Уиллоу Шилдс, Сэм Клафлин, Элизабет Бэнкс

Описание: Китнисс Эвердин и своенравный Пит Мелларк пытаются выиграть гражданскую войну между самодержавным Капитолием и истерзанными войной районами Панема…


Исходник: Blu-Ray Remux 1080p (rutracker)
Видео: 1920x800, 5661 Kbps
Аудио1: AC3, 6 ch, 384 Kbps - РусскийРусский, DUB (iTunes)
Аудио2: AC3, 6 ch, 640 Kbps - РусскийРусский, AVO (Юрий Сербин)
Аудио3: AC3, 6 ch, 640 Kbps - АнглийскийАнглийский
Субтитры: русские, английские (SDH)

Как за несколько секунд удалить ненужные аудиодорожки и субтитры (Внимание! После удаления вы не сможете поддержать раздачу)


Лог (x265 info)x265 [info]: frame I: 829, Avg QP:18.46 kb/s: 18479.43
x265 [info]: frame P: 26072, Avg QP:20.51 kb/s: 12973.59
x265 [info]: frame B: 170116, Avg QP:21.43 kb/s: 4476.99
x265 [info]: Weighted P-Frames: Y:11.7% UV:10.0%
x265 [info]: Weighted B-Frames: Y:8.9% UV:7.0%
x265 [info]: encoded 197017 frames in 137872.90s (1.43 fps), 5660.30 kb/s, Avg QP:21.29
МедиаинфоОбщее
Уникальный идентификатор : 197625775337374847165809312709020891310 (0x94AD5700713CC16DCA2C134DCA3A38AE)
Полное имя : \\.\04.Голодные.игры.Сойка-пересмешница.Часть.II.The.Hunger.Games.Mockingjay.Part.2.2015.BDRip-HEVC.1080p.mkv
Формат : Matroska
Версия формата : Version 4
Размер файла : 7,01 Гбайт
Продолжительность : 2 ч. 16 м.
Общий поток : 7 328 Кбит/сек
Частота кадров : 23,976 кадра/сек
Название фильма : Голодные игры: Сойка-пересмешница. Часть 2 / Голодные игры: Сойка-пересмешница. Часть 2
Кодирование произвёл : OldGamer
Тип содержимого : Movie
Описание : Да не угаснет пламя
Дата выпуска : 2015-11-18
Дата записи : 2015-11-18
Программа кодирования : mkvmerge v82.0 ('I'm The President') 64-bit
Библиотека кодирования : libebml v1.4.5 + libmatroska v1.7.1 / xviv4psp5
Обложка : Yes
Attachments : cover.jpg
ACTOR : Jennifer Lawrence, Josh Hutcherson, Liam Hemsworth, Woody Harrelson, Elizabeth Banks, Julianne Moore, Philip Seymour Hoffman, Jeffrey Wright, Stanley Tucci, Donald Sutherland, Willow Shields, Sam Claflin, Jena Malone, Mahershala Ali, Natalie Dormer, ...
ARTIST : Jennifer Lawrence, Josh Hutcherson, Liam Hemsworth, Woody Harrelson, Elizabeth Banks, Julianne Moore, Philip Seymour Hoffman, Jeffrey Wright, Stanley Tucci, Donald Sutherland, Willow Shields, Sam Claflin, Jena Malone, Mahershala Ali, Natalie Dormer, ...
DIRECTOR : Francis Lawrence
GENRE : боевик, приключения, фантастика
LAW_RATING : PG-13
PRODUCER : Jon Kilik, Nina Jacobson
PRODUCTION_STUDIO : Studio Babelsberg
RATING : PG-13
SCREENPLAY_BY : Danny Strong, Peter Craig
SUMMARY : Да не угаснет пламя
SYNOPSIS : Китнисс Эвердин и своенравный Пит Мелларк пытаются выиграть гражданскую войну между самодержавным Капитолием и истерзанными войной районами Панема…
WRITTEN_BY : Danny Strong, Peter Craig

Видео
Идентификатор : 1
Формат : HEVC
Формат/Информация : High Efficiency Video Coding
Профиль формата : Main 10@L4.1@High
Идентификатор кодека : V_MPEGH/ISO/HEVC
Продолжительность : 2 ч. 16 м.
Битрейт : 5 661 Кбит/сек
Ширина : 1 920 пикселей
Высота : 800 пикселей
Соотношение сторон : 2,40:1
Режим частоты кадров : Постоянный
Частота кадров : 23,976 (24000/1001) кадра/сек
Цветовое пространство : YUV
Субдискретизация насыщенности : 4:2:0
Битовая глубина : 10 бит
Бит/(Пиксели*Кадры) : 0.154
Размер потока : 5,42 Гбайт (77%)
Заголовок : The Hunger Games: Mockingjay - Part 2 / Rip by OldGamer
Библиотека кодирования : x265 3.5+110-8ee01d45b:[Windows][GCC 13.2.0][64 bit] 10bit
Настройки программы : cpuid=1111039 / frame-threads=3 / numa-pools=8 / wpp / no-pmode / no-pme / no-psnr / no-ssim / log-level=2 / input-csp=1 / input-res=1920x800 / interlace=0 / total-frames=197017 / level-idc=41 / high-tier=1 / uhd-bd=0 / ref=5 / no-allow-non-conformance / no-repeat-headers / annexb / no-aud / no-eob / no-eos / no-hrd / info / hash=0 / temporal-layers=0 / open-gop / min-keyint=23 / keyint=240 / gop-lookahead=0 / bframes=16 / b-adapt=2 / b-pyramid / bframe-bias=0 / rc-lookahead=60 / lookahead-slices=0 / scenecut=40 / no-hist-scenecut / radl=0 / no-splice / no-intra-refresh / ctu=32 / min-cu-size=8 / rect / amp / max-tu-size=32 / tu-inter-depth=4 / tu-intra-depth=4 / limit-tu=1 / rdoq-level=2 / dynamic-rd=0.00 / no-ssim-rd / signhide / no-tskip / nr-intra=0 / nr-inter=0 / no-constrained-intra / no-strong-intra-smoothing / max-merge=5 / limit-refs=3 / no-limit-modes / me=3 / subme=7 / merange=57 / temporal-mvp / no-frame-dup / no-hme / weightp / weightb / no-analyze-src-pics / deblock=-2:-2 / no-sao / no-sao-non-deblock / rd=6 / selective-sao=0 / no-early-skip / no-rskip / no-fast-intra / no-tskip-fast / no-cu-lossless / b-intra / no-splitrd-skip / rdpenalty=0 / psy-rd=2.00 / psy-rdoq=1.00 / no-rd-refine / no-lossless / cbqpoffs=0 / crqpoffs=0 / rc=crf / crf=20.5 / qcomp=0.60 / qpstep=4 / stats-write=0 / stats-read=0 / vbv-maxrate=50000 / vbv-bufsize=50000 / vbv-init=0.9 / min-vbv-fullness=50.0 / max-vbv-fullness=80.0 / crf-max=0.0 / crf-min=0.0 / ipratio=1.40 / pbratio=1.30 / aq-mode=1 / aq-strength=1.00 / no-cutree / zone-count=1 / zones: / start-frame=180435 / end-frame=197017 / qp=36 / no-strict-cbr / qg-size=32 / no-rc-grain / qpmax=69 / qpmin=0 / no-const-vbv / sar=1 / overscan=0 / videoformat=5 / range=0 / colorprim=2 / transfer=2 / colormatrix=2 / chromaloc=0 / display-window=0 / cll=0,0 / min-luma=0 / max-luma=1023 / log2-max-poc-lsb=8 / vui-timing-info / vui-hrd-info / slices=1 / no-opt-qp-pps / no-opt-ref-list-length-pps / no-multi-pass-opt-rps / scenecut-bias=0.00 / no-opt-cu-delta-qp / no-aq-motion / no-hdr10 / no-hdr10-opt / no-dhdr10-opt / no-idr-recovery-sei / analysis-reuse-level=0 / analysis-save-reuse-level=0 / analysis-load-reuse-level=0 / scale-factor=0 / refine-intra=0 / refine-inter=0 / refine-mv=1 / refine-ctu-distortion=0 / no-limit-sao / ctu-info=0 / no-lowpass-dct / refine-analysis-type=0 / copy-pic=1 / max-ausize-factor=1.0 / no-dynamic-refine / no-single-sei / no-hevc-aq / no-svt / no-field / qp-adaptation-range=1.00 / scenecut-aware-qp=0conformance-window-offsets / right=0 / bottom=0 / decoder-max-rate=0 / no-vbv-live-multi-pass / no-mcstf / no-sbrc
Язык : English
Default : Да
Forced : Нет

Аудио #1
Идентификатор : 2
Формат : AC-3
Формат/Информация : Audio Coding 3
Коммерческое название : Dolby Digital
Идентификатор кодека : A_AC3
Продолжительность : 2 ч. 16 м.
Вид битрейта : Постоянный
Битрейт : 384 Кбит/сек
Каналы : 6 каналов
Channel layout : L R C LFE Ls Rs
Частота : 48,0 КГц
Частота кадров : 31,250 кадров/сек (1536 SPF)
Метод сжатия : С потерями
Размер потока : 376 Мбайт (5%)
Заголовок : DUB
Язык : Russian
Service kind : Complete Main
Default : Да
Forced : Нет

Аудио #2
Идентификатор : 3
Формат : AC-3
Формат/Информация : Audio Coding 3
Коммерческое название : Dolby Digital
Идентификатор кодека : A_AC3
Продолжительность : 2 ч. 16 м.
Вид битрейта : Постоянный
Битрейт : 640 Кбит/сек
Каналы : 6 каналов
Channel layout : L R C LFE Ls Rs
Частота : 48,0 КГц
Частота кадров : 31,250 кадров/сек (1536 SPF)
Метод сжатия : С потерями
Размер потока : 627 Мбайт (9%)
Заголовок : AVO (Юрий Сербин)
Язык : Russian
Service kind : Complete Main
Default : Нет
Forced : Нет

Аудио #3
Идентификатор : 4
Формат : AC-3
Формат/Информация : Audio Coding 3
Коммерческое название : Dolby Digital
Идентификатор кодека : A_AC3
Продолжительность : 2 ч. 16 м.
Вид битрейта : Постоянный
Битрейт : 640 Кбит/сек
Каналы : 6 каналов
Channel layout : L R C LFE Ls Rs
Частота : 48,0 КГц
Частота кадров : 31,250 кадров/сек (1536 SPF)
Метод сжатия : С потерями
Размер потока : 627 Мбайт (9%)
Язык : English
Service kind : Complete Main
Default : Нет
Forced : Нет

Текст #1
Идентификатор : 5
Формат : UTF-8
Идентификатор кодека : S_TEXT/UTF8
Идентификатор кодека/Информация : UTF-8 Plain Text
Продолжительность : 2 ч. 4 м.
Битрейт : 81 бит/сек
Частота кадров : 0,181 кадр/сек
Count of elements : 1350
Размер потока : 74,0 Кбайт (0%)
Заголовок : Full
Язык : Russian
Default : Нет
Forced : Нет

Текст #2
Идентификатор : 6
Формат : UTF-8
Идентификатор кодека : S_TEXT/UTF8
Идентификатор кодека/Информация : UTF-8 Plain Text
Продолжительность : 2 ч. 4 м.
Битрейт : 47 бит/сек
Частота кадров : 0,181 кадр/сек
Count of elements : 1350
Размер потока : 43,0 Кбайт (0%)
Заголовок : Full
Язык : English
Default : Нет
Forced : Нет

Текст #3
Идентификатор : 7
Формат : UTF-8
Идентификатор кодека : S_TEXT/UTF8
Идентификатор кодека/Информация : UTF-8 Plain Text
Продолжительность : 2 ч. 4 м.
Битрейт : 50 бит/сек
Частота кадров : 0,199 кадр/сек
Count of elements : 1485
Размер потока : 46,5 Кбайт (0%)
Заголовок : SDH
Язык : English
Default : Нет
Forced : Нет

Меню
00:00:00.000 : en:00:00:00.000
00:07:39.042 : en:00:07:39.042
00:16:49.217 : en:00:16:49.217
00:24:46.985 : en:00:24:46.985
00:31:59.960 : en:00:31:59.960
00:37:11.688 : en:00:37:11.688
00:46:42.717 : en:00:46:42.717
00:55:00.881 : en:00:55:00.881
01:02:46.429 : en:01:02:46.429
01:09:27.497 : en:01:09:27.497
01:18:42.968 : en:01:18:42.968
01:29:51.136 : en:01:29:51.136
01:37:08.239 : en:01:37:08.239
01:49:01.785 : en:01:49:01.785
01:56:55.759 : en:01:56:55.759
02:03:33.239 : en:02:03:33.239
Загрузка...Cкриншот1 Голодные игры: Сойка-пересмешница. Часть II / The Hunger Games: Mockingjay - Part 2 (2015) BDRip 1080p [HEVC] 10 bit от OldGamerЗагрузка...Cкриншот2 Голодные игры: Сойка-пересмешница. Часть II / The Hunger Games: Mockingjay - Part 2 (2015) BDRip 1080p [HEVC] 10 bit от OldGamerЗагрузка...Cкриншот3 Голодные игры: Сойка-пересмешница. Часть II / The Hunger Games: Mockingjay - Part 2 (2015) BDRip 1080p [HEVC] 10 bit от OldGamerЗагрузка...Cкриншот4 Голодные игры: Сойка-пересмешница. Часть II / The Hunger Games: Mockingjay - Part 2 (2015) BDRip 1080p [HEVC] 10 bit от OldGamer
5. Голодные игры: Баллада о змеях и певчих птицах / The Hunger Games: The Ballad of Songbirds & Snakes (2023) BDRip 1080p [HEVC] 10 bit от OldGamer
Обложка Голодные игры: Баллада о змеях и певчих птицах / The Hunger Games: The Ballad of Songbirds & Snakes (2023) BDRip 1080p [HEVC] 10 bit от OldGamer
HEVC
10 bit
✂︎Сэмпл
Год: 2023
Страна: США, Канада
Студия: Color Force, Good Universe, Karno's Film
Жанр: Фантастика, Боевик, Триллер, Драма
Длительность: 02:37:10

Режиссер: Фрэнсис Лоуренс
В ролях: Том Блайт, Рэйчел Зеглер, Питер Динклэйдж, Хантер Шафер, Джош Андрес Ривера, Джейсон Шварцман, Виола Дэвис, Финола Флэнаган, Берн Горман, Эшли Ляо

Описание: До того как стать деспотичным президентом Панэма, молодой Кориолан Сноу был последней надеждой своего увядающего рода — некогда великой династии, впавшей в немилость послевоенного Капитолия. Накануне десятых ежегодных Голодных игр Сноу назначают наставником Люси Грей Бэйрд — трибута дистрикта 12. Постепенно девушка привлекает всё больше внимание Панэма, становясь фавориткой грядущего соревнования. Готовый на всё, чтобы вернуть своей семье былое величие, Сноу решает обратить ситуацию с Люси в свою пользу. Начинается гонка со временем, которая покажет, кто певчая птица, а кто — змея.


Исходник: Blu-Ray Remux 1080p (rutracker)
Видео: 1920x804, 5398 Kbps
Аудио1: AC3, 6 ch, 448 Kbps - РусскийРусский, DUB (Мосфильм-Мастер)
Аудио2: E-AC3, 6 ch, 768 Kbps - РусскийРусский, MVO (TVShows)
Аудио3: E-AC3, 6 ch, 768 Kbps - РусскийРусский, AVO (Юрий Сербин)
Аудио4: AC3, 6 ch, 640 Kbps - АнглийскийАнглийский
Субтитры: русские (full, forced), английские (SDH)

Как за несколько секунд удалить ненужные аудиодорожки и субтитры (Внимание! После удаления вы не сможете поддержать раздачу)


Лог (x265 info)x265 [info]: frame I: 945, Avg QP:17.68 kb/s: 16707.43
x265 [info]: frame P: 32622, Avg QP:19.39 kb/s: 11086.96
x265 [info]: frame B: 192538, Avg QP:20.85 kb/s: 4377.65
x265 [info]: Weighted P-Frames: Y:7.7% UV:5.9%
x265 [info]: Weighted B-Frames: Y:5.3% UV:3.3%
x265 [info]: encoded 226105 frames in 148245.21s (1.53 fps), 5397.19 kb/s, Avg QP:20.63
МедиаинфоОбщее
Уникальный идентификатор : 106485372478015736128721229520155347519 (0x501C5635367E5F00CC29C7BDC3628A3F)
Полное имя : \\.\05.Голодные.игры.Баллада.о.змеях.и.певчих.птицах.The.Hunger.Games.The.Ballad.of.Songbirds.&.Snakes.2023.BDRip-HEVC.1080p.mkv
Формат : Matroska
Версия формата : Version 4
Размер файла : 8,81 Гбайт
Продолжительность : 2 ч. 37 м.
Общий поток : 8 026 Кбит/сек
Частота кадров : 23,976 кадра/сек
Название фильма : Голодные игры: Баллада о змеях и певчих птицах / Голодные игры: Баллада о змеях и певчих птицах
Кодирование произвёл : OldGamer
Тип содержимого : Movie
Дата выпуска : 2023-11-15
Дата записи : 2023-11-15
Программа кодирования : mkvmerge v82.0 ('I'm The President') 64-bit
Библиотека кодирования : libebml v1.4.5 + libmatroska v1.7.1 / xvid4psp5
Обложка : Yes
Attachments : cover.jpg
ACTOR : Tom Blyth, Rachel Zegler, Peter Dinklage, Jason Schwartzman, Hunter Schafer, Josh Andrés Rivera, Viola Davis, Dexter Sol Ansell, Rosa Gotzler, Clemens Schick, Fionnula Flanagan, Ashley Liao, Athena Strates, Joshua Kantara, Amélie Hoeferle, Kaitlyn Ak...
ARTIST : Tom Blyth, Rachel Zegler, Peter Dinklage, Jason Schwartzman, Hunter Schafer, Josh Andrés Rivera, Viola Davis, Dexter Sol Ansell, Rosa Gotzler, Clemens Schick, Fionnula Flanagan, Ashley Liao, Athena Strates, Joshua Kantara, Amélie Hoeferle, Kaitlyn Ak...
DIRECTOR : Francis Lawrence
GENRE : драма, фантастика, боевик
LAW_RATING : PG-13
PRODUCER : Francis Lawrence, Brad Simpson, Nina Jacobson
PRODUCTION_STUDIO : about:blank
RATING : PG-13
SCREENPLAY_BY : Michael Arndt, Michael Lesslie
SYNOPSIS : За много лет до того, как стать тираническим президентом Панема, 18-летний Кориолан Сноу — последняя надежда своего угасающего рода, некогда гордой семьи, потерявшей благородство в послевоенном Капитолии. С приближением 10-х ежегодных Голодных игр молодой Сноу встревожен, когда его назначают наставником Люси Грей Бэрд, девушки-трибуна из бедного Дистрикта 12. Но после того, как Люси Грей привлекает внимание всего Панема, дерзко спев во время церемонии жатвы, Сноу думает, что сможет переломить ситуацию в свою пользу.
WRITTEN_BY : Michael Arndt, Michael Lesslie

Видео
Идентификатор : 1
Формат : HEVC
Формат/Информация : High Efficiency Video Coding
Профиль формата : Main 10@L4.1@High
Идентификатор кодека : V_MPEGH/ISO/HEVC
Продолжительность : 2 ч. 37 м.
Битрейт : 5 398 Кбит/сек
Ширина : 1 920 пикселей
Высота : 804 пикселя
Соотношение сторон : 2,39:1
Режим частоты кадров : Постоянный
Частота кадров : 23,976 (24000/1001) кадра/сек
Цветовое пространство : YUV
Субдискретизация насыщенности : 4:2:0
Битовая глубина : 10 бит
Бит/(Пиксели*Кадры) : 0.146
Размер потока : 5,93 Гбайт (67%)
Заголовок : The Hunger Games: The Ballad of Songbirds & Snakes / Rip by OldGamer
Библиотека кодирования : x265 3.5+110-8ee01d45b:[Windows][GCC 13.2.0][64 bit] 10bit
Настройки программы : cpuid=1111039 / frame-threads=3 / numa-pools=8 / wpp / no-pmode / no-pme / no-psnr / no-ssim / log-level=2 / input-csp=1 / input-res=1920x804 / interlace=0 / total-frames=226105 / level-idc=41 / high-tier=1 / uhd-bd=0 / ref=5 / no-allow-non-conformance / no-repeat-headers / annexb / no-aud / no-eob / no-eos / no-hrd / info / hash=0 / temporal-layers=0 / open-gop / min-keyint=23 / keyint=240 / gop-lookahead=0 / bframes=16 / b-adapt=2 / b-pyramid / bframe-bias=0 / rc-lookahead=60 / lookahead-slices=0 / scenecut=40 / no-hist-scenecut / radl=0 / no-splice / no-intra-refresh / ctu=32 / min-cu-size=8 / rect / amp / max-tu-size=32 / tu-inter-depth=4 / tu-intra-depth=4 / limit-tu=1 / rdoq-level=2 / dynamic-rd=0.00 / no-ssim-rd / signhide / no-tskip / nr-intra=0 / nr-inter=0 / no-constrained-intra / no-strong-intra-smoothing / max-merge=5 / limit-refs=3 / no-limit-modes / me=3 / subme=7 / merange=57 / temporal-mvp / no-frame-dup / no-hme / weightp / weightb / no-analyze-src-pics / deblock=-2:-2 / no-sao / no-sao-non-deblock / rd=6 / selective-sao=0 / no-early-skip / no-rskip / no-fast-intra / no-tskip-fast / no-cu-lossless / b-intra / no-splitrd-skip / rdpenalty=0 / psy-rd=2.00 / psy-rdoq=1.00 / no-rd-refine / no-lossless / cbqpoffs=0 / crqpoffs=0 / rc=crf / crf=20.0 / qcomp=0.60 / qpstep=4 / stats-write=0 / stats-read=0 / vbv-maxrate=50000 / vbv-bufsize=50000 / vbv-init=0.9 / min-vbv-fullness=50.0 / max-vbv-fullness=80.0 / crf-max=0.0 / crf-min=0.0 / ipratio=1.40 / pbratio=1.30 / aq-mode=1 / aq-strength=1.00 / no-cutree / zone-count=1 / zones: / start-frame=212027 / end-frame=226105 / qp=36 / no-strict-cbr / qg-size=32 / no-rc-grain / qpmax=69 / qpmin=0 / no-const-vbv / sar=1 / overscan=0 / videoformat=5 / range=0 / colorprim=2 / transfer=2 / colormatrix=2 / chromaloc=0 / display-window=0 / cll=0,0 / min-luma=0 / max-luma=1023 / log2-max-poc-lsb=8 / vui-timing-info / vui-hrd-info / slices=1 / no-opt-qp-pps / no-opt-ref-list-length-pps / no-multi-pass-opt-rps / scenecut-bias=0.00 / no-opt-cu-delta-qp / no-aq-motion / no-hdr10 / no-hdr10-opt / no-dhdr10-opt / no-idr-recovery-sei / analysis-reuse-level=0 / analysis-save-reuse-level=0 / analysis-load-reuse-level=0 / scale-factor=0 / refine-intra=0 / refine-inter=0 / refine-mv=1 / refine-ctu-distortion=0 / no-limit-sao / ctu-info=0 / no-lowpass-dct / refine-analysis-type=0 / copy-pic=1 / max-ausize-factor=1.0 / no-dynamic-refine / no-single-sei / no-hevc-aq / no-svt / no-field / qp-adaptation-range=1.00 / scenecut-aware-qp=0conformance-window-offsets / right=0 / bottom=0 / decoder-max-rate=0 / no-vbv-live-multi-pass / no-mcstf / no-sbrc
Язык : English
Default : Да
Forced : Нет

Аудио #1
Идентификатор : 2
Формат : AC-3
Формат/Информация : Audio Coding 3
Коммерческое название : Dolby Digital
Идентификатор кодека : A_AC3
Продолжительность : 2 ч. 37 м.
Вид битрейта : Постоянный
Битрейт : 448 Кбит/сек
Каналы : 6 каналов
Channel layout : L R C LFE Ls Rs
Частота : 48,0 КГц
Частота кадров : 31,250 кадров/сек (1536 SPF)
Метод сжатия : С потерями
Размер потока : 504 Мбайт (6%)
Заголовок : DUB (Мосфильм-Мастер)
Язык : Russian
Service kind : Complete Main
Default : Да
Forced : Нет

Аудио #2
Идентификатор : 3
Формат : E-AC-3
Формат/Информация : Enhanced AC-3
Коммерческое название : Dolby Digital Plus
Идентификатор кодека : A_EAC3
Продолжительность : 2 ч. 37 м.
Вид битрейта : Постоянный
Битрейт : 768 Кбит/сек
Каналы : 6 каналов
Channel layout : L R C LFE Ls Rs
Частота : 48,0 КГц
Частота кадров : 31,250 кадров/сек (1536 SPF)
Метод сжатия : С потерями
Размер потока : 863 Мбайт (10%)
Заголовок : MVO (TVShows)
Язык : Russian
Service kind : Complete Main
Default : Нет
Forced : Нет

Аудио #3
Идентификатор : 4
Формат : E-AC-3
Формат/Информация : Enhanced AC-3
Коммерческое название : Dolby Digital Plus
Идентификатор кодека : A_EAC3
Продолжительность : 2 ч. 37 м.
Вид битрейта : Постоянный
Битрейт : 768 Кбит/сек
Каналы : 6 каналов
Channel layout : L R C LFE Ls Rs
Частота : 48,0 КГц
Частота кадров : 31,250 кадров/сек (1536 SPF)
Метод сжатия : С потерями
Размер потока : 863 Мбайт (10%)
Заголовок : AVO (Юрий Сербин)
Язык : Russian
Service kind : Complete Main
Default : Нет
Forced : Нет

Аудио #4
Идентификатор : 5
Формат : AC-3
Формат/Информация : Audio Coding 3
Коммерческое название : Dolby Digital
Идентификатор кодека : A_AC3
Продолжительность : 2 ч. 37 м.
Вид битрейта : Постоянный
Битрейт : 640 Кбит/сек
Каналы : 6 каналов
Channel layout : L R C LFE Ls Rs
Частота : 48,0 КГц
Частота кадров : 31,250 кадров/сек (1536 SPF)
Метод сжатия : С потерями
Размер потока : 719 Мбайт (8%)
Язык : English
Service kind : Complete Main
Default : Нет
Forced : Нет

Текст #1
Идентификатор : 6
Формат : UTF-8
Идентификатор кодека : S_TEXT/UTF8
Идентификатор кодека/Информация : UTF-8 Plain Text
Продолжительность : 1 ч. 55 м.
Битрейт : 8 бит/сек
Частота кадров : 0,020 кадр/сек
Count of elements : 136
Размер потока : 6,90 Кбайт (0%)
Заголовок : Forced
Язык : Russian
Default : Да
Forced : Нет

Текст #2
Идентификатор : 7
Формат : UTF-8
Идентификатор кодека : S_TEXT/UTF8
Идентификатор кодека/Информация : UTF-8 Plain Text
Продолжительность : 2 ч. 30 м.
Битрейт : 101 бит/сек
Частота кадров : 0,259 кадр/сек
Count of elements : 2333
Размер потока : 112 Кбайт (0%)
Заголовок : Full
Язык : Russian
Default : Нет
Forced : Нет

Текст #3
Идентификатор : 8
Формат : UTF-8
Идентификатор кодека : S_TEXT/UTF8
Идентификатор кодека/Информация : UTF-8 Plain Text
Продолжительность : 2 ч. 29 м.
Битрейт : 59 бит/сек
Частота кадров : 0,258 кадр/сек
Count of elements : 2319
Размер потока : 65,3 Кбайт (0%)
Заголовок : Full
Язык : English
Default : Нет
Forced : Нет

Текст #4
Идентификатор : 9
Формат : UTF-8
Идентификатор кодека : S_TEXT/UTF8
Идентификатор кодека/Информация : UTF-8 Plain Text
Продолжительность : 2 ч. 36 м.
Битрейт : 67 бит/сек
Частота кадров : 0,297 кадр/сек
Count of elements : 2787
Размер потока : 77,3 Кбайт (0%)
Заголовок : SDH
Язык : English
Default : Нет
Forced : Нет

Меню
00:00:00.000 : en:Studio Logos
00:00:35.000 : en:Scene 2
00:01:40.000 : en:Scene 3
00:02:23.000 : en:Scene 4
00:05:06.000 : en:Scene 5
00:05:38.000 : en:Scene 6
00:06:14.000 : en:Scene 7
00:07:32.000 : en:Scene 8
00:12:37.000 : en:Scene 9
00:15:59.000 : en:Scene 10
00:16:51.000 : en:Scene 11
00:17:44.000 : en:Scene 12
00:21:02.000 : en:Scene 13
00:24:23.000 : en:Scene 14
00:27:55.000 : en:Scene 15
00:33:09.000 : en:Scene 16
00:33:52.000 : en:Scene 17
00:34:48.000 : en:Scene 18
00:35:35.000 : en:Scene 19
00:36:42.000 : en:Scene 20
00:40:11.000 : en:Scene 21
00:42:04.000 : en:Scene 22
00:43:50.000 : en:Scene 23
00:46:54.000 : en:Scene 24
00:48:04.000 : en:Scene 25
00:50:38.000 : en:Scene 26
00:50:48.000 : en:Scene 27
00:51:33.000 : en:Scene 28
00:51:43.000 : en:Scene 29
00:54:15.000 : en:Scene 30
00:56:04.000 : en:Scene 31
00:57:05.000 : en:Scene 32
00:57:38.000 : en:Scene 33
01:00:24.000 : en:Scene 34
01:00:35.000 : en:Scene 35
01:01:54.000 : en:Scene 36
01:02:33.000 : en:Scene 37
01:04:06.000 : en:Scene 38
01:07:46.000 : en:Scene 39
01:08:29.000 : en:Scene 40
01:10:01.000 : en:Scene 41
01:11:18.000 : en:Scene 42
01:14:11.000 : en:Scene 43
01:18:30.000 : en:Scene 44
01:19:23.000 : en:Scene 45
01:22:24.000 : en:Scene 46
01:23:20.000 : en:Scene 47
01:26:06.000 : en:Scene 48
01:26:41.000 : en:Scene 49
01:30:37.000 : en:Scene 50
01:34:00.000 : en:Scene 51
01:35:52.000 : en:Scene 52
01:36:22.000 : en:Scene 53
01:38:06.000 : en:Scene 54
01:39:03.000 : en:Scene 55
01:39:56.000 : en:Scene 56
01:40:46.000 : en:Scene 57
01:44:15.000 : en:Scene 58
01:44:37.000 : en:Scene 59
01:47:36.000 : en:Scene 60
01:48:32.000 : en:Scene 61
01:49:26.000 : en:Scene 62
01:52:46.000 : en:Scene 63
01:54:00.000 : en:Scene 64
01:54:56.000 : en:Scene 65
01:57:57.000 : en:Scene 66
01:59:41.000 : en:Scene 67
02:00:50.000 : en:Scene 68
02:01:45.000 : en:Scene 69
02:02:25.000 : en:Scene 70
02:03:24.000 : en:Scene 71
02:04:56.000 : en:Scene 72
02:05:32.000 : en:Scene 73
02:06:26.000 : en:Scene 74
02:07:21.000 : en:Scene 75
02:13:04.000 : en:Scene 76
02:18:45.000 : en:Scene 77
02:20:09.000 : en:Scene 78
02:22:15.000 : en:Scene 79
02:23:01.000 : en:Scene 80
02:26:35.000 : en:Scene 81
02:27:04.000 : en:Scene 82
02:27:09.000 : en:Title Sequence
02:27:24.000 : en:End Credits
Загрузка...Cкриншот1 Голодные игры: Баллада о змеях и певчих птицах / The Hunger Games: The Ballad of Songbirds & Snakes (2023) BDRip 1080p [HEVC] 10 bit от OldGamerЗагрузка...Cкриншот2 Голодные игры: Баллада о змеях и певчих птицах / The Hunger Games: The Ballad of Songbirds & Snakes (2023) BDRip 1080p [HEVC] 10 bit от OldGamerЗагрузка...Cкриншот3 Голодные игры: Баллада о змеях и певчих птицах / The Hunger Games: The Ballad of Songbirds & Snakes (2023) BDRip 1080p [HEVC] 10 bit от OldGamerЗагрузка...Cкриншот4 Голодные игры: Баллада о змеях и певчих птицах / The Hunger Games: The Ballad of Songbirds & Snakes (2023) BDRip 1080p [HEVC] 10 bit от OldGamer

Поблагодарили: 17AlexsBond, and50, AndresUA, Antilord90, Braveheart46rus, Brooklyn, ExoticDeer, InSpector, maximka, MIGRANT, mikeshaddix, qq, SergKote, sharkey71, TheRuselX, wamazen, Winsent
Файлы: 5
  • The Hunger Games
    • 11.78 ГБ01.Голодные.игры.The.Hunger.Games.2012.RUS.Transfer.BDRip-HEVC.1080p.mkv
    • 6.61 ГБ02.Голодные.игры.И.вспыхнет.пламя.The.Hunger.Games.Catching.Fire.2013.RUS.Transfer.BDRip-HEVC.1080p.mkv
    • 8.06 ГБ03.Голодные.игры.Сойка-пересмешница.Часть.I.The.Hunger.Games.Mockingjay.Part.1.2014.BDRip-HEVC.1080p.mkv
    • 7.01 ГБ04.Голодные.игры.Сойка-пересмешница.Часть.II.The.Hunger.Games.Mockingjay.Part.2.2015.BDRip-HEVC.1080p.mkv
    • 8.81 ГБ05.Голодные.игры.Баллада.о.змеях.и.певчих.птицах.The.Hunger.Games.The.Ballad.of.Songbirds.&.Snakes.2023.BDRip-HEVC.1080p.mkv

Рейтинги КП и IMDB, кнопки "Раздайте, пожалуйста" и "Спасибо", а также мультитрекерная статистика доступны только зарегистрированным/авторизованным пользователям!

OldGamer
1284052(5) 42.26 ГБ

💬︎ Комментарии

Добавление комментариев доступно только зарегистрированным/авторизованным пользователям.

Всего: 2
Аватар OldGamer
OldGamer
Antilord90 писал(а):
А почему вторая не IMAX версия?
Потому что ремукс другого трансфера был доступен мне.
Аватар не указан
Antilord90
А почему вторая не IMAX версия?