Чат

⚫︎
Список изменений сайта - https://rips.club/changelog.html (обновлен 24.05.2024)
  • arwis
  • justmkr
  • ko1ob
  • tool9
Онлайн (за 10 мин.): 4
  • Tastod: Раздайте, пожалуйста, Загадочная история Бенджамина Баттона / The Curious Case of Benjamin Button (2008) BDRip 1080p [HEVC] 10 bit от Spartanec1308
  • Гл. Админ: Исправил баг, когда после анонса коллекции все анонсы показывались в спойлере, даже если не являлись коллекцией.
  • Гл. Админ: Исправил баг, когда в ЛС не возможно было удалить сообщение.
  • bronsonw200: Гл. Админ, Как по мне, так смотрится приятнее.
  • Гл. Админ: В светлой теме задний фон сделал чуть потемнее, чтобы было не слишком ярко. В темной теме поисковую строку сделал черной (как в светлой теме), чтобы выделялась. Убрал рамки вокруг элементов форм. Прокрутку страницы в начало сделал плавной. ( отредактировано: )
  • Гл. Админ: В ближайшие дни по вечерам начну подправлять дизайн.
  • Гл. Админ: Готово.
  • Гл. Админ: Управление релизами закончил, но не буду выкладывать на ночь глядя. Утром протестирую на локальном компе, и днем выложу.
  • Гл. Админ: Фон баннера релиз-группы сделал прозрачным и перезалил на внешнем хостинге.
  • OldGamer: было бы неплохо
  • Гл. Админ: Управление релизами наверно сегодня закончу.
  • HANNIBAL: Сообщение удалено (удалил: HANNIBAL)
  • HANNIBAL: Гл. Админ, не привычно
  • Гл. Админ: HANNIBAL, хорошего или плохого?
  • HANNIBAL: эт чей-то вы тут натворили с сайтом ;)
  • Гл. Админ: ExoticDeer, просто в будущем будет несколько новостных строчек и они будут автоматически переключаться по кругу, поэтому не хочется статичную. Могу ещё уменьшить частоту, если всё равно будет отвлекать. ( отредактировано: )
  • Гл. Админ: ExoticDeer, уменьшил частоту мигания с 5 сек. до 10 сек.
  • ExoticDeer: Гл. Админ, про мигание, скорее отвлекает, особенно на тёмной теме. статичная хорошо смотрелась
  • Гл. Админ: Winsent, Исправил. Теперь, при просмотре комментариев конкретного пользователя, эта галочка не играет роли. Спасибо, что сообщили.
  • Гл. Админ: Winsent, сначала не поверил своим глазам. Это было оооочень странно. Но кажется теперь понял в чем проблема. Ошибка появляется, если в настройках не установлена галочка "Получать уведомления о всех комментариях". Причем у разных пользователей проявляется по разному - у кого-то ничего не показывается, а у кого-то показывается часть комментариев. Поэтому мне долго не удавалось воспроизвести ошибку. Сейчас исправлю.
Отправка сообщений доступна только зарегистрированным/авторизованным пользователям.

🎥︎Подстава / Setup (2011) [DEU Transfer | Open Matte] BDRip 1080p [HEVC] 10 bit от OldGamer (RG RIPS CLUB)


Обложка Подстава / Setup (2011) [DEU Transfer | Open Matte] BDRip 1080p [HEVC] 10 bit от OldGamer (RG RIPS CLUB)
HEVC
10 bit
✂︎Сэмпл⤓︎Торрент🧲︎Магнет$Пожертвования

При перезаливке на другие сайты просьба указать автора и релиз-группу.


Год: 2011
Страна: США
Студия: Action Jackson Films, Cheetah Vision, Grindstone Entertainment Group, Hedge Fund Film Partners, Paradox Entertainment
Жанр: Боевик, Триллер, Драма, Криминал
Длительность: 01:24:26

Режиссер: Майк Гюнтер
В ролях: Фифти Сент, Брюс Уиллис, Райан Филипп, Дженна Дуан, Рэнди Кутюр, Джеймс Римар, Бретт Гранстафф, Уилл Юн Ли, Шон Тоуб, Сьюзи Абромейт

Описание: Лучшие друзья Сони, Винсент и Дейв вместе выросли на бандитских улицах и зарабатывают на жизнь разбоем. Устав от такой жизни, они решают покончить с преступлениями, когда завершат последнее криминальное дело. Однако один из них решил прекратить преступный путь двоих других в полном смысле слова. После удачного, но кровавого похищения алмазов Винсент стреляет в своих товарищей и бросает их умирать. Дейв погибает на месте, а Сони чудом остаётся в живых. Теперь у него одна цель – отомстить предателю.


Релиз-группа: RIPS CLUB
Исходник: Blu-Ray Remux 1080p (rutracker)
Видео: 1920x1080, 4928 Kbps
Аудио1: AC3, 6 ch, 448 Kbps - РусскийРусский, DUB (R5)
Аудио2: AC3, 6 ch, 640 Kbps - РусскийРусский, VO (Вячеслав Замез)
Аудио3: AC3, 6 ch, 640 Kbps - АнглийскийАнглийский
Субтитры: русские, английские (SDH)

Как за несколько секунд удалить ненужные аудиодорожки и субтитры (Внимание! После удаления вы не сможете поддержать раздачу)


Лог (x265 info)x265 [info]: frame I: 510, Avg QP:17.82 kb/s: 16325.19
x265 [info]: frame P: 21374, Avg QP:19.12 kb/s: 10000.13
x265 [info]: frame B: 99558, Avg QP:21.58 kb/s: 3779.76
x265 [info]: Weighted P-Frames: Y:2.7% UV:1.9%
x265 [info]: Weighted B-Frames: Y:2.3% UV:1.1%
x265 [info]: encoded 121442 frames in 94976.71s (1.28 fps), 4927.24 kb/s, Avg QP:21.13
МедиаинфоОбщее
Уникальный идентификатор : 218338620595694280609438540813923529565 (0xA4427D1E34897FD0F35828415B50335D)
Полное имя : \.\Подстава.Setup.2011.DEU.Transfer.BDRip-HEVC.1080p.mkv
Формат : Matroska
Версия формата : Version 4
Размер файла : 3,93 Гбайт
Продолжительность : 1 ч. 24 м.
Общий поток : 6 668 Кбит/сек
Частота кадров : 23,976 кадра/сек
Название фильма : Подстава / Подстава
Кодирование произвёл : OldGamer
Тип содержимого : Movie
Описание : Лучшие друзья Сони, Винсент и Дейв вместе выросли на бандитских улицах и зарабатывают на жизнь разбоем. Устав от такой жизни, они решают покончить с преступлениями, когда завершат последнее криминальное дело.
Дата выпуска : 2011-10-17
Дата записи : 2011-10-17
Программа кодирования : mkvmerge v82.0 ('I'm The President') 64-bit
Библиотека кодирования : libebml v1.4.5 + libmatroska v1.7.1 / xvid4psp5
Обложка : Yes
Attachments : cover.jpg
ACTOR : 50 Cent, Ryan Phillippe, Bruce Willis, James Remar, Randy Couture, Will Yun Lee, Shaun Toub, Susie Abromeit, Jay Karnes, Jordan Trovillion, Ambyr Childers, Jenna Dewan, Omar J. Dorsey, Theo Kypri, Richard Goteri, Rory Markham, Brett Granstaff, Ralph ...
ARTIST : 50 Cent, Ryan Phillippe, Bruce Willis, James Remar, Randy Couture, Will Yun Lee, Shaun Toub, Susie Abromeit, Jay Karnes, Jordan Trovillion, Ambyr Childers, Jenna Dewan, Omar J. Dorsey, Theo Kypri, Richard Goteri, Rory Markham, Brett Granstaff, Ralph ...
DIRECTOR : Mike Gunther
GENRE : боевик, криминал, драма, триллер
LAW_RATING : R
PRODUCER : George Furla, Randall Emmett, 50 Cent
PRODUCTION_STUDIO : Action Jackson Films
RATING : R
SCREENPLAY_BY : Mike Gunther, Mike Behrman
SUMMARY : Лучшие друзья Сони, Винсент и Дейв вместе выросли на бандитских улицах и зарабатывают на жизнь разбоем. Устав от такой жизни, они решают покончить с преступлениями, когда завершат последнее криминальное дело.
SYNOPSIS : Лучшие друзья Сони, Винсент и Дейв вместе выросли на бандитских улицах и зарабатывают на жизнь разбоем. Устав от такой жизни, они решают покончить с преступлениями, когда завершат последнее криминальное дело. Однако один из них решил прекратить преступный путь двоих других в полном смысле слова. После удачного, но кровавого похищения алмазов Винсент стреляет в своих товарищей и бросает их умирать. Дейв погибает на месте, а Сони чудом остается в живых. Теперь у него одна цель — отомстить предателю.
WRITTEN_BY : Mike Gunther, Mike Behrman

Видео
Идентификатор : 1
Формат : HEVC
Формат/Информация : High Efficiency Video Coding
Профиль формата : Main 10@L4.1@High
Идентификатор кодека : V_MPEGH/ISO/HEVC
Продолжительность : 1 ч. 24 м.
Битрейт : 4 928 Кбит/сек
Ширина : 1 920 пикселей
Высота : 1 080 пикселей
Соотношение сторон : 16:9
Режим частоты кадров : Постоянный
Частота кадров : 23,976 (24000/1001) кадра/сек
Цветовое пространство : YUV
Субдискретизация насыщенности : 4:2:0
Битовая глубина : 10 бит
Бит/(Пиксели*Кадры) : 0.099
Размер потока : 2,91 Гбайт (74%)
Заголовок : Setup / Rip by OldGamer
Библиотека кодирования : x265 3.5+110-8ee01d45b:[Windows][GCC 13.2.0][64 bit] 10bit
Настройки программы : cpuid=1111039 / frame-threads=3 / numa-pools=8 / wpp / no-pmode / no-pme / no-psnr / no-ssim / log-level=2 / input-csp=1 / input-res=1920x1080 / interlace=0 / total-frames=121442 / level-idc=41 / high-tier=1 / uhd-bd=0 / ref=5 / no-allow-non-conformance / no-repeat-headers / annexb / no-aud / no-eob / no-eos / no-hrd / info / hash=0 / temporal-layers=0 / open-gop / min-keyint=23 / keyint=240 / gop-lookahead=0 / bframes=16 / b-adapt=2 / b-pyramid / bframe-bias=0 / rc-lookahead=60 / lookahead-slices=0 / scenecut=40 / no-hist-scenecut / radl=0 / no-splice / no-intra-refresh / ctu=32 / min-cu-size=8 / rect / amp / max-tu-size=32 / tu-inter-depth=4 / tu-intra-depth=4 / limit-tu=1 / rdoq-level=2 / dynamic-rd=0.00 / no-ssim-rd / signhide / no-tskip / nr-intra=0 / nr-inter=0 / no-constrained-intra / no-strong-intra-smoothing / max-merge=5 / limit-refs=3 / no-limit-modes / me=3 / subme=7 / merange=57 / temporal-mvp / no-frame-dup / no-hme / weightp / weightb / no-analyze-src-pics / deblock=-2:-2 / no-sao / no-sao-non-deblock / rd=6 / selective-sao=0 / no-early-skip / no-rskip / no-fast-intra / no-tskip-fast / no-cu-lossless / b-intra / no-splitrd-skip / rdpenalty=0 / psy-rd=2.00 / psy-rdoq=1.00 / no-rd-refine / no-lossless / cbqpoffs=0 / crqpoffs=0 / rc=crf / crf=21.3 / qcomp=0.60 / qpstep=4 / stats-write=0 / stats-read=0 / vbv-maxrate=50000 / vbv-bufsize=50000 / vbv-init=0.9 / min-vbv-fullness=50.0 / max-vbv-fullness=80.0 / crf-max=0.0 / crf-min=0.0 / ipratio=1.40 / pbratio=1.30 / aq-mode=1 / aq-strength=1.00 / no-cutree / zone-count=1 / zones: / start-frame=116351 / end-frame=121442 / qp=36 / no-strict-cbr / qg-size=32 / no-rc-grain / qpmax=69 / qpmin=0 / no-const-vbv / sar=1 / overscan=0 / videoformat=5 / range=0 / colorprim=2 / transfer=2 / colormatrix=2 / chromaloc=0 / display-window=0 / cll=0,0 / min-luma=0 / max-luma=1023 / log2-max-poc-lsb=8 / vui-timing-info / vui-hrd-info / slices=1 / no-opt-qp-pps / no-opt-ref-list-length-pps / no-multi-pass-opt-rps / scenecut-bias=0.00 / no-opt-cu-delta-qp / no-aq-motion / no-hdr10 / no-hdr10-opt / no-dhdr10-opt / no-idr-recovery-sei / analysis-reuse-level=0 / analysis-save-reuse-level=0 / analysis-load-reuse-level=0 / scale-factor=0 / refine-intra=0 / refine-inter=0 / refine-mv=1 / refine-ctu-distortion=0 / no-limit-sao / ctu-info=0 / no-lowpass-dct / refine-analysis-type=0 / copy-pic=1 / max-ausize-factor=1.0 / no-dynamic-refine / no-single-sei / no-hevc-aq / no-svt / no-field / qp-adaptation-range=1.00 / scenecut-aware-qp=0conformance-window-offsets / right=0 / bottom=0 / decoder-max-rate=0 / no-vbv-live-multi-pass / no-mcstf / no-sbrc
Язык : English
Default : Да
Forced : Нет

Аудио #1
Идентификатор : 2
Формат : AC-3
Формат/Информация : Audio Coding 3
Коммерческое название : Dolby Digital
Идентификатор кодека : A_AC3
Продолжительность : 1 ч. 24 м.
Вид битрейта : Постоянный
Битрейт : 448 Кбит/сек
Каналы : 6 каналов
Channel layout : L R C LFE Ls Rs
Частота : 48,0 КГц
Частота кадров : 31,250 кадров/сек (1536 SPF)
Метод сжатия : С потерями
Размер потока : 270 Мбайт (7%)
Заголовок : DUB (R5)
Язык : Russian
Service kind : Complete Main
Default : Да
Forced : Нет

Аудио #2
Идентификатор : 3
Формат : AC-3
Формат/Информация : Audio Coding 3
Коммерческое название : Dolby Digital
Идентификатор кодека : A_AC3
Продолжительность : 1 ч. 24 м.
Вид битрейта : Постоянный
Битрейт : 640 Кбит/сек
Каналы : 6 каналов
Channel layout : L R C LFE Ls Rs
Частота : 48,0 КГц
Частота кадров : 31,250 кадров/сек (1536 SPF)
Метод сжатия : С потерями
Размер потока : 386 Мбайт (10%)
Заголовок : VO (Вячеслав Замез)
Язык : Russian
Service kind : Complete Main
Default : Нет
Forced : Нет

Аудио #3
Идентификатор : 4
Формат : AC-3
Формат/Информация : Audio Coding 3
Коммерческое название : Dolby Digital
Идентификатор кодека : A_AC3
Продолжительность : 1 ч. 24 м.
Вид битрейта : Постоянный
Битрейт : 640 Кбит/сек
Каналы : 6 каналов
Channel layout : L R C LFE Ls Rs
Частота : 48,0 КГц
Частота кадров : 31,250 кадров/сек (1536 SPF)
Метод сжатия : С потерями
Размер потока : 387 Мбайт (10%)
Язык : English
Service kind : Complete Main
Default : Нет
Forced : Нет

Текст #1
Идентификатор : 5
Формат : UTF-8
Идентификатор кодека : S_TEXT/UTF8
Идентификатор кодека/Информация : UTF-8 Plain Text
Продолжительность : 1 ч. 20 м.
Битрейт : 94 бит/сек
Частота кадров : 0,207 кадр/сек
Count of elements : 998
Размер потока : 55,9 Кбайт (0%)
Заголовок : Russian R5
Язык : Russian
Default : Нет
Forced : Нет

Текст #2
Идентификатор : 6
Формат : UTF-8
Идентификатор кодека : S_TEXT/UTF8
Идентификатор кодека/Информация : UTF-8 Plain Text
Продолжительность : 1 ч. 20 м.
Битрейт : 95 бит/сек
Частота кадров : 0,207 кадр/сек
Count of elements : 997
Размер потока : 56,0 Кбайт (0%)
Заголовок : Russian ПроходимеZ
Язык : Russian
Default : Нет
Forced : Нет

Текст #3
Идентификатор : 7
Формат : UTF-8
Идентификатор кодека : S_TEXT/UTF8
Идентификатор кодека/Информация : UTF-8 Plain Text
Продолжительность : 1 ч. 20 м.
Битрейт : 95 бит/сек
Частота кадров : 0,207 кадр/сек
Count of elements : 1002
Размер потока : 56,1 Кбайт (0%)
Заголовок : Russian Notabenoid
Язык : Russian
Default : Нет
Forced : Нет

Текст #4
Идентификатор : 8
Формат : UTF-8
Идентификатор кодека : S_TEXT/UTF8
Идентификатор кодека/Информация : UTF-8 Plain Text
Продолжительность : 1 ч. 22 м.
Битрейт : 57 бит/сек
Частота кадров : 0,214 кадр/сек
Count of elements : 1059
Размер потока : 34,5 Кбайт (0%)
Заголовок : English Full
Язык : English
Default : Нет
Forced : Нет

Текст #5
Идентификатор : 9
Формат : UTF-8
Идентификатор кодека : S_TEXT/UTF8
Идентификатор кодека/Информация : UTF-8 Plain Text
Продолжительность : 1 ч. 22 м.
Битрейт : 59 бит/сек
Частота кадров : 0,229 кадр/сек
Count of elements : 1131
Размер потока : 36,1 Кбайт (0%)
Заголовок : English SDH
Язык : English
Default : Нет
Forced : Нет

Меню
00:00:00.000 : en:Run Your Mouth
00:06:54.497 : en:Wasn't Part of the Plan
00:14:32.246 : en:Gotta Find Him
00:22:32.100 : en:Old Friend
00:33:04.315 : en:Calculated Risk
00:39:42.505 : en:The Butcher
00:45:42.990 : en:A Message
00:51:34.216 : en:Right and Wrong
00:58:09.360 : en:Ghosts
01:05:01.856 : en:Loose Ends
01:11:55.269 : en:Got to Go
01:18:52.310 : en:Doing My Best
01:24:25.143 : en:Relax
Загрузка...Cкриншот1 Подстава / Setup (2011) [DEU Transfer | Open Matte] BDRip 1080p [HEVC] 10 bit от OldGamer (RG RIPS CLUB)Загрузка...Cкриншот2 Подстава / Setup (2011) [DEU Transfer | Open Matte] BDRip 1080p [HEVC] 10 bit от OldGamer (RG RIPS CLUB)Загрузка...Cкриншот3 Подстава / Setup (2011) [DEU Transfer | Open Matte] BDRip 1080p [HEVC] 10 bit от OldGamer (RG RIPS CLUB)Загрузка...Cкриншот4 Подстава / Setup (2011) [DEU Transfer | Open Matte] BDRip 1080p [HEVC] 10 bit от OldGamer (RG RIPS CLUB)
Поблагодарили: 4Alex302, Antilord90, Brooklyn, Kiran
Файлы: 1
  • Подстава.Setup.2011.DEU.Transfer.BDRip-HEVC.1080p.mkv

Рейтинги КП и IMDB, кнопки "Раздайте, пожалуйста" и "Спасибо", а также мультитрекерная статистика доступны только зарегистрированным/авторизованным пользователям!

OldGamer
12015903.93 ГБ

💬︎ Комментарии

Добавление комментариев доступно только зарегистрированным/авторизованным пользователям.