💬 Мини-чат

Для тех, кому интересен процесс переделки сайта - https://rips.club/changelog.html (обновлен 22.02.2024)
OldGamerz1M4p9i0, и этот релиз скачался
Adminatomicheart, встал, но у Вас в профиле не видно. Вам бы перекачать.
OldGamerz1M4p9i0, Хан Соло скачался, но релиз, который был на руторе, там аудиодорожек меньше, чем тут, а видеоряд тот же. Попробуйте оттуда, я пока что сидирую.
OldGamerХан Соло откуда-то по чайной ложке в час скачивается, за сутки 50%, наблюдаем-с дальше
Adminatomicheart, завтра посмотрю, он у меня должен быть.
atomicheartРаздайте, пожалуйста, Тихое место: Дилогия / A Quiet Place: Dilogy (2018-2020) UHD-BDRip 1080p [HEVC] 10 bit [HDR] от Mr. Fox
z1M4p9i0Раздайте, пожалуйста, Хан Соло: Звёздные войны. Истории / Solo: A Star Wars Story (2018) [Локализованная версия] BDRip 1080p [HEVC] 10 bit от Cthulhu
z1M4p9i0Раздайте, пожалуйста, Терминатор: Тёмные судьбы / Terminator: Dark Fate (2019) [iTunes] UHD-BDRip 1440p [HEVC] 10 bit от HANNIBAL
OldGamerKeynol, честно говоря, пока что не планировалось, так как у нас есть отличный рип этого фильма
KeynolПриветствую! А можно сделать HEVC 10 bit на Трон Наследие Hybrid ? там файл на 31 гиг :-( на рутрекере. Хороший, но очень массивный..
  • OldGamer
  • Alex302
  • ancestor87
  • InSpector
Отправка сообщений доступна только зарегистрированным/авторизованным пользователям.
Онлайн (за 10 мин.): 4

В пустыне смерти / Into the Badlands (2015-2019) BDRip 1080p [HEVC] 10 bit от OldGamer (RG RIPS CLUB)

HEVC
10 bit
Обложка В пустыне смерти / Into the Badlands (2015-2019) BDRip 1080p [HEVC] 10 bit от OldGamer (RG RIPS CLUB) Год: 2015-2019
Страна: США
Жанр: Боевик, Драма, Приключения

1. В пустыне смерти / Into the Badlands (2015) [1 сезон] BDRip 1080p [HEVC] 10 bit от OldGamer
HEVC
10 bit
Обложка В пустыне смерти / Into the Badlands (2015) [1 сезон] BDRip 1080p [HEVC] 10 bit от OldGamer Год: 2015
Страна: США
Студия: AMC Studios, Double Feature Films, Millar Gough Ink
Жанр: Боевик, Драма, Приключения
Продолжительность: 04:15:57

Режиссер: Пако Кабесас, Тоа Фрейзер, Дэвид Добкин
В ролях: Дэниэл У, Орла Брэйди, Эмили Бичем, Арамис Найт, Элли Иоаннидес, Ник Фрост, Шерман Огастас, Сара Болгер, Оливер Старк, Мадлен Манток

Описание: Далёкое будущее, в котором общество вернулось к феодальному строю. Прежняя цивилизация оказалась полностью разрушена, и теперь всем заправляют семь баронов, конкурирующих между собой хозяев так называемой Пустыни смерти. Каждый из них обладает собственной армией безжалостных убийц, именуемых кромсателями, которые нужны для усмирения народа и поддержания авторитета того или иного правителя. Самым профессиональным и ловким из наёмников является Санни; правая рука барона Куинна, на протяжении многих десятилетий считающегося самым авторитетным властителем своих территорий. В последнее время Куинн слегка сдал: его мучает неизвестный недуг, и этим хочет воспользоваться хитрая Вдова, барон-новичок с большими амбициями. Тем временем Санни спасает из случайной кровавой передряги мальчика по имени Эм Кей и берёт его под своё покровительство. Вскоре лучший во всей Пустыне кромсатель понимает, что спасённый подросток хранит некую страшную тайну, из-за которой на него ведётся охота. Вместе Санни и Эм Кей вынуждены отправиться в опасное путешествие, которое может привести всех обитателей Пустыни смерти к кардинальным переменам...


Исходник: Blu-Ray Remux 1080p
Видео: 1920x1080, 5115-8516 Kbps
Аудио1: AC3, 6 ch, 384 Kbps - РусскийРусский, MVO (TVShows)
Аудио2: AC3, 6 ch, 384 Kbps - РусскийРусский, MVO (NewStudio)
Аудио3: AC3, 2 ch, 384 Kbps - РусскийРусский, MVO (LostFilm)
Аудио4: AC3, 2 ch, 192 Kbps - РусскийРусский, MVO (AMC)
Аудио5: AC3, 2 ch, 192 Kbps - РусскийРусский, MVO (Sci-Fi)
Аудио6: AC3, 2 ch, 192 Kbps - УкраинскийУкраинский, MVO (AMC)
Аудио7: AC3, 6 ch, 640 Kbps - АнглийскийАнглийский
Субтитры: русские, английские (SDH)

Как за пару секунд удалить ненужные аудиодорожки и субтитры (Внимание! После удаления вы не сможете поддержать раздачу)

Лог (x265 info)
x265 [info]: frame I: 256, Avg QP:17.96 kb/s: 18883.67
x265 [info]: frame P: 11846, Avg QP:19.48 kb/s: 12291.76
x265 [info]: frame B: 48762, Avg QP:21.40 kb/s: 4282.04
x265 [info]: Weighted P-Frames: Y:4.0% UV:3.1%
x265 [info]: Weighted B-Frames: Y:5.8% UV:4.5%
x265 [info]: consecutive B-frames: 5.0% 4.2% 13.8% 28.6% 12.8% 13.9% 6.4% 7.6% 3.1% 1.8% 1.1% 0.6% 0.5% 0.3% 0.4%
x265 [info]: encoded 60864 frames in 41356.48s (1.47 fps), 5902.39 kb/s, Avg QP:21.01
Медиаинфо
Общее
Уникальный идентификатор : 269146792802280153986082185428351400742 (0xCA7BC969B7A8EAF46E0A855BDB613B26)
Полное имя : \\.\Into.the.Badlands.S01E04.Two.Tigers.Subdue.Dragons.mkv
Формат : Matroska
Версия формата : Version 4
Размер файла : 2,47 Гбайт
Продолжительность : 47 м. 33 с.
Общий поток : 7 435 Кбит/сек
Частота кадров : 23,976 кадра/сек
Название фильма : Into.The.Badlands.S01E04.Two.Tigers.Subdue.Dragons / Два тигра покоряют дракона
Трек/Положение : 1
Кодирование произвёл : OldGamer
Тип содержимого : TV Show
Описание : Желая узнать, насколько опасен и непредсказуем его кадет, Санни уводит Эм Кея подальше от форта и ранит его. Убедившись, что тот не может контролировать себя, Санни берет на переговоры другого кадета.
Дата выпуска : 2015-12-06
Дата записи : 2015-12-06
Программа кодирования : mkvmerge v82.0 ('I'm The President') 64-bit
Библиотека кодирования : libebml v1.4.5 + libmatroska v1.7.1 / xvid4psp5
Обложка : Yes
Attachments : cover.jpg
ACTOR : Daniel Wu, Emily Beecham, Sarah Bolger, Orla Brady, Alexia Ioannides, Marton Csokas, Aramis Knight, Madeleine Mantock, Mike Seal, Oliver Stark, Ellen Hollman
ARTIST : Daniel Wu, Emily Beecham, Sarah Bolger, Orla Brady, Alexia Ioannides, Marton Csokas, Aramis Knight, Madeleine Mantock, Mike Seal, Oliver Stark, Ellen Hollman
EPISODE.PART_NUM : 4
GENRE : Боевик и Приключения, драма
LAW_RATING : TV-14
RATING : TV-14
SEASON.PART_NUM : 1
SUMMARY : Желая узнать, насколько опасен и непредсказуем его кадет, Санни уводит Эм Кея подальше от форта и ранит его. Убедившись, что тот не может контролировать себя, Санни берет на переговоры другого кадета.
SYNOPSIS : Желая узнать, насколько опасен и непредсказуем его кадет, Санни уводит Эм Кея подальше от форта и ранит его. Убедившись, что тот не может контролировать себя, Санни берет на переговоры другого кадета. Но Эм Кей следует за ним, чтобы доказать, что может быть полезен. Пока идут переговоры, расклад сил меняется. Вдова уводит из форта Барона всех его рабов. Теперь собирать урожай некому. Санни тайно готовится к побегу из пустыни смерти и заключает сделку с Речным королем, а Райдер вступает в союз с главным врагом своего отца.

Видео
Идентификатор : 1
Формат : HEVC
Формат/Информация : High Efficiency Video Coding
Профиль формата : Main 10@L4@Main
Идентификатор кодека : V_MPEGH/ISO/HEVC
Продолжительность : 42 м. 18 с.
Битрейт : 5 903 Кбит/сек
Ширина : 1 920 пикселей
Высота : 1 080 пикселей
Соотношение сторон : 16:9
Режим частоты кадров : Постоянный
Частота кадров : 23,976 (24000/1001) кадра/сек
Цветовое пространство : YUV
Субдискретизация насыщенности : 4:2:0
Битовая глубина : 10 бит
Бит/(Пиксели*Кадры) : 0.119
Размер потока : 1,74 Гбайт (71%)
Заголовок : Into The Badlands S01E04 / Rip by OldGamer
Библиотека кодирования : x265 3.2.1+3-b4b2ecac21f6:[Windows][MSVC 1924][64 bit] 10bit
Настройки программы : cpuid=1111039 / frame-threads=3 / numa-pools=8 / wpp / no-pmode / no-pme / psnr / ssim / log-level=2 / input-csp=1 / input-res=1920x1080 / interlace=0 / total-frames=60864 / level-idc=0 / high-tier=1 / uhd-bd=0 / ref=5 / no-allow-non-conformance / no-repeat-headers / annexb / no-aud / no-hrd / info / hash=0 / no-temporal-layers / open-gop / min-keyint=23 / keyint=240 / gop-lookahead=0 / bframes=14 / b-adapt=2 / b-pyramid / bframe-bias=0 / rc-lookahead=60 / lookahead-slices=0 / scenecut=40 / radl=0 / no-splice / no-intra-refresh / ctu=64 / min-cu-size=8 / rect / amp / max-tu-size=32 / tu-inter-depth=4 / tu-intra-depth=4 / limit-tu=1 / rdoq-level=2 / dynamic-rd=0.00 / no-ssim-rd / signhide / no-tskip / nr-intra=0 / nr-inter=0 / no-constrained-intra / no-strong-intra-smoothing / max-merge=5 / limit-refs=3 / no-limit-modes / me=3 / subme=7 / merange=57 / temporal-mvp / no-hme / weightp / weightb / no-analyze-src-pics / deblock=-3:-3 / no-sao / no-sao-non-deblock / rd=6 / selective-sao=0 / no-early-skip / rskip / no-fast-intra / no-tskip-fast / no-cu-lossless / b-intra / no-splitrd-skip / rdpenalty=0 / psy-rd=2.00 / psy-rdoq=1.00 / no-rd-refine / no-lossless / cbqpoffs=0 / crqpoffs=0 / rc=crf / crf=20.4 / qcomp=0.78 / qpstep=4 / stats-write=0 / stats-read=0 / ipratio=1.40 / pbratio=1.30 / aq-mode=4 / aq-strength=0.70 / no-cutree / zone-count=0 / no-strict-cbr / qg-size=32 / no-rc-grain / qpmax=69 / qpmin=0 / no-const-vbv / sar=1 / overscan=0 / videoformat=5 / range=0 / colorprim=2 / transfer=2 / colormatrix=2 / chromaloc=0 / display-window=0 / cll=0,0 / min-luma=0 / max-luma=1023 / log2-max-poc-lsb=8 / vui-timing-info / vui-hrd-info / slices=1 / no-opt-qp-pps / no-opt-ref-list-length-pps / no-multi-pass-opt-rps / scenecut-bias=0.00 / no-opt-cu-delta-qp / no-aq-motion / no-hdr / no-hdr-opt / no-dhdr10-opt / no-idr-recovery-sei / analysis-reuse-level=5 / scale-factor=0 / refine-intra=0 / refine-inter=0 / refine-mv=1 / refine-ctu-distortion=0 / no-limit-sao / ctu-info=0 / no-lowpass-dct / refine-analysis-type=0 / copy-pic=1 / max-ausize-factor=1.0 / no-dynamic-refine / no-single-sei / no-hevc-aq / no-svt / no-field / qp-adaptation-range=1.00
Язык : English
Default : Да
Forced : Нет

Аудио #1
Идентификатор : 2
Формат : AC-3
Формат/Информация : Audio Coding 3
Коммерческое название : Dolby Digital
Идентификатор кодека : A_AC3
Продолжительность : 42 м. 18 с.
Вид битрейта : Постоянный
Битрейт : 384 Кбит/сек
Каналы : 6 каналов
Channel layout : L R C LFE Ls Rs
Частота : 48,0 КГц
Частота кадров : 31,250 кадров/сек (1536 SPF)
Метод сжатия : С потерями
Размер потока : 116 Мбайт (5%)
Заголовок : MVO (TVShows)
Язык : Russian
Service kind : Complete Main
Default : Да
Forced : Нет

Аудио #2
Идентификатор : 3
Формат : AC-3
Формат/Информация : Audio Coding 3
Коммерческое название : Dolby Digital
Идентификатор кодека : A_AC3
Продолжительность : 42 м. 39 с.
Вид битрейта : Постоянный
Битрейт : 384 Кбит/сек
Каналы : 6 каналов
Channel layout : L R C LFE Ls Rs
Частота : 48,0 КГц
Частота кадров : 31,250 кадров/сек (1536 SPF)
Метод сжатия : С потерями
Размер потока : 117 Мбайт (5%)
Заголовок : MVO (NewStudio)
Язык : Russian
Service kind : Complete Main
Default : Нет
Forced : Нет

Аудио #3
Идентификатор : 4
Формат : AC-3
Формат/Информация : Audio Coding 3
Коммерческое название : Dolby Digital
Идентификатор кодека : A_AC3
Продолжительность : 42 м. 17 с.
Вид битрейта : Постоянный
Битрейт : 384 Кбит/сек
Каналы : 2 канала
Channel layout : L R
Частота : 48,0 КГц
Частота кадров : 31,250 кадров/сек (1536 SPF)
Метод сжатия : С потерями
Размер потока : 116 Мбайт (5%)
Заголовок : MVO (LostFilm)
Язык : Russian
Service kind : Complete Main
Default : Нет
Forced : Нет

Аудио #4
Идентификатор : 5
Формат : AC-3
Формат/Информация : Audio Coding 3
Коммерческое название : Dolby Digital
Идентификатор кодека : A_AC3
Продолжительность : 42 м. 17 с.
Вид битрейта : Постоянный
Битрейт : 192 Кбит/сек
Каналы : 2 канала
Channel layout : L R
Частота : 48,0 КГц
Частота кадров : 31,250 кадров/сек (1536 SPF)
Метод сжатия : С потерями
Размер потока : 58,1 Мбайт (2%)
Заголовок : MVO (AMC)
Язык : Russian
Service kind : Complete Main
Default : Нет
Forced : Нет

Аудио #5
Идентификатор : 6
Формат : AC-3
Формат/Информация : Audio Coding 3
Коммерческое название : Dolby Digital
Идентификатор кодека : A_AC3
Продолжительность : 42 м. 17 с.
Вид битрейта : Постоянный
Битрейт : 192 Кбит/сек
Каналы : 2 канала
Channel layout : L R
Частота : 48,0 КГц
Частота кадров : 31,250 кадров/сек (1536 SPF)
Метод сжатия : С потерями
Размер потока : 58,1 Мбайт (2%)
Заголовок : MVO (Sci-Fi)
Язык : Russian
Service kind : Complete Main
Default : Нет
Forced : Нет

Аудио #6
Идентификатор : 7
Формат : AC-3
Формат/Информация : Audio Coding 3
Коммерческое название : Dolby Digital
Идентификатор кодека : A_AC3
Продолжительность : 42 м. 17 с.
Вид битрейта : Постоянный
Битрейт : 192 Кбит/сек
Каналы : 2 канала
Channel layout : L R
Частота : 48,0 КГц
Частота кадров : 31,250 кадров/сек (1536 SPF)
Метод сжатия : С потерями
Размер потока : 58,1 Мбайт (2%)
Заголовок : MVO (AMC)
Язык : Ukrainian
Service kind : Complete Main
Default : Нет
Forced : Нет

Аудио #7
Идентификатор : 8
Формат : AC-3
Формат/Информация : Audio Coding 3
Коммерческое название : Dolby Digital
Идентификатор кодека : A_AC3
Продолжительность : 47 м. 33 с.
Вид битрейта : Постоянный
Битрейт : 640 Кбит/сек
Каналы : 6 каналов
Channel layout : L R C LFE Ls Rs
Частота : 48,0 КГц
Частота кадров : 31,250 кадров/сек (1536 SPF)
Метод сжатия : С потерями
Размер потока : 218 Мбайт (9%)
Язык : English
Service kind : Complete Main
Default : Нет
Forced : Нет

Текст #1
Идентификатор : 9
Формат : UTF-8
Идентификатор кодека : S_TEXT/UTF8
Идентификатор кодека/Информация : UTF-8 Plain Text
Продолжительность : 41 м. 5 с.
Битрейт : 77 бит/сек
Частота кадров : 0,185 кадр/сек
Count of elements : 456
Размер потока : 23,3 Кбайт (0%)
Заголовок : Russian @ SRT
Язык : Russian
Default : Нет
Forced : Нет

Текст #2
Идентификатор : 10
Формат : UTF-8
Идентификатор кодека : S_TEXT/UTF8
Идентификатор кодека/Информация : UTF-8 Plain Text
Продолжительность : 41 м. 44 с.
Битрейт : 50 бит/сек
Частота кадров : 0,204 кадр/сек
Count of elements : 512
Размер потока : 15,6 Кбайт (0%)
Заголовок : English @ SRT SDH
Язык : English
Default : Нет
Forced : Нет

Меню
00:00:00.000 : en:Chapter 1
Загрузка...Cкриншот1 В пустыне смерти / Into the Badlands (2015) [1 сезон] BDRip 1080p [HEVC] 10 bit от OldGamerЗагрузка...Cкриншот2 В пустыне смерти / Into the Badlands (2015) [1 сезон] BDRip 1080p [HEVC] 10 bit от OldGamerЗагрузка...Cкриншот3 В пустыне смерти / Into the Badlands (2015) [1 сезон] BDRip 1080p [HEVC] 10 bit от OldGamerЗагрузка...Cкриншот4 В пустыне смерти / Into the Badlands (2015) [1 сезон] BDRip 1080p [HEVC] 10 bit от OldGamer
Сэмпл
2. В пустыне смерти / Into the Badlands (2017) [2 сезон] BDRip 1080p [HEVC] 10 bit от OldGamer
HEVC
10 bit
Обложка В пустыне смерти / Into the Badlands (2017) [2 сезон] BDRip 1080p [HEVC] 10 bit от OldGamer Год: 2017
Страна: США
Студия: AMC Studios, Double Feature Films, Millar Gough Ink
Жанр: Боевик, Драма, Приключения
Продолжительность: 07:10:55

Режиссер: Пако Кабесас, Тоа Фрейзер, Дэвид Добкин
В ролях: Дэниэл У, Орла Брэйди, Эмили Бичем, Арамис Найт, Элли Иоаннидес, Ник Фрост, Шерман Огастас, Сара Болгер, Оливер Старк, Мадлен Манток

Описание: Действия второго сезона сериала разворачиваются спустя шесть месяцев после событий финала первого сезона. Санни, ныне «Сборщик», оказывается шахтёром, который рабским трудом добывает уголь на шахтах Бордо, вдалеке от Пустыни смерти. В шахтах Санни завязывает дружбу с контрабандистом Бэджи и начинает планировать побег. В это же время Эм Кей проходит обучение под руководством Авы. Позже Эм Кей встречает Мастера, который обещает ему свободу, если мальчик научится управлять своими способностями и справится с обучением. В Пустыне смерти Райдер, который после смерти отца стал бароном, получил контроль над территориями Куинна, Якоби и Вдовы.


Исходник: Blu-Ray Remux 1080p
Видео: 1920x1080, 4299 Kbps
Аудио1: AC3, 6 ch, 640 Kbps - РусскийРусский, MVO (LostFilm)
Аудио2: AC3, 6 ch, 384 Kbps - РусскийРусский, MVO (NewStudio)
Аудио3: AC3, 2 ch, 192 Kbps - РусскийРусский, MVO (AMC)
Аудио4: AC3, 2 ch, 192 Kbps - РусскийРусский, MVO (Sci-Fi)
Аудио5: AC3, 6 ch, 640 Kbps - РусскийРусский, MVO (OmskBird)
Аудио6: AC3, 2 ch, 192 Kbps - УкраинскийУкраинский, MVO (AMC)
Аудио7: AC3, 6 ch, 640 Kbps - АнглийскийАнглийский
Субтитры: русские, английские (SDH)

Как за пару секунд удалить ненужные аудиодорожки и субтитры (Внимание! После удаления вы не сможете поддержать раздачу)

Лог (x265 info)
x265 [info]: frame I: 255, Avg QP:17.77 kb/s: 16227.76
x265 [info]: frame P: 11480, Avg QP:19.16 kb/s: 9332.55
x265 [info]: frame B: 47880, Avg QP:21.24 kb/s: 3027.03
x265 [info]: Weighted P-Frames: Y:5.4% UV:4.2%
x265 [info]: Weighted B-Frames: Y:6.2% UV:4.2%
x265 [info]: consecutive B-frames: 4.3% 4.1% 16.5% 19.7% 12.0% 24.8% 6.6% 5.7% 2.4% 1.5% 1.2% 0.7% 0.2% 0.1% 0.1% 0.2%
x265 [info]: encoded 59615 frames in 48272.17s (1.23 fps), 4297.75 kb/s, Avg QP:20.82
Медиаинфо
Общее
Уникальный идентификатор : 305695304452431919604540427588098014596 (0xE5FAC629797AEC7036DC7D35FEB73D84)
Полное имя : \\.\Into.the.Badlands.S02E07.Black.Heart.White.Mountain.mkv
Формат : Matroska
Версия формата : Version 4
Размер файла : 2,07 Гбайт
Продолжительность : 41 м. 26 с.
Общий поток : 7 153 Кбит/сек
Частота кадров : 23,976 кадра/сек
Название фильма : Into.the.Badlands.S02E07.Black.Heart.White.Mountain / Чёрное сердце, белая гора
Трек/Положение : 2
Кодирование произвёл : OldGamer
Тип содержимого : TV Show
Описание : После нападения аббатов Санни оказывается рядом с Вэйл и своим подросшим сыном. Всё, чего он искал, сбылось. По крайней мере, так ему кажется. В это время в реальном мире Эм-Кей и Бэджи пытаются спасти умирающего друга.
Дата выпуска : 2017-04-30
Дата записи : 2017-04-30
Программа кодирования : mkvmerge v82.0 ('I'm The President') 64-bit
Библиотека кодирования : libebml v1.4.5 + libmatroska v1.7.1 / xvid4psp5
Обложка : Yes
Attachments : cover.jpg
ACTOR : Stephen Lang, Daniel Wu, Emily Beecham, Oliver Stark, Nick Frost, Alexia Ioannides, Orla Brady, Sarah Bolger, Madeleine Mantock, Aramis Knight, Marton Csokas, Ella-Rae Smith, Lorraine Toussaint, Sherman Augustus, Lewis Tan, Babou Ceesay, Dean-Charles...
ARTIST : Stephen Lang, Daniel Wu, Emily Beecham, Oliver Stark, Nick Frost, Alexia Ioannides, Orla Brady, Sarah Bolger, Madeleine Mantock, Aramis Knight, Marton Csokas, Ella-Rae Smith, Lorraine Toussaint, Sherman Augustus, Lewis Tan, Babou Ceesay, Dean-Charles...
EPISODE.PART_NUM : 7
GENRE : Drama, Adventure, Action
LAW_RATING : TV-14
RATING : TV-14
SEASON.PART_NUM : 2
SUMMARY : После нападения аббатов Санни оказывается рядом с Вэйл и своим подросшим сыном. Всё, чего он искал, сбылось. По крайней мере, так ему кажется. В это время в реальном мире Эм-Кей и Бэджи пытаются спасти умирающего друга.
SYNOPSIS : После нападения аббатов Санни оказывается рядом с Вэйл и своим подросшим сыном. Всё, чего он искал, сбылось. По крайней мере, так ему кажется. В это время в реальном мире Эм-Кей и Бэджи пытаются спасти умирающего друга. Однако смерть подступает слишком быстро, и противоядие от нее можно найти только в монастыре.

Видео
Идентификатор : 1
Формат : HEVC
Формат/Информация : High Efficiency Video Coding
Профиль формата : Main 10@L4.1@High
Идентификатор кодека : V_MPEGH/ISO/HEVC
Продолжительность : 41 м. 26 с.
Битрейт : 4 299 Кбит/сек
Ширина : 1 920 пикселей
Высота : 1 080 пикселей
Соотношение сторон : 16:9
Режим частоты кадров : Постоянный
Частота кадров : 23,976 (24000/1001) кадра/сек
Цветовое пространство : YUV
Субдискретизация насыщенности : 4:2:0
Битовая глубина : 10 бит
Бит/(Пиксели*Кадры) : 0.086
Размер потока : 1,24 Гбайт (60%)
Заголовок : Into the Badlands S02E07 / Rip by OldGamer
Библиотека кодирования : x265 3.2.1+3-b4b2ecac21f6:[Windows][MSVC 1924][64 bit] 10bit
Настройки программы : cpuid=1111039 / frame-threads=4 / numa-pools=16 / wpp / no-pmode / no-pme / no-psnr / no-ssim / log-level=2 / input-csp=1 / input-res=1920x1080 / interlace=0 / total-frames=59615 / level-idc=41 / high-tier=1 / uhd-bd=0 / ref=5 / no-allow-non-conformance / no-repeat-headers / annexb / no-aud / no-hrd / info / hash=0 / no-temporal-layers / open-gop / min-keyint=23 / keyint=240 / gop-lookahead=0 / bframes=15 / b-adapt=2 / b-pyramid / bframe-bias=0 / rc-lookahead=80 / lookahead-slices=0 / scenecut=40 / radl=0 / no-splice / no-intra-refresh / ctu=64 / min-cu-size=8 / rect / amp / max-tu-size=32 / tu-inter-depth=4 / tu-intra-depth=4 / limit-tu=1 / rdoq-level=2 / dynamic-rd=0.00 / no-ssim-rd / signhide / no-tskip / nr-intra=0 / nr-inter=0 / no-constrained-intra / no-strong-intra-smoothing / max-merge=5 / limit-refs=3 / no-limit-modes / me=3 / subme=7 / merange=57 / temporal-mvp / no-hme / weightp / weightb / no-analyze-src-pics / deblock=-3:-3 / no-sao / no-sao-non-deblock / rd=6 / selective-sao=0 / no-early-skip / rskip / no-fast-intra / no-tskip-fast / no-cu-lossless / b-intra / no-splitrd-skip / rdpenalty=0 / psy-rd=2.00 / psy-rdoq=1.00 / no-rd-refine / no-lossless / cbqpoffs=0 / crqpoffs=0 / rc=crf / crf=20.8 / qcomp=0.72 / qpstep=4 / stats-write=0 / stats-read=0 / vbv-maxrate=50000 / vbv-bufsize=50000 / vbv-init=0.9 / crf-max=0.0 / crf-min=0.0 / ipratio=1.40 / pbratio=1.30 / aq-mode=4 / aq-strength=0.70 / no-cutree / zone-count=0 / no-strict-cbr / qg-size=32 / no-rc-grain / qpmax=69 / qpmin=0 / no-const-vbv / sar=1 / overscan=0 / videoformat=5 / range=0 / colorprim=2 / transfer=2 / colormatrix=2 / chromaloc=0 / display-window=0 / cll=0,0 / min-luma=0 / max-luma=1023 / log2-max-poc-lsb=8 / vui-timing-info / vui-hrd-info / slices=1 / no-opt-qp-pps / no-opt-ref-list-length-pps / no-multi-pass-opt-rps / scenecut-bias=0.00 / no-opt-cu-delta-qp / no-aq-motion / no-hdr / no-hdr-opt / no-dhdr10-opt / no-idr-recovery-sei / analysis-reuse-level=5 / scale-factor=0 / refine-intra=0 / refine-inter=0 / refine-mv=1 / refine-ctu-distortion=0 / no-limit-sao / ctu-info=0 / no-lowpass-dct / refine-analysis-type=0 / copy-pic=1 / max-ausize-factor=1.0 / no-dynamic-refine / no-single-sei / no-hevc-aq / no-svt / no-field / qp-adaptation-range=1.00
Язык : English
Default : Да
Forced : Нет

Аудио #1
Идентификатор : 2
Формат : AC-3
Формат/Информация : Audio Coding 3
Коммерческое название : Dolby Digital
Идентификатор кодека : A_AC3
Продолжительность : 40 м. 58 с.
Вид битрейта : Постоянный
Битрейт : 640 Кбит/сек
Каналы : 6 каналов
Channel layout : L R C LFE Ls Rs
Частота : 48,0 КГц
Частота кадров : 31,250 кадров/сек (1536 SPF)
Метод сжатия : С потерями
Задержка видео : 24 мс.
Размер потока : 188 Мбайт (9%)
Заголовок : MVO (LostFilm)
Язык : Russian
Service kind : Complete Main
Default : Да
Forced : Нет

Аудио #2
Идентификатор : 3
Формат : AC-3
Формат/Информация : Audio Coding 3
Коммерческое название : Dolby Digital
Идентификатор кодека : A_AC3
Продолжительность : 40 м. 59 с.
Вид битрейта : Постоянный
Битрейт : 384 Кбит/сек
Каналы : 6 каналов
Channel layout : L R C LFE Ls Rs
Частота : 48,0 КГц
Частота кадров : 31,250 кадров/сек (1536 SPF)
Метод сжатия : С потерями
Размер потока : 113 Мбайт (5%)
Заголовок : MVO (NewStudio)
Язык : Russian
Service kind : Complete Main
Default : Нет
Forced : Нет

Аудио #3
Идентификатор : 4
Формат : AC-3
Формат/Информация : Audio Coding 3
Коммерческое название : Dolby Digital
Идентификатор кодека : A_AC3
Продолжительность : 40 м. 58 с.
Вид битрейта : Постоянный
Битрейт : 192 Кбит/сек
Каналы : 2 канала
Channel layout : L R
Частота : 48,0 КГц
Частота кадров : 31,250 кадров/сек (1536 SPF)
Метод сжатия : С потерями
Размер потока : 56,3 Мбайт (3%)
Заголовок : MVO (AMC)
Язык : Russian
Service kind : Complete Main
Default : Нет
Forced : Нет

Аудио #4
Идентификатор : 5
Формат : AC-3
Формат/Информация : Audio Coding 3
Коммерческое название : Dolby Digital
Идентификатор кодека : A_AC3
Продолжительность : 41 м. 26 с.
Вид битрейта : Постоянный
Битрейт : 192 Кбит/сек
Каналы : 2 канала
Channel layout : L R
Частота : 48,0 КГц
Частота кадров : 31,250 кадров/сек (1536 SPF)
Метод сжатия : С потерями
Размер потока : 56,9 Мбайт (3%)
Заголовок : MVO (Sci-Fi)
Язык : Russian
Service kind : Complete Main
Default : Нет
Forced : Нет

Аудио #5
Идентификатор : 6
Формат : AC-3
Формат/Информация : Audio Coding 3
Коммерческое название : Dolby Digital
Идентификатор кодека : A_AC3
Продолжительность : 40 м. 58 с.
Вид битрейта : Постоянный
Битрейт : 640 Кбит/сек
Каналы : 6 каналов
Channel layout : L R C LFE Ls Rs
Частота : 48,0 КГц
Частота кадров : 31,250 кадров/сек (1536 SPF)
Метод сжатия : С потерями
Задержка видео : 24 мс.
Размер потока : 188 Мбайт (9%)
Заголовок : MVO (OmskBird)
Язык : Russian
Service kind : Complete Main
Default : Нет
Forced : Нет

Аудио #6
Идентификатор : 7
Формат : AC-3
Формат/Информация : Audio Coding 3
Коммерческое название : Dolby Digital
Идентификатор кодека : A_AC3
Продолжительность : 40 м. 58 с.
Вид битрейта : Постоянный
Битрейт : 192 Кбит/сек
Каналы : 2 канала
Channel layout : L R
Частота : 48,0 КГц
Частота кадров : 31,250 кадров/сек (1536 SPF)
Метод сжатия : С потерями
Размер потока : 56,3 Мбайт (3%)
Заголовок : MVO (AMC)
Язык : Ukrainian
Service kind : Complete Main
Default : Нет
Forced : Нет

Аудио #7
Идентификатор : 8
Формат : AC-3
Формат/Информация : Audio Coding 3
Коммерческое название : Dolby Digital
Идентификатор кодека : A_AC3
Продолжительность : 40 м. 58 с.
Вид битрейта : Постоянный
Битрейт : 640 Кбит/сек
Каналы : 6 каналов
Channel layout : L R C LFE Ls Rs
Частота : 48,0 КГц
Частота кадров : 31,250 кадров/сек (1536 SPF)
Метод сжатия : С потерями
Задержка видео : 24 мс.
Размер потока : 188 Мбайт (9%)
Язык : English
Service kind : Complete Main
Default : Нет
Forced : Нет

Текст #1
Идентификатор : 9
Формат : UTF-8
Идентификатор кодека : S_TEXT/UTF8
Идентификатор кодека/Информация : UTF-8 Plain Text
Продолжительность : 39 м. 8 с.
Битрейт : 67 бит/сек
Частота кадров : 0,198 кадр/сек
Count of elements : 465
Размер потока : 19,4 Кбайт (0%)
Заголовок : Russian @ SRT
Язык : Russian
Default : Нет
Forced : Нет

Текст #2
Идентификатор : 10
Формат : UTF-8
Идентификатор кодека : S_TEXT/UTF8
Идентификатор кодека/Информация : UTF-8 Plain Text
Продолжительность : 39 м. 7 с.
Битрейт : 47 бит/сек
Частота кадров : 0,206 кадр/сек
Count of elements : 483
Размер потока : 13,7 Кбайт (0%)
Заголовок : English @ SRT
Язык : English
Default : Нет
Forced : Нет

Текст #3
Идентификатор : 11
Формат : UTF-8
Идентификатор кодека : S_TEXT/UTF8
Идентификатор кодека/Информация : UTF-8 Plain Text
Продолжительность : 40 м. 23 с.
Битрейт : 51 бит/сек
Частота кадров : 0,231 кадр/сек
Count of elements : 561
Размер потока : 15,1 Кбайт (0%)
Заголовок : English @ SRT SDH
Язык : English
Default : Нет
Forced : Нет

Меню
00:00:00.000 : en:Chapter 1
Загрузка...Cкриншот1 В пустыне смерти / Into the Badlands (2017) [2 сезон] BDRip 1080p [HEVC] 10 bit от OldGamerЗагрузка...Cкриншот2 В пустыне смерти / Into the Badlands (2017) [2 сезон] BDRip 1080p [HEVC] 10 bit от OldGamerЗагрузка...Cкриншот3 В пустыне смерти / Into the Badlands (2017) [2 сезон] BDRip 1080p [HEVC] 10 bit от OldGamerЗагрузка...Cкриншот4 В пустыне смерти / Into the Badlands (2017) [2 сезон] BDRip 1080p [HEVC] 10 bit от OldGamer
Сэмпл
3. В пустыне смерти / Into the Badlands (2018-2019) [3 сезон] BDRip 1080p [HEVC] 10 bit от OldGamer
HEVC
10 bit
Обложка В пустыне смерти / Into the Badlands (2018-2019) [3 сезон] BDRip 1080p [HEVC] 10 bit от OldGamer Год: 2018-2019
Страна: США
Студия: AMC Studios, Double Feature Films, Millar Gough Ink
Жанр: Боевик, Драма, Приключения
Продолжительность: 11:26:52

Режиссер: Пако Кабесас, Тоа Фрейзер, Дэвид Добкин
В ролях: Дэниэл У, Орла Брэйди, Эмили Бичем, Арамис Найт, Элли Иоаннидес, Ник Фрост, Шерман Огастас, Сара Болгер, Оливер Старк, Мадлен Манток

Описание: Санни делает всё возможное, чтобы защитить своего маленького сына Генри после смерти Вейл. Когда у Санни начинается загадочная болезнь, Санни приходится объединиться с Бэджи и вернуться обратно в пустыню. Там не прекращается война между Вдовой и Бароном Чао, от которой страдают все. Вдова лишилась поддержки Тильды и Вальдо, и поэтому ищет новых союзников, например, в лице Лидии и Натаниэля Муна – бывшего регента, который мечтает отомстить Санни за отрубленную руку. Однако в пустыне появляется загадочный лидер кочевого племени Пилигрим, который намерен восстановить Азру и начать новую эру. Перед лицом общего врага прежние недруги вынуждены объединиться, чтобы отстоять свою пустыню смерти.


Исходник: Blu-Ray Remux 1080p (EPSiLON)
Видео: 1920x1080, 4496-8710 Kbps
Аудио1: AC3, 6 ch, 384 Kbps - РусскийРусский, MVO (TVShows)
Аудио2: AC3, 2 ch, 384 Kbps - РусскийРусский, MVO (LostFilm)
Аудио3: AC3, 2 ch, 192 Kbps - РусскийРусский, MVO (Sci-Fi)
Аудио4: AC3, 6 ch, 640 Kbps - АнглийскийАнглийский
Субтитры: русские (кроме 2-й серии), английские (SDH)

Как за пару секунд удалить ненужные аудиодорожки и субтитры (Внимание! После удаления вы не сможете поддержать раздачу)

Лог (x265 info)
x265 [info]: frame I: 267, Avg QP:18.24 kb/s: 19721.08
x265 [info]: frame P: 11993, Avg QP:19.66 kb/s: 13841.59
x265 [info]: frame B: 50164, Avg QP:21.75 kb/s: 4761.89
x265 [info]: Weighted P-Frames: Y:9.1% UV:7.2%
x265 [info]: Weighted B-Frames: Y:10.9% UV:7.9%
x265 [info]: consecutive B-frames: 4.0% 2.9% 18.8% 17.7% 8.2% 36.4% 3.2% 1.8% 2.4% 0.7% 1.3% 1.7% 0.3% 0.2% 0.1% 0.3%
x265 [info]: encoded 62424 frames in 51904.70s (1.20 fps), 6570.28 kb/s, Avg QP:21.33
Медиаинфо
Общее
Уникальный идентификатор : 189542397423427678649187293622955435344 (0x8E9889B358E8525AE466A54DE4386550)
Полное имя : \\.\Into.the.Badlands.S03E13.Black.Lotus.White.Rose.mkv
Формат : Matroska
Версия формата : Version 4
Размер файла : 2,48 Гбайт
Продолжительность : 43 м. 37 с.
Общий поток : 8 134 Кбит/сек
Частота кадров : 23,976 кадра/сек
Название фильма : Into.the.Badlands.S03E13.Black.Lotus.White.Rose / Черный лотос, белая роза
Трек/Положение : 3
Трек/Всего : 16
Кодирование произвёл : OldGamer
Тип содержимого : TV Show
Описание : Санни ждет неожиданное открытие. Оказывается, что человек из его прошлого, который очень много для него значит, теперь работает вместе с Черным Лотосом – новым врагом наших героев.
Дата выпуска : 2019-04-15
Дата записи : 2019-04-15
Программа кодирования : mkvmerge v82.0 ('I'm The President') 64-bit
Библиотека кодирования : libebml v1.4.5 + libmatroska v1.7.1 / xvid4psp5
Обложка : Yes
Attachments : cover.jpg
ACTOR : Daniel Wu, Emily Beecham, Nick Frost, Orla Brady, Alexia Ioannides, Aramis Knight, Maddison Jaizani
ARTIST : Daniel Wu, Emily Beecham, Nick Frost, Orla Brady, Alexia Ioannides, Aramis Knight, Maddison Jaizani
EPISODE.PART_NUM : 13
GENRE : Боевик и Приключения, драма
LAW_RATING : TV-14
RATING : TV-14
SEASON.PART_NUM : 3
SUMMARY : Санни ждет неожиданное открытие. Оказывается, что человек из его прошлого, который очень много для него значит, теперь работает вместе с Черным Лотосом – новым врагом наших героев.
SYNOPSIS : Санни ждет неожиданное открытие. Оказывается, что человек из его прошлого, который очень много для него значит, теперь работает вместе с Черным Лотосом – новым врагом наших героев. Однако, события идут своим чередом: Вдова, Гай Чао и Тильда готовятся положить конец кровопролитной войне.
TMDB : tv/47450
TVDB : 289079

Видео
Идентификатор : 1
Формат : HEVC
Формат/Информация : High Efficiency Video Coding
Профиль формата : Main 10@L4@Main
Идентификатор кодека : V_MPEGH/ISO/HEVC
Продолжительность : 43 м. 23 с.
Битрейт : 6 571 Кбит/сек
Ширина : 1 920 пикселей
Высота : 1 080 пикселей
Соотношение сторон : 16:9
Режим частоты кадров : Постоянный
Частота кадров : 23,976 (24000/1001) кадра/сек
Цветовое пространство : YUV
Субдискретизация насыщенности : 4:2:0
Битовая глубина : 10 бит
Бит/(Пиксели*Кадры) : 0.132
Размер потока : 1,99 Гбайт (80%)
Заголовок : Into the Badlands S03E13 / Rip by OldGamer
Библиотека кодирования : x265 3.3+2-gd9a7411cc:[Windows][MSVC 1925][64 bit] 10bit
Настройки программы : cpuid=1111039 / frame-threads=3 / numa-pools=8 / wpp / no-pmode / no-pme / no-psnr / no-ssim / log-level=2 / input-csp=1 / input-res=1920x1080 / interlace=0 / total-frames=62424 / level-idc=0 / high-tier=1 / uhd-bd=0 / ref=5 / no-allow-non-conformance / no-repeat-headers / annexb / no-aud / no-hrd / info / hash=0 / no-temporal-layers / open-gop / min-keyint=23 / keyint=240 / gop-lookahead=0 / bframes=15 / b-adapt=2 / b-pyramid / bframe-bias=0 / rc-lookahead=60 / lookahead-slices=0 / scenecut=40 / hist-scenecut=0 / radl=0 / no-splice / no-intra-refresh / ctu=64 / min-cu-size=8 / rect / amp / max-tu-size=32 / tu-inter-depth=4 / tu-intra-depth=4 / limit-tu=1 / rdoq-level=2 / dynamic-rd=0.00 / no-ssim-rd / signhide / no-tskip / nr-intra=0 / nr-inter=0 / no-constrained-intra / no-strong-intra-smoothing / max-merge=5 / limit-refs=3 / no-limit-modes / me=3 / subme=7 / merange=57 / temporal-mvp / no-frame-dup / no-hme / weightp / weightb / no-analyze-src-pics / deblock=-3:-3 / no-sao / no-sao-non-deblock / rd=6 / selective-sao=0 / no-early-skip / rskip / no-fast-intra / no-tskip-fast / no-cu-lossless / b-intra / no-splitrd-skip / rdpenalty=0 / psy-rd=2.00 / psy-rdoq=1.00 / no-rd-refine / no-lossless / cbqpoffs=0 / crqpoffs=0 / rc=crf / crf=20.5 / qcomp=0.74 / qpstep=4 / stats-write=0 / stats-read=0 / ipratio=1.40 / pbratio=1.30 / aq-mode=4 / aq-strength=0.70 / no-cutree / zone-count=1 / zones: / start-frame=61468 / end-frame=62335 / qp=36 / no-strict-cbr / qg-size=32 / no-rc-grain / qpmax=69 / qpmin=0 / no-const-vbv / sar=1 / overscan=0 / videoformat=5 / range=0 / colorprim=2 / transfer=2 / colormatrix=2 / chromaloc=0 / display-window=0 / cll=0,0 / min-luma=0 / max-luma=1023 / log2-max-poc-lsb=8 / vui-timing-info / vui-hrd-info / slices=1 / no-opt-qp-pps / no-opt-ref-list-length-pps / no-multi-pass-opt-rps / scenecut-bias=0.00 / hist-threshold=0.01 / no-opt-cu-delta-qp / no-aq-motion / no-hdr10 / no-hdr10-opt / no-dhdr10-opt / no-idr-recovery-sei / analysis-reuse-level=0 / analysis-save-reuse-level=0 / analysis-load-reuse-level=0 / scale-factor=0 / refine-intra=0 / refine-inter=0 / refine-mv=1 / refine-ctu-distortion=0 / no-limit-sao / ctu-info=0 / no-lowpass-dct / refine-analysis-type=0 / copy-pic=1 / max-ausize-factor=1.0 / no-dynamic-refine / no-single-sei / no-hevc-aq / no-svt / no-field / qp-adaptation-range=1.00 / no-scenecut-aware-qpconformance-window-offsets / right=0 / bottom=0
Язык : English
Default : Да
Forced : Нет

Аудио #1
Идентификатор : 2
Формат : AC-3
Формат/Информация : Audio Coding 3
Коммерческое название : Dolby Digital
Идентификатор кодека : A_AC3
Продолжительность : 43 м. 37 с.
Вид битрейта : Постоянный
Битрейт : 384 Кбит/сек
Каналы : 6 каналов
Channel layout : L R C LFE Ls Rs
Частота : 48,0 КГц
Частота кадров : 31,250 кадров/сек (1536 SPF)
Метод сжатия : С потерями
Размер потока : 120 Мбайт (5%)
Заголовок : MVO (TVShows)
Язык : Russian
Service kind : Complete Main
Default : Да
Forced : Нет

Аудио #2
Идентификатор : 3
Формат : AC-3
Формат/Информация : Audio Coding 3
Коммерческое название : Dolby Digital
Идентификатор кодека : A_AC3
Продолжительность : 43 м. 26 с.
Вид битрейта : Постоянный
Битрейт : 384 Кбит/сек
Каналы : 2 канала
Channel layout : L R
Частота : 48,0 КГц
Частота кадров : 31,250 кадров/сек (1536 SPF)
Метод сжатия : С потерями
Размер потока : 119 Мбайт (5%)
Заголовок : MVO (LostFilm)
Язык : Russian
Service kind : Complete Main
Default : Нет
Forced : Нет

Аудио #3
Идентификатор : 4
Формат : AC-3
Формат/Информация : Audio Coding 3
Коммерческое название : Dolby Digital
Идентификатор кодека : A_AC3
Продолжительность : 43 м. 26 с.
Вид битрейта : Постоянный
Битрейт : 192 Кбит/сек
Каналы : 2 канала
Channel layout : L R
Частота : 48,0 КГц
Частота кадров : 31,250 кадров/сек (1536 SPF)
Метод сжатия : С потерями
Размер потока : 59,6 Мбайт (2%)
Заголовок : MVO (Sci-Fi)
Язык : Russian
Service kind : Complete Main
Default : Нет
Forced : Нет

Аудио #4
Идентификатор : 5
Формат : AC-3
Формат/Информация : Audio Coding 3
Коммерческое название : Dolby Digital
Идентификатор кодека : A_AC3
Продолжительность : 43 м. 23 с.
Вид битрейта : Постоянный
Битрейт : 640 Кбит/сек
Каналы : 6 каналов
Channel layout : L R C LFE Ls Rs
Частота : 48,0 КГц
Частота кадров : 31,250 кадров/сек (1536 SPF)
Метод сжатия : С потерями
Размер потока : 199 Мбайт (8%)
Язык : English
Service kind : Complete Main
Default : Нет
Forced : Нет

Текст #1
Идентификатор : 6
Формат : UTF-8
Идентификатор кодека : S_TEXT/UTF8
Идентификатор кодека/Информация : UTF-8 Plain Text
Продолжительность : 42 м. 6 с.
Битрейт : 70 бит/сек
Частота кадров : 0,160 кадр/сек
Count of elements : 405
Размер потока : 21,8 Кбайт (0%)
Заголовок : Russian @ SRT
Язык : Russian
Default : Нет
Forced : Нет

Текст #2
Идентификатор : 7
Формат : UTF-8
Идентификатор кодека : S_TEXT/UTF8
Идентификатор кодека/Информация : UTF-8 Plain Text
Продолжительность : 42 м. 44 с.
Битрейт : 50 бит/сек
Частота кадров : 0,216 кадр/сек
Count of elements : 554
Размер потока : 15,8 Кбайт (0%)
Заголовок : English @ SRT SDH
Язык : English
Default : Нет
Forced : Нет

Меню
00:00:00.000 : en:Chapter 1
00:01:34.761 : en:Chapter 2
00:02:10.630 : en:Chapter 3
00:10:13.112 : en:Chapter 4
00:20:49.081 : en:Chapter 5
00:28:39.384 : en:Chapter 6
00:33:49.361 : en:Chapter 7
00:42:46.898 : en:Chapter 8
Загрузка...Cкриншот1 В пустыне смерти / Into the Badlands (2018-2019) [3 сезон] BDRip 1080p [HEVC] 10 bit от OldGamerЗагрузка...Cкриншот2 В пустыне смерти / Into the Badlands (2018-2019) [3 сезон] BDRip 1080p [HEVC] 10 bit от OldGamerЗагрузка...Cкриншот3 В пустыне смерти / Into the Badlands (2018-2019) [3 сезон] BDRip 1080p [HEVC] 10 bit от OldGamerЗагрузка...Cкриншот4 В пустыне смерти / Into the Badlands (2018-2019) [3 сезон] BDRip 1080p [HEVC] 10 bit от OldGamer
Сэмпл
Релиз-группа: RIPS CLUB
Торрент🧲 Магнет

Рейтинги КП и IMDB, кнопки "Позвать в чате" и "Спасибо", а также мультитрекерная статистика доступны только зарегистрированным/авторизованным пользователям!

Файлы: 32
  • Into The Badlands
    • Into.The.Badlands.S01.BDRip-HEVC.1080p
      • Into.the.Badlands.S01E01.The.Fort.mkv   3.42 ГБ
      • Into.the.Badlands.S01E02.Fist.Like.a.Bullet.mkv   2.3 ГБ
      • Into.the.Badlands.S01E03.White.Stork.Spreads.Wings.mkv   2.22 ГБ
      • Into.the.Badlands.S01E04.Two.Tigers.Subdue.Dragons.mkv   2.47 ГБ
      • Into.the.Badlands.S01E05.Snake.Creeps.Down.mkv   2.83 ГБ
      • Into.the.Badlands.S01E06.Hand.of.Five.Poisons.mkv   2.36 ГБ
    • Into.The.Badlands.S02.BDRip-HEVC.1080p
      • Into.the.Badlands.S02E01.Tiger.Pushes.Mountain.mkv   1.82 ГБ
      • Into.the.Badlands.S02E02.Force.of.Eagle's.Claw.mkv   2.5 ГБ
      • Into.the.Badlands.S02E03.Red.Sun.Silver.Moon.mkv   1.68 ГБ
      • Into.the.Badlands.S02E04.Palm.of.the.Iron.Fox.mkv   1.9 ГБ
      • Into.the.Badlands.S02E05.Monkey.Leaps.Through.Mist.mkv   1.94 ГБ
      • Into.the.Badlands.S02E06.Leopard.Stalks.in.Snow.mkv   1.87 ГБ
      • Into.the.Badlands.S02E07.Black.Heart.White.Mountain.mkv   2.07 ГБ
      • Into.the.Badlands.S02E08.Sting.of.the.Scorpion's.Tail.mkv   1.78 ГБ
      • Into.the.Badlands.S02E09.Nightingale.Sings.No.More.mkv   1.66 ГБ
      • Into.the.Badlands.S02E10.Wolf's.Breath.Dragon.Fire.mkv   1.93 ГБ
    • Into.The.Badlands.S03.BDRip-HEVC.1080p
      • Into.the.Badlands.S03E01.Enter.the.Phoenix.mkv   1.88 ГБ
      • Into.the.Badlands.S03E02.Moon.Rises.Raven.Seeks.mkv   1.87 ГБ
      • Into.the.Badlands.S03E03.Leopard.Snares.Rabbit.mkv   2.09 ГБ
      • Into.the.Badlands.S03E04.Blind.Cannibal.Assassins.mkv   2.57 ГБ
      • Into.the.Badlands.S03E05.Carry.Tiger.to.Mountain.mkv   1.86 ГБ
      • Into.the.Badlands.S03E06.Black.Wind.Howls.mkv   2.45 ГБ
      • Into.the.Badlands.S03E07.Dragonflys.Last.Dance.mkv   2.05 ГБ
      • Into.the.Badlands.S03E08.Leopard.Catches.Cloud.mkv   3.16 ГБ
      • Into.the.Badlands.S03E09.Chamber.of.the.Scorpion.mkv   2.73 ГБ
      • Into.the.Badlands.S03E10.Ravens.Feather.Phoenix.Blood.mkv   3.14 ГБ
      • Into.the.Badlands.S03E11.The.Boar.and.the.Butterfly.mkv   3.02 ГБ
      • Into.the.Badlands.S03E12.Cobra.Fang.Panther.Claw.mkv   3.06 ГБ
      • Into.the.Badlands.S03E13.Black.Lotus.White.Rose.mkv   2.48 ГБ
      • Into.the.Badlands.S03E14.Curse.of.the.Red.Rain.mkv   2.2 ГБ
      • Into.the.Badlands.S03E15.Requiem.for.the.Fallen.mkv   2.67 ГБ
      • Into.the.Badlands.S03E16.Seven.Strike.as.One.mkv   2.63 ГБ
Поблагодарили: 3
aquarius, vungtay, Winsent
OldGamer
160164 (32)  74.62 ГБ

Добавление нового комментария

Добавление комментариев доступно только зарегистрированным/авторизованным пользователям.
Аватар OldGamer
  OldGamer  
Видеоряд у всех сезонов без изменений. Во всех сезонах добавлены субтитры и перевод Sci-Fi. Также: в первом сезоне NewStudio теперь без рекламы, добавлен украинский перевод и оригинальная дорожка; во втором сезоне добавлены переводы AMC, OmskBird и украинский перевод.