Чат

⚫︎
Список изменений сайта - https://rips.club/changelog.html (обновлен 24.05.2024)
  • arwis
  • Slava307
Онлайн (за 10 мин.): 2
  • Tastod: Раздайте, пожалуйста, Загадочная история Бенджамина Баттона / The Curious Case of Benjamin Button (2008) BDRip 1080p [HEVC] 10 bit от Spartanec1308
  • Гл. Админ: Исправил баг, когда после анонса коллекции все анонсы показывались в спойлере, даже если не являлись коллекцией.
  • Гл. Админ: Исправил баг, когда в ЛС не возможно было удалить сообщение.
  • bronsonw200: Гл. Админ, Как по мне, так смотрится приятнее.
  • Гл. Админ: В светлой теме задний фон сделал чуть потемнее, чтобы было не слишком ярко. В темной теме поисковую строку сделал черной (как в светлой теме), чтобы выделялась. Убрал рамки вокруг элементов форм. Прокрутку страницы в начало сделал плавной. ( отредактировано: )
  • Гл. Админ: В ближайшие дни по вечерам начну подправлять дизайн.
  • Гл. Админ: Готово.
  • Гл. Админ: Управление релизами закончил, но не буду выкладывать на ночь глядя. Утром протестирую на локальном компе, и днем выложу.
  • Гл. Админ: Фон баннера релиз-группы сделал прозрачным и перезалил на внешнем хостинге.
  • OldGamer: было бы неплохо
  • Гл. Админ: Управление релизами наверно сегодня закончу.
  • HANNIBAL: Сообщение удалено (удалил: HANNIBAL)
  • HANNIBAL: Гл. Админ, не привычно
  • Гл. Админ: HANNIBAL, хорошего или плохого?
  • HANNIBAL: эт чей-то вы тут натворили с сайтом ;)
  • Гл. Админ: ExoticDeer, просто в будущем будет несколько новостных строчек и они будут автоматически переключаться по кругу, поэтому не хочется статичную. Могу ещё уменьшить частоту, если всё равно будет отвлекать. ( отредактировано: )
  • Гл. Админ: ExoticDeer, уменьшил частоту мигания с 5 сек. до 10 сек.
  • ExoticDeer: Гл. Админ, про мигание, скорее отвлекает, особенно на тёмной теме. статичная хорошо смотрелась
  • Гл. Админ: Winsent, Исправил. Теперь, при просмотре комментариев конкретного пользователя, эта галочка не играет роли. Спасибо, что сообщили.
  • Гл. Админ: Winsent, сначала не поверил своим глазам. Это было оооочень странно. Но кажется теперь понял в чем проблема. Ошибка появляется, если в настройках не установлена галочка "Получать уведомления о всех комментариях". Причем у разных пользователей проявляется по разному - у кого-то ничего не показывается, а у кого-то показывается часть комментариев. Поэтому мне долго не удавалось воспроизвести ошибку. Сейчас исправлю.
Отправка сообщений доступна только зарегистрированным/авторизованным пользователям.

🎥︎Детсадовский полицейский / Kindergarten Cop (1990) [Remastered | Kino Lorber] BDRip 1080p [HEVC] 10 bit от OldGamer (RG RIPS CLUB)


Обложка Детсадовский полицейский / Kindergarten Cop (1990) [Remastered | Kino Lorber] BDRip 1080p [HEVC] 10 bit от OldGamer (RG RIPS CLUB)
HEVC
10 bit
✂︎Сэмпл⤓︎Торрент🧲︎Магнет$Пожертвования

При перезаливке на другие сайты просьба указать автора и релиз-группу.


Год: 1990
Страна: США
Студия: Imagine Entertainment, Northern Lights Entertainment
Жанр: Боевик, Комедия, Криминал
Длительность: 01:51:31

Режиссер: Айвен Райтман
В ролях: Арнольд Шварценеггер, Пенелопа Энн Миллер, Памела Рид, Линда Хант, Ричард Тайсон, Кэррол Бейкер, Джозеф Казинс, Кристиан Казинс, Кэти Мориарти, Парк Овералл

Описание: Детектив Джон Кимбл, ветеран «грязных улиц» Лос-Анджелеса, готов справиться с кем угодно. Но для того чтобы заманить в ловушку хитрого преступника, ему приходится устроиться воспитателем в детский сад. И вот когда он завоёвывает уважение малышей и любовь прекрасной учительницы, ему предстоит схватка с преступником.


Релиз-группа: RIPS CLUB
Исходник: Blu-Ray Remux 1080p (rutracker)
Видео: 1920x1040, 16.9 Mbps
Аудио1: AC3, 2 ch, 192 Kbps - РусскийРусский, DUB (SDI Media)
Аудио2: AC3, 2 ch, 640 Kbps - РусскийРусский, MVO (Карусель)
Аудио3: AC3, 2 ch, 224 Kbps - РусскийРусский, MVO (Universal / ОРТ / 1 Канал)
Аудио4: AC3, 2 ch, 192 Kbps - РусскийРусский, MVO (НТВ / СТС)
Аудио5: AC3, 2 ch, 192 Kbps - РусскийРусский, MVO (Россия / ТНТ)
Аудио6: AC3, 2 ch, 224 Kbps - РусскийРусский, DVO (Премьер Видео Фильм)
Аудио7: AC3, 2 ch, 640 Kbps - РусскийРусский, AVO (Алексей Михалёв)
Аудио8: AC3, 2 ch, 640 Kbps - РусскийРусский, AVO (Вартан Дохалов)
Аудио9: AC3, 2 ch, 192 Kbps - РусскийРусский, AVO (Павел Прямостанов)
Аудио10: AC3, 2 ch, 192 Kbps - РусскийРусский, AVO (Виталий Мельников / "Дохаловоподобный")
Аудио11: AC3, 2 ch, 640 Kbps - РусскийРусский, VO (Неизвестный)
Аудио12: AC3, 2 ch, 256 Kbps - РусскийРусский, VO (Евгений Солодухин)
Аудио13: AC3, 2 ch, 192 Kbps - УкраинскийУкраинский, MVO (НЛО TV / ТРК Украина)
Аудио14: AC3, 2 ch, 192 Kbps - УкраинскийУкраинский, MVO (Новый канал / ICTV)
Аудио15: AC3, 2 ch, 192 Kbps - УкраинскийУкраинский, DVO (1+1)
Аудио16: AC3, 6 ch, 640 Kbps - АнглийскийАнглийский, Original Surround Upmix
Аудио17: AC3, 2 ch, 640 Kbps - АнглийскийАнглийский, Original (Universal Home Video LaserDisc)
Субтитры: русские, украинские, английские (SDH)

Как за несколько секунд удалить ненужные аудиодорожки и субтитры (Внимание! После удаления вы не сможете поддержать раздачу)


Лог (x265 info)x265 [info]: frame I: 672, Avg QP:18.33 kb/s: 34943.69
x265 [info]: frame P: 28915, Avg QP:19.51 kb/s: 25367.54
x265 [info]: frame B: 130845, Avg QP:21.54 kb/s: 14908.41
x265 [info]: Weighted P-Frames: Y:6.2% UV:4.6%
x265 [info]: Weighted B-Frames: Y:6.0% UV:3.9%
x265 [info]: encoded 160432 frames in 187254.12s (0.86 fps), 16877.41 kb/s, Avg QP:21.16
МедиаинфоОбщее
Уникальный идентификатор : 275199243270300362824617922936648910523 (0xCF09724298F8BBB180D5F8B8C5A646BB)
Полное имя : \\.\Детсадовский.полицейский.Kindergarten.Cop.1990.Remastered.BDRip-HEVC.1080p.mkv
Формат : Matroska
Версия формата : Version 4
Размер файла : 17,9 Гбайт
Продолжительность : 1 ч. 51 м.
Общий поток : 23,0 Мбит/сек
Частота кадров : 23,976 кадра/сек
Название фильма : Детсадовский полицейский / Детсадовский полицейский
Кодирование произвёл : OldGamer
Тип содержимого : Movie
Дата выпуска : 1990-12-21
Дата записи : 1990-12-21
Программа кодирования : mkvmerge v82.0 ('I'm The President') 64-bit
Библиотека кодирования : libebml v1.4.5 + libmatroska v1.7.1 / xvid4psp5
Обложка : Yes
Attachments : cover.jpg / Kindergarten.Cop.1990.Afisha.jpg
ACTOR : Arnold Schwarzenegger, Penelope Ann Miller, Pamela Reed, Linda Hunt, Richard Tyson, Carroll Baker, Joseph Cousins, Christian Cousins, Cathy Moriarty, Park Overall, Jayne Brook, Richard Portnow, Tom Kurlander, Alix Koromzay, Betty Lou Henson, Heidi Sw...
ARTIST : Arnold Schwarzenegger, Penelope Ann Miller, Pamela Reed, Linda Hunt, Richard Tyson, Carroll Baker, Joseph Cousins, Christian Cousins, Cathy Moriarty, Park Overall, Jayne Brook, Richard Portnow, Tom Kurlander, Alix Koromzay, Betty Lou Henson, Heidi Sw...
DIRECTOR : Ivan Reitman
GENRE : комедия
LAW_RATING : PG-13
PRODUCER : Brian Grazer, Ivan Reitman
PRODUCTION_STUDIO : Imagine Entertainment
RATING : PG-13
SCREENPLAY_BY : Murray Salem, Herschel Weingrod, Timothy Harris
SYNOPSIS : Детектив Джон Кимбл, ветеран «грязных улиц» Лос-Анджелеса, готов справиться с кем угодно. Но для того чтобы заманить в ловушку хитрого преступника, ему приходится устроиться воспитателем в детский сад.И вот когда он завоевывает уважение малышей и любовь прекрасной учительницы, ему предстоит схватка с преступником.
WRITTEN_BY : Murray Salem, Herschel Weingrod, Timothy Harris

Видео
Идентификатор : 1
Формат : HEVC
Формат/Информация : High Efficiency Video Coding
Профиль формата : Main 10@L4.1@High
Идентификатор кодека : V_MPEGH/ISO/HEVC
Продолжительность : 1 ч. 51 м.
Битрейт : 16,9 Мбит/сек
Ширина : 1 920 пикселей
Высота : 1 040 пикселей
Соотношение сторон : 1,85:1
Режим частоты кадров : Постоянный
Частота кадров : 23,976 (24000/1001) кадра/сек
Цветовое пространство : YUV
Субдискретизация насыщенности : 4:2:0
Битовая глубина : 10 бит
Бит/(Пиксели*Кадры) : 0.353
Размер потока : 13,1 Гбайт (74%)
Заголовок : Kindergarten Cop / Rip by OldGamer
Библиотека кодирования : x265 3.5+110-8ee01d45b:[Windows][GCC 13.2.0][64 bit] 10bit
Настройки программы : cpuid=1111039 / frame-threads=3 / numa-pools=8 / wpp / no-pmode / no-pme / no-psnr / no-ssim / log-level=2 / input-csp=1 / input-res=1920x1040 / interlace=0 / total-frames=160432 / level-idc=41 / high-tier=1 / uhd-bd=0 / ref=5 / no-allow-non-conformance / no-repeat-headers / annexb / no-aud / no-eob / no-eos / no-hrd / info / hash=0 / temporal-layers=0 / open-gop / min-keyint=23 / keyint=240 / gop-lookahead=0 / bframes=16 / b-adapt=2 / b-pyramid / bframe-bias=0 / rc-lookahead=60 / lookahead-slices=0 / scenecut=40 / no-hist-scenecut / radl=0 / no-splice / no-intra-refresh / ctu=32 / min-cu-size=8 / rect / amp / max-tu-size=32 / tu-inter-depth=4 / tu-intra-depth=4 / limit-tu=1 / rdoq-level=2 / dynamic-rd=0.00 / no-ssim-rd / signhide / no-tskip / nr-intra=0 / nr-inter=0 / no-constrained-intra / no-strong-intra-smoothing / max-merge=5 / limit-refs=3 / no-limit-modes / me=3 / subme=7 / merange=57 / temporal-mvp / no-frame-dup / no-hme / weightp / weightb / no-analyze-src-pics / deblock=-2:-2 / no-sao / no-sao-non-deblock / rd=6 / selective-sao=0 / no-early-skip / no-rskip / no-fast-intra / no-tskip-fast / no-cu-lossless / b-intra / no-splitrd-skip / rdpenalty=0 / psy-rd=2.00 / psy-rdoq=1.00 / no-rd-refine / no-lossless / cbqpoffs=0 / crqpoffs=0 / rc=crf / crf=19.0 / qcomp=0.60 / qpstep=4 / stats-write=0 / stats-read=0 / vbv-maxrate=50000 / vbv-bufsize=50000 / vbv-init=0.9 / min-vbv-fullness=50.0 / max-vbv-fullness=80.0 / crf-max=0.0 / crf-min=0.0 / ipratio=1.40 / pbratio=1.30 / aq-mode=1 / aq-strength=1.00 / no-cutree / zone-count=1 / zones: / start-frame=153579 / end-frame=160432 / qp=36 / no-strict-cbr / qg-size=32 / no-rc-grain / qpmax=69 / qpmin=0 / no-const-vbv / sar=1 / overscan=0 / videoformat=5 / range=0 / colorprim=2 / transfer=2 / colormatrix=2 / chromaloc=0 / display-window=0 / cll=0,0 / min-luma=0 / max-luma=1023 / log2-max-poc-lsb=8 / vui-timing-info / vui-hrd-info / slices=1 / no-opt-qp-pps / no-opt-ref-list-length-pps / no-multi-pass-opt-rps / scenecut-bias=0.00 / no-opt-cu-delta-qp / no-aq-motion / no-hdr10 / no-hdr10-opt / no-dhdr10-opt / no-idr-recovery-sei / analysis-reuse-level=0 / analysis-save-reuse-level=0 / analysis-load-reuse-level=0 / scale-factor=0 / refine-intra=0 / refine-inter=0 / refine-mv=1 / refine-ctu-distortion=0 / no-limit-sao / ctu-info=0 / no-lowpass-dct / refine-analysis-type=0 / copy-pic=1 / max-ausize-factor=1.0 / no-dynamic-refine / no-single-sei / no-hevc-aq / no-svt / no-field / qp-adaptation-range=1.00 / scenecut-aware-qp=0conformance-window-offsets / right=0 / bottom=0 / decoder-max-rate=0 / no-vbv-live-multi-pass / no-mcstf / no-sbrc
Язык : English
Default : Да
Forced : Нет

Аудио #1
Идентификатор : 2
Формат : AC-3
Формат/Информация : Audio Coding 3
Коммерческое название : Dolby Digital
Идентификатор кодека : A_AC3
Продолжительность : 1 ч. 50 м.
Вид битрейта : Постоянный
Битрейт : 192 Кбит/сек
Каналы : 2 канала
Channel layout : L R
Частота : 48,0 КГц
Частота кадров : 31,250 кадров/сек (1536 SPF)
Метод сжатия : С потерями
Размер потока : 152 Мбайт (1%)
Заголовок : DUD (SDI Media)
Язык : Russian
Service kind : Complete Main
Default : Да
Forced : Нет

Аудио #2
Идентификатор : 3
Формат : AC-3
Формат/Информация : Audio Coding 3
Коммерческое название : Dolby Digital
Идентификатор кодека : A_AC3
Продолжительность : 1 ч. 50 м.
Вид битрейта : Постоянный
Битрейт : 640 Кбит/сек
Каналы : 2 канала
Channel layout : L R
Частота : 48,0 КГц
Частота кадров : 31,250 кадров/сек (1536 SPF)
Метод сжатия : С потерями
Размер потока : 508 Мбайт (3%)
Заголовок : MVO (Карусель)
Язык : Russian
Service kind : Complete Main
Default : Нет
Forced : Нет

Аудио #3
Идентификатор : 4
Формат : AC-3
Формат/Информация : Audio Coding 3
Коммерческое название : Dolby Digital
Идентификатор кодека : A_AC3
Продолжительность : 1 ч. 50 м.
Вид битрейта : Постоянный
Битрейт : 224 Кбит/сек
Каналы : 2 канала
Channel layout : L R
Частота : 48,0 КГц
Частота кадров : 31,250 кадров/сек (1536 SPF)
Метод сжатия : С потерями
Размер потока : 178 Мбайт (1%)
Заголовок : MVO (Universal / ОРТ / 1 Канал)
Язык : Russian
Service kind : Complete Main
Default : Нет
Forced : Нет

Аудио #4
Идентификатор : 5
Формат : AC-3
Формат/Информация : Audio Coding 3
Коммерческое название : Dolby Digital
Идентификатор кодека : A_AC3
Продолжительность : 1 ч. 50 м.
Вид битрейта : Постоянный
Битрейт : 192 Кбит/сек
Каналы : 2 канала
Channel layout : L R
Частота : 48,0 КГц
Частота кадров : 31,250 кадров/сек (1536 SPF)
Метод сжатия : С потерями
Размер потока : 152 Мбайт (1%)
Заголовок : MVO (НТВ / СТС)
Язык : Russian
Service kind : Complete Main
Default : Нет
Forced : Нет

Аудио #5
Идентификатор : 6
Формат : AC-3
Формат/Информация : Audio Coding 3
Коммерческое название : Dolby Digital
Идентификатор кодека : A_AC3
Продолжительность : 1 ч. 50 м.
Вид битрейта : Постоянный
Битрейт : 192 Кбит/сек
Каналы : 2 канала
Channel layout : L R
Частота : 48,0 КГц
Частота кадров : 31,250 кадров/сек (1536 SPF)
Метод сжатия : С потерями
Размер потока : 152 Мбайт (1%)
Заголовок : MVO (Россия / ТНТ)
Язык : Russian
Service kind : Complete Main
Default : Нет
Forced : Нет

Аудио #6
Идентификатор : 7
Формат : AC-3
Формат/Информация : Audio Coding 3
Коммерческое название : Dolby Digital
Идентификатор кодека : A_AC3
Продолжительность : 1 ч. 50 м.
Вид битрейта : Постоянный
Битрейт : 224 Кбит/сек
Каналы : 2 канала
Channel layout : L R
Частота : 48,0 КГц
Частота кадров : 31,250 кадров/сек (1536 SPF)
Метод сжатия : С потерями
Размер потока : 178 Мбайт (1%)
Заголовок : DVO (Премьер Видео Фильм)
Язык : Russian
Service kind : Complete Main
Default : Нет
Forced : Нет

Аудио #7
Идентификатор : 8
Формат : AC-3
Формат/Информация : Audio Coding 3
Коммерческое название : Dolby Digital
Идентификатор кодека : A_AC3
Продолжительность : 1 ч. 50 м.
Вид битрейта : Постоянный
Битрейт : 640 Кбит/сек
Каналы : 2 канала
Channel layout : L R
Частота : 48,0 КГц
Частота кадров : 31,250 кадров/сек (1536 SPF)
Метод сжатия : С потерями
Размер потока : 508 Мбайт (3%)
Заголовок : AVO (Алексей Михалёв)
Язык : Russian
Service kind : Complete Main
Default : Нет
Forced : Нет

Аудио #8
Идентификатор : 9
Формат : AC-3
Формат/Информация : Audio Coding 3
Коммерческое название : Dolby Digital
Идентификатор кодека : A_AC3
Продолжительность : 1 ч. 50 м.
Вид битрейта : Постоянный
Битрейт : 640 Кбит/сек
Каналы : 2 канала
Channel layout : L R
Частота : 48,0 КГц
Частота кадров : 31,250 кадров/сек (1536 SPF)
Метод сжатия : С потерями
Размер потока : 508 Мбайт (3%)
Заголовок : AVO (Вартан Дохалов)
Язык : Russian
Service kind : Complete Main
Default : Нет
Forced : Нет

Аудио #9
Идентификатор : 10
Формат : AC-3
Формат/Информация : Audio Coding 3
Коммерческое название : Dolby Digital
Идентификатор кодека : A_AC3
Продолжительность : 1 ч. 50 м.
Вид битрейта : Постоянный
Битрейт : 192 Кбит/сек
Каналы : 2 канала
Channel layout : L R
Частота : 48,0 КГц
Частота кадров : 31,250 кадров/сек (1536 SPF)
Метод сжатия : С потерями
Размер потока : 152 Мбайт (1%)
Заголовок : AVO (Павел Прямостанов)
Язык : Russian
Service kind : Complete Main
Default : Нет
Forced : Нет

Аудио #10
Идентификатор : 11
Формат : AC-3
Формат/Информация : Audio Coding 3
Коммерческое название : Dolby Digital
Идентификатор кодека : A_AC3
Продолжительность : 1 ч. 50 м.
Вид битрейта : Постоянный
Битрейт : 192 Кбит/сек
Каналы : 2 канала
Channel layout : L R
Частота : 48,0 КГц
Частота кадров : 31,250 кадров/сек (1536 SPF)
Метод сжатия : С потерями
Размер потока : 152 Мбайт (1%)
Заголовок : AVO (Виталий Мельников / "Дохаловоподобный")
Язык : Russian
Service kind : Complete Main
Default : Нет
Forced : Нет

Аудио #11
Идентификатор : 12
Формат : AC-3
Формат/Информация : Audio Coding 3
Коммерческое название : Dolby Digital
Идентификатор кодека : A_AC3
Продолжительность : 1 ч. 50 м.
Вид битрейта : Постоянный
Битрейт : 640 Кбит/сек
Каналы : 2 канала
Channel layout : L R
Частота : 48,0 КГц
Частота кадров : 31,250 кадров/сек (1536 SPF)
Метод сжатия : С потерями
Размер потока : 508 Мбайт (3%)
Заголовок : VO (Неизвестный)
Язык : Russian
Service kind : Complete Main
Default : Нет
Forced : Нет

Аудио #12
Идентификатор : 13
Формат : AC-3
Формат/Информация : Audio Coding 3
Коммерческое название : Dolby Digital
Идентификатор кодека : A_AC3
Продолжительность : 1 ч. 50 м.
Вид битрейта : Постоянный
Битрейт : 256 Кбит/сек
Каналы : 2 канала
Channel layout : L R
Частота : 48,0 КГц
Частота кадров : 31,250 кадров/сек (1536 SPF)
Метод сжатия : С потерями
Размер потока : 203 Мбайт (1%)
Заголовок : VO (Евгений Солодухин)
Язык : Russian
Service kind : Complete Main
Default : Нет
Forced : Нет

Аудио #13
Идентификатор : 14
Формат : AC-3
Формат/Информация : Audio Coding 3
Коммерческое название : Dolby Digital
Идентификатор кодека : A_AC3
Продолжительность : 1 ч. 50 м.
Вид битрейта : Постоянный
Битрейт : 192 Кбит/сек
Каналы : 2 канала
Channel layout : L R
Частота : 48,0 КГц
Частота кадров : 31,250 кадров/сек (1536 SPF)
Метод сжатия : С потерями
Размер потока : 152 Мбайт (1%)
Заголовок : MVO (НЛО TV / ТРК Украина)
Язык : Ukrainian
Service kind : Complete Main
Default : Нет
Forced : Нет

Аудио #14
Идентификатор : 15
Формат : AC-3
Формат/Информация : Audio Coding 3
Коммерческое название : Dolby Digital
Идентификатор кодека : A_AC3
Продолжительность : 1 ч. 50 м.
Вид битрейта : Постоянный
Битрейт : 192 Кбит/сек
Каналы : 2 канала
Channel layout : L R
Частота : 48,0 КГц
Частота кадров : 31,250 кадров/сек (1536 SPF)
Метод сжатия : С потерями
Размер потока : 152 Мбайт (1%)
Заголовок : MVO (Новый канал / ICTV)
Язык : Ukrainian
Service kind : Complete Main
Default : Нет
Forced : Нет

Аудио #15
Идентификатор : 16
Формат : AC-3
Формат/Информация : Audio Coding 3
Коммерческое название : Dolby Digital
Идентификатор кодека : A_AC3
Продолжительность : 1 ч. 50 м.
Вид битрейта : Постоянный
Битрейт : 192 Кбит/сек
Каналы : 2 канала
Channel layout : L R
Частота : 48,0 КГц
Частота кадров : 31,250 кадров/сек (1536 SPF)
Метод сжатия : С потерями
Размер потока : 152 Мбайт (1%)
Заголовок : DVO (1+1)
Язык : Ukrainian
Service kind : Complete Main
Default : Нет
Forced : Нет

Аудио #16
Идентификатор : 17
Формат : AC-3
Формат/Информация : Audio Coding 3
Коммерческое название : Dolby Digital
Идентификатор кодека : A_AC3
Продолжительность : 1 ч. 50 м.
Вид битрейта : Постоянный
Битрейт : 640 Кбит/сек
Каналы : 6 каналов
Channel layout : L R C LFE Ls Rs
Частота : 48,0 КГц
Частота кадров : 31,250 кадров/сек (1536 SPF)
Метод сжатия : С потерями
Размер потока : 508 Мбайт (3%)
Заголовок : Original Surround Upmix
Язык : English
Service kind : Complete Main
Default : Нет
Forced : Нет

Аудио #17
Идентификатор : 18
Формат : AC-3
Формат/Информация : Audio Coding 3
Коммерческое название : Dolby Digital
Идентификатор кодека : A_AC3
Продолжительность : 1 ч. 51 м.
Вид битрейта : Постоянный
Битрейт : 640 Кбит/сек
Каналы : 2 канала
Channel layout : L R
Частота : 44,1 КГц
Частота кадров : 28,711 кадров/сек (1536 SPF)
Метод сжатия : С потерями
Размер потока : 509 Мбайт (3%)
Заголовок : Original (Universal Home Video LaserDisc)
Язык : English
Service kind : Complete Main
Default : Нет
Forced : Нет

Текст #1
Идентификатор : 19
Формат : UTF-8
Идентификатор кодека : S_TEXT/UTF8
Идентификатор кодека/Информация : UTF-8 Plain Text
Продолжительность : 1 ч. 43 м.
Битрейт : 100 бит/сек
Частота кадров : 0,260 кадр/сек
Count of elements : 1619
Размер потока : 76,4 Кбайт (0%)
Заголовок : Russian Netflix
Язык : Russian
Default : Нет
Forced : Нет

Текст #2
Идентификатор : 20
Формат : UTF-8
Идентификатор кодека : S_TEXT/UTF8
Идентификатор кодека/Информация : UTF-8 Plain Text
Продолжительность : 1 ч. 48 м.
Битрейт : 92 бит/сек
Частота кадров : 0,196 кадр/сек
Count of elements : 1273
Размер потока : 73,3 Кбайт (0%)
Заголовок : Ukrainian Netflix
Язык : Ukrainian
Default : Нет
Forced : Нет

Текст #3
Идентификатор : 21
Формат : UTF-8
Идентификатор кодека : S_TEXT/UTF8
Идентификатор кодека/Информация : UTF-8 Plain Text
Продолжительность : 1 ч. 43 м.
Битрейт : 62 бит/сек
Частота кадров : 0,260 кадр/сек
Count of elements : 1619
Размер потока : 47,8 Кбайт (0%)
Заголовок : English Regular / Netflix
Язык : English
Default : Нет
Forced : Нет

Текст #4
Идентификатор : 22
Формат : UTF-8
Идентификатор кодека : S_TEXT/UTF8
Идентификатор кодека/Информация : UTF-8 Plain Text
Продолжительность : 1 ч. 45 м.
Битрейт : 67 бит/сек
Частота кадров : 0,283 кадр/сек
Count of elements : 1787
Размер потока : 51,9 Кбайт (0%)
Заголовок : English SDH / Netflix
Язык : English
Default : Нет
Forced : Нет

Меню
00:00:00.000 : en:Main Titles: The Detective and the Drug Lord
00:09:54.093 : en:The Party Pooper
00:15:14.580 : en:Off the Oregon
00:21:56.898 : en:The Substitute
00:25:06.296 : en:Kimble's Class
00:36:25.099 : en:School Daze
00:42:39.890 : en:Dinner with "Ursula"
00:47:34.851 : en:Police School
01:02:03.469 : en:Joyce's Guest
01:12:25.674 : en:The Abusive Father
01:20:39.918 : en:The Truth
01:24:15.884 : en:Where Cominic?
01:28:33.641 : en:Never Talk to Strangers
01:32:03.518 : en:Crisp Makes His Move
01:38:33.157 : en:The Showdown
01:44:52.327 : en:Welcome Back (End Titles)
Загрузка...Cкриншот1 Детсадовский полицейский / Kindergarten Cop (1990) [Remastered | Kino Lorber] BDRip 1080p [HEVC] 10 bit от OldGamer (RG RIPS CLUB)Загрузка...Cкриншот2 Детсадовский полицейский / Kindergarten Cop (1990) [Remastered | Kino Lorber] BDRip 1080p [HEVC] 10 bit от OldGamer (RG RIPS CLUB)Загрузка...Cкриншот3 Детсадовский полицейский / Kindergarten Cop (1990) [Remastered | Kino Lorber] BDRip 1080p [HEVC] 10 bit от OldGamer (RG RIPS CLUB)Загрузка...Cкриншот4 Детсадовский полицейский / Kindergarten Cop (1990) [Remastered | Kino Lorber] BDRip 1080p [HEVC] 10 bit от OldGamer (RG RIPS CLUB)

Сравнение скриншотов:
https://caps-a-holic.com/c.php?go=1&a=0&d1=18718&d2=11039&s1=221856&s2=108127&i=5&l=1


Поблагодарили: 9Antilord90, Brooklyn, SergKote, sharkey71, stickstoff, Winsent, z_artem, Лара, Странник
Файлы: 1
  • Детсадовский.полицейский.Kindergarten.Cop.1990.Remastered.BDRip-HEVC.1080p.mkv

Рейтинги КП и IMDB, кнопки "Раздайте, пожалуйста" и "Спасибо", а также мультитрекерная статистика доступны только зарегистрированным/авторизованным пользователям!

OldGamer
110190017.88 ГБ

💬︎ Комментарии

Добавление комментариев доступно только зарегистрированным/авторизованным пользователям.