Чат

⚫︎
Список изменений сайта - https://rips.club/changelog.html (обновлен 24.05.2024)
  • Art1967
  • arwis
  • Banzai
  • ExoticDeer
Онлайн (за 10 мин.): 4
  • Tastod: Раздайте, пожалуйста, Загадочная история Бенджамина Баттона / The Curious Case of Benjamin Button (2008) BDRip 1080p [HEVC] 10 bit от Spartanec1308
  • Гл. Админ: Исправил баг, когда после анонса коллекции все анонсы показывались в спойлере, даже если не являлись коллекцией.
  • Гл. Админ: Исправил баг, когда в ЛС не возможно было удалить сообщение.
  • bronsonw200: Гл. Админ, Как по мне, так смотрится приятнее.
  • Гл. Админ: В светлой теме задний фон сделал чуть потемнее, чтобы было не слишком ярко. В темной теме поисковую строку сделал черной (как в светлой теме), чтобы выделялась. Убрал рамки вокруг элементов форм. Прокрутку страницы в начало сделал плавной. ( отредактировано: )
  • Гл. Админ: В ближайшие дни по вечерам начну подправлять дизайн.
  • Гл. Админ: Готово.
  • Гл. Админ: Управление релизами закончил, но не буду выкладывать на ночь глядя. Утром протестирую на локальном компе, и днем выложу.
  • Гл. Админ: Фон баннера релиз-группы сделал прозрачным и перезалил на внешнем хостинге.
  • OldGamer: было бы неплохо
  • Гл. Админ: Управление релизами наверно сегодня закончу.
  • HANNIBAL: Сообщение удалено (удалил: HANNIBAL)
  • HANNIBAL: Гл. Админ, не привычно
  • Гл. Админ: HANNIBAL, хорошего или плохого?
  • HANNIBAL: эт чей-то вы тут натворили с сайтом ;)
  • Гл. Админ: ExoticDeer, просто в будущем будет несколько новостных строчек и они будут автоматически переключаться по кругу, поэтому не хочется статичную. Могу ещё уменьшить частоту, если всё равно будет отвлекать. ( отредактировано: )
  • Гл. Админ: ExoticDeer, уменьшил частоту мигания с 5 сек. до 10 сек.
  • ExoticDeer: Гл. Админ, про мигание, скорее отвлекает, особенно на тёмной теме. статичная хорошо смотрелась
  • Гл. Админ: Winsent, Исправил. Теперь, при просмотре комментариев конкретного пользователя, эта галочка не играет роли. Спасибо, что сообщили.
  • Гл. Админ: Winsent, сначала не поверил своим глазам. Это было оооочень странно. Но кажется теперь понял в чем проблема. Ошибка появляется, если в настройках не установлена галочка "Получать уведомления о всех комментариях". Причем у разных пользователей проявляется по разному - у кого-то ничего не показывается, а у кого-то показывается часть комментариев. Поэтому мне долго не удавалось воспроизвести ошибку. Сейчас исправлю.
Отправка сообщений доступна только зарегистрированным/авторизованным пользователям.

🎥︎🎥︎Кэндимэн: Квадрология / Candyman: Quadrilogy (1992-2021) BDRip 1080p [HEVC] 10 bit от OldGamer (RG RIPS CLUB)


Обложка Кэндимэн: Квадрология / Candyman: Quadrilogy (1992-2021) BDRip 1080p [HEVC] 10 bit от OldGamer (RG RIPS CLUB)
HEVC
10 bit
⤓︎Торрент🧲︎Магнет$Пожертвования

При перезаливке на другие сайты просьба указать автора и релиз-группу.


Год: 1992-2021
Страна: США, Великобритания, Канада, Австралия
Жанр: Ужасы, Триллер


Релиз-группа: RIPS CLUB
1. Кэндимэн / Candyman (1992) [REMASTERED] BDRip 1080p [HEVC] 10 bit от OldGamer
Обложка Кэндимэн / Candyman (1992) [REMASTERED] BDRip 1080p [HEVC] 10 bit от OldGamer
HEVC
10 bit
✂︎Сэмпл
Год: 1992
Страна: США, Великобритания
Студия: Candyman Films, PolyGram Filmed Entertainment, Propaganda Films
Жанр: Ужасы
Длительность: 01:39:21

Режиссер: Бернард Роуз
В ролях: Вирджиния Мэдсен, Тони Тодд, Ксандер Беркли, Кейси Леммонс, Ванесса Уильямс, ДеЖуан Гай, Марианна Эллиотт, Тед Рэйми, Риа Павиа, Марк Дэниелс

Описание: У жителей отдалённых кварталов Чикаго существует легенда о загадочном маньяке по прозвищу Кэндимэн, обитателе параллельного мира. Ему не нужен нож, чтобы наносить раны: протез руки в виде крюка - идеальное орудие преступления. Пока Кэндимэн находится за гранью реальности. Но если встать перед зеркалом и пять раз подряд произнести его имя, он перейдёт эту зыбкую черту. И тогда никому не удастся спастись. За изучение этой легенды берётся группа молодых учёных, которые не верят в таинственного Кэндимэна. Но в любой момент вместо своего отражения в зеркале они могут увидеть убийцу...


Исходник: Blu-Ray Remux 1080p (rutracker)
Видео: 1920x1036, 12.4 Mbps
Аудио1: AC3, 6 ch, 640 Kbps - РусскийРусский, MVO (Видеосервис)
Аудио2: AC3, 2 ch, 192 Kbps - РусскийРусский, MVO (Первый канал)
Аудио3: AC3, 6 ch, 640 Kbps - РусскийРусский, AVO (Юрий Сербин)
Аудио4: AC3, 6 ch, 640 Kbps - РусскийРусский, AVO (Алексей Михалёв)
Аудио5: AC3, 2 ch, 384 Kbps - РусскийРусский, AVO (Сергей Визгунов)
Аудио6: AC3, 2 ch, 192 Kbps - РусскийРусский, AVO (Владимир Сонькин)
Аудио7: AC3, 6 ch, 640 Kbps - АнглийскийАнглийский
Субтитры: русские, английские

Как за несколько секунд удалить ненужные аудиодорожки и субтитры (Внимание! После удаления вы не сможете поддержать раздачу)


Лог (x265 info)x265 [info]: frame I: 614, Avg QP:18.36 kb/s: 28048.34
x265 [info]: frame P: 25117, Avg QP:19.57 kb/s: 20887.94
x265 [info]: frame B: 117202, Avg QP:21.46 kb/s: 10537.40
x265 [info]: Weighted P-Frames: Y:7.8% UV:6.8%
x265 [info]: Weighted B-Frames: Y:6.2% UV:5.3%
x265 [info]: encoded 142933 frames in 136548.40s (1.05 fps), 12431.48 kb/s, Avg QP:21.11
МедиаинфоОбщее
Уникальный идентификатор : 267007374998477510169619042686610163485 (0xC8DFBFF8ABF897FCACDBD03B1CF7C71D)
Полное имя : \\.\01.Кэндимэн.Candyman.1992.Remastered.BDRip-HEVC.1080p.mkv
Формат : Matroska
Версия формата : Version 4
Размер файла : 10,9 Гбайт
Продолжительность : 1 ч. 39 м.
Общий поток : 15,8 Мбит/сек
Частота кадров : 23,976 кадра/сек
Название фильма : Кэндимэн / Кэндимэн
Кодирование произвёл : OldGamer
Тип содержимого : Movie
Дата выпуска : 1992-10-16
Дата записи : 1992-10-16
Программа кодирования : mkvmerge v82.0 ('I'm The President') 64-bit
Библиотека кодирования : libebml v1.4.5 + libmatroska v1.7.1 / xvid4psp5
Обложка : Yes
Attachments : cover.jpg
ACTOR : Virginia Madsen, Tony Todd, Xander Berkeley, Kasi Lemmons, Vanessa Williams, DeJuan Guy, Marianna Elliott, Ted Raimi, Ria Pavia, Mark Daniels, Lisa Ann Poggi, Adam Philipson, Eric Edwards, Carolyn Lowery, Barbara Alston, Sarina C. Grant, Latesha Mart...
ARTIST : Virginia Madsen, Tony Todd, Xander Berkeley, Kasi Lemmons, Vanessa Williams, DeJuan Guy, Marianna Elliott, Ted Raimi, Ria Pavia, Mark Daniels, Lisa Ann Poggi, Adam Philipson, Eric Edwards, Carolyn Lowery, Barbara Alston, Sarina C. Grant, Latesha Mart...
DIRECTOR : Bernard Rose
GENRE : драма, ужасы, триллер
LAW_RATING : R
PRODUCER : Steve Golin, Sigurjón Sighvatsson, Alan Poul
PRODUCTION_STUDIO : TriStar Pictures
RATING : R
SCREENPLAY_BY : Bernard Rose
SYNOPSIS : У жителей отдаленных кварталов Чикаго существует легенда о загадочном маньяке по прозвищу Кэндимэн, обитателе параллельного мира. Ему не нужен нож, чтобы наносить раны: протез руки в виде крюка — идеальное орудие преступления. Пока Кэндимэн находится за гранью реальности. Но если встать перед зеркалом и пять раз подряд произнести его имя, он перейдет эту зыбкую черту. И тогда никому не удастся спастись. За изучение этой легенды берется группа молодых ученых, которые не верят в таинственного Кэндимэна. Но в любой момент вместо своего отражения в зеркале они могут увидеть убийцу…
WRITTEN_BY : Bernard Rose

Видео
Идентификатор : 1
Формат : HEVC
Формат/Информация : High Efficiency Video Coding
Профиль формата : Main 10@L4.1@High
Идентификатор кодека : V_MPEGH/ISO/HEVC
Продолжительность : 1 ч. 39 м.
Битрейт : 12,4 Мбит/сек
Ширина : 1 920 пикселей
Высота : 1 036 пикселей
Соотношение сторон : 1,85:1
Режим частоты кадров : Постоянный
Частота кадров : 23,976 (24000/1001) кадра/сек
Цветовое пространство : YUV
Субдискретизация насыщенности : 4:2:0
Битовая глубина : 10 бит
Бит/(Пиксели*Кадры) : 0.261
Размер потока : 8,63 Гбайт (79%)
Заголовок : Candyman / Rip by OldGamer
Библиотека кодирования : x265 3.5+110-8ee01d45b:[Windows][GCC 13.2.0][64 bit] 10bit
Настройки программы : cpuid=1111039 / frame-threads=3 / numa-pools=8 / wpp / no-pmode / no-pme / no-psnr / no-ssim / log-level=2 / input-csp=1 / input-res=1920x1036 / interlace=0 / total-frames=142933 / level-idc=41 / high-tier=1 / uhd-bd=0 / ref=5 / no-allow-non-conformance / no-repeat-headers / annexb / no-aud / no-eob / no-eos / no-hrd / info / hash=0 / temporal-layers=0 / open-gop / min-keyint=23 / keyint=240 / gop-lookahead=0 / bframes=16 / b-adapt=2 / b-pyramid / bframe-bias=0 / rc-lookahead=60 / lookahead-slices=0 / scenecut=40 / no-hist-scenecut / radl=0 / no-splice / no-intra-refresh / ctu=32 / min-cu-size=8 / rect / amp / max-tu-size=32 / tu-inter-depth=4 / tu-intra-depth=4 / limit-tu=1 / rdoq-level=2 / dynamic-rd=0.00 / no-ssim-rd / signhide / no-tskip / nr-intra=0 / nr-inter=0 / no-constrained-intra / no-strong-intra-smoothing / max-merge=5 / limit-refs=3 / no-limit-modes / me=3 / subme=7 / merange=57 / temporal-mvp / no-frame-dup / no-hme / weightp / weightb / no-analyze-src-pics / deblock=-2:-2 / no-sao / no-sao-non-deblock / rd=6 / selective-sao=0 / no-early-skip / no-rskip / no-fast-intra / no-tskip-fast / no-cu-lossless / b-intra / no-splitrd-skip / rdpenalty=0 / psy-rd=2.00 / psy-rdoq=1.00 / no-rd-refine / no-lossless / cbqpoffs=0 / crqpoffs=0 / rc=crf / crf=20.3 / qcomp=0.60 / qpstep=4 / stats-write=0 / stats-read=0 / vbv-maxrate=50000 / vbv-bufsize=50000 / vbv-init=0.9 / min-vbv-fullness=50.0 / max-vbv-fullness=80.0 / crf-max=0.0 / crf-min=0.0 / ipratio=1.40 / pbratio=1.30 / aq-mode=1 / aq-strength=1.00 / no-cutree / zone-count=1 / zones: / start-frame=138586 / end-frame=142933 / qp=36 / no-strict-cbr / qg-size=32 / no-rc-grain / qpmax=69 / qpmin=0 / no-const-vbv / sar=1 / overscan=0 / videoformat=5 / range=0 / colorprim=2 / transfer=2 / colormatrix=2 / chromaloc=0 / display-window=0 / cll=0,0 / min-luma=0 / max-luma=1023 / log2-max-poc-lsb=8 / vui-timing-info / vui-hrd-info / slices=1 / no-opt-qp-pps / no-opt-ref-list-length-pps / no-multi-pass-opt-rps / scenecut-bias=0.00 / no-opt-cu-delta-qp / no-aq-motion / no-hdr10 / no-hdr10-opt / no-dhdr10-opt / no-idr-recovery-sei / analysis-reuse-level=0 / analysis-save-reuse-level=0 / analysis-load-reuse-level=0 / scale-factor=0 / refine-intra=0 / refine-inter=0 / refine-mv=1 / refine-ctu-distortion=0 / no-limit-sao / ctu-info=0 / no-lowpass-dct / refine-analysis-type=0 / copy-pic=1 / max-ausize-factor=1.0 / no-dynamic-refine / no-single-sei / no-hevc-aq / no-svt / no-field / qp-adaptation-range=1.00 / scenecut-aware-qp=0conformance-window-offsets / right=0 / bottom=0 / decoder-max-rate=0 / no-vbv-live-multi-pass / no-mcstf / no-sbrc
Язык : English
Default : Да
Forced : Нет

Аудио #1
Идентификатор : 2
Формат : AC-3
Формат/Информация : Audio Coding 3
Коммерческое название : Dolby Digital
Идентификатор кодека : A_AC3
Продолжительность : 1 ч. 39 м.
Вид битрейта : Постоянный
Битрейт : 640 Кбит/сек
Каналы : 6 каналов
Channel layout : L R C LFE Ls Rs
Частота : 48,0 КГц
Частота кадров : 31,250 кадров/сек (1536 SPF)
Метод сжатия : С потерями
Размер потока : 455 Мбайт (4%)
Заголовок : MVO (Видеосервис)
Язык : Russian
Service kind : Complete Main
Default : Да
Forced : Нет

Аудио #2
Идентификатор : 3
ID in the original source medium : 4352 (0x1100)
Формат : AC-3
Формат/Информация : Audio Coding 3
Коммерческое название : Dolby Digital
Идентификатор кодека : A_AC3
Продолжительность : 1 ч. 39 м.
Вид битрейта : Постоянный
Битрейт : 192 Кбит/сек
Каналы : 2 канала
Channel layout : L R
Частота : 48,0 КГц
Частота кадров : 31,250 кадров/сек (1536 SPF)
Метод сжатия : С потерями
Размер потока : 136 Мбайт (1%)
Заголовок : MVO (Первый канал)
Язык : Russian
Service kind : Complete Main
Default : Нет
Forced : Нет
Носитель оригинала : Blu-ray

Аудио #3
Идентификатор : 4
Формат : AC-3
Формат/Информация : Audio Coding 3
Коммерческое название : Dolby Digital
Идентификатор кодека : A_AC3
Продолжительность : 1 ч. 39 м.
Вид битрейта : Постоянный
Битрейт : 640 Кбит/сек
Каналы : 6 каналов
Channel layout : L R C LFE Ls Rs
Частота : 48,0 КГц
Частота кадров : 31,250 кадров/сек (1536 SPF)
Метод сжатия : С потерями
Размер потока : 455 Мбайт (4%)
Заголовок : AVO (Юрий Сербин)
Язык : Russian
Service kind : Complete Main
Default : Нет
Forced : Нет

Аудио #4
Идентификатор : 5
Формат : AC-3
Формат/Информация : Audio Coding 3
Коммерческое название : Dolby Digital
Идентификатор кодека : A_AC3
Продолжительность : 1 ч. 39 м.
Вид битрейта : Постоянный
Битрейт : 640 Кбит/сек
Каналы : 6 каналов
Channel layout : L R C LFE Ls Rs
Частота : 48,0 КГц
Частота кадров : 31,250 кадров/сек (1536 SPF)
Метод сжатия : С потерями
Размер потока : 455 Мбайт (4%)
Заголовок : AVO (Алексей Михалёв)
Язык : Russian
Service kind : Complete Main
Default : Нет
Forced : Нет

Аудио #5
Идентификатор : 6
ID in the original source medium : 4356 (0x1104)
Формат : AC-3
Формат/Информация : Audio Coding 3
Коммерческое название : Dolby Digital
Идентификатор кодека : A_AC3
Продолжительность : 1 ч. 39 м.
Вид битрейта : Постоянный
Битрейт : 384 Кбит/сек
Каналы : 2 канала
Channel layout : L R
Частота : 48,0 КГц
Частота кадров : 31,250 кадров/сек (1536 SPF)
Метод сжатия : С потерями
Размер потока : 273 Мбайт (2%)
Заголовок : AVO (Сергей Визгунов)
Язык : Russian
Service kind : Complete Main
Default : Нет
Forced : Нет
Носитель оригинала : Blu-ray

Аудио #6
Идентификатор : 7
ID in the original source medium : 4357 (0x1105)
Формат : AC-3
Формат/Информация : Audio Coding 3
Коммерческое название : Dolby Digital
Идентификатор кодека : A_AC3
Продолжительность : 1 ч. 39 м.
Вид битрейта : Постоянный
Битрейт : 192 Кбит/сек
Каналы : 2 канала
Channel layout : L R
Частота : 48,0 КГц
Частота кадров : 31,250 кадров/сек (1536 SPF)
Метод сжатия : С потерями
Размер потока : 136 Мбайт (1%)
Заголовок : AVO (Владимир Сонькин)
Язык : Russian
Service kind : Complete Main
Default : Нет
Forced : Нет
Носитель оригинала : Blu-ray

Аудио #7
Идентификатор : 8
Формат : AC-3
Формат/Информация : Audio Coding 3
Коммерческое название : Dolby Digital
Идентификатор кодека : A_AC3
Продолжительность : 1 ч. 39 м.
Вид битрейта : Постоянный
Битрейт : 640 Кбит/сек
Каналы : 6 каналов
Channel layout : L R C LFE Ls Rs
Частота : 48,0 КГц
Частота кадров : 31,250 кадров/сек (1536 SPF)
Метод сжатия : С потерями
Размер потока : 455 Мбайт (4%)
Язык : English
Service kind : Complete Main
Default : Нет
Forced : Нет

Текст #1
Идентификатор : 9
Формат : UTF-8
Идентификатор кодека : S_TEXT/UTF8
Идентификатор кодека/Информация : UTF-8 Plain Text
Продолжительность : 1 ч. 32 м.
Битрейт : 59 бит/сек
Частота кадров : 0,147 кадр/сек
Count of elements : 814
Размер потока : 40,0 Кбайт (0%)
Язык : Russian
Default : Нет
Forced : Нет

Текст #2
Идентификатор : 10
Формат : UTF-8
Идентификатор кодека : S_TEXT/UTF8
Идентификатор кодека/Информация : UTF-8 Plain Text
Продолжительность : 1 ч. 32 м.
Битрейт : 39 бит/сек
Частота кадров : 0,165 кадр/сек
Count of elements : 914
Размер потока : 26,6 Кбайт (0%)
Язык : English
Default : Нет
Forced : Нет

Меню
00:00:00.000 : en:Chapter 01
00:06:21.631 : en:Chapter 02
00:16:31.991 : en:Chapter 03
00:28:29.708 : en:Chapter 04
00:34:16.095 : en:Chapter 05
00:41:46.003 : en:Chapter 06
00:50:21.351 : en:Chapter 07
00:55:14.102 : en:Chapter 08
01:05:48.861 : en:Chapter 09
01:13:02.044 : en:Chapter 10
01:17:04.036 : en:Chapter 11
01:30:28.589 : en:Chapter 12
01:39:18.285 : en:Chapter 13
Загрузка...Cкриншот1 Кэндимэн / Candyman (1992) [REMASTERED] BDRip 1080p [HEVC] 10 bit от OldGamerЗагрузка...Cкриншот2 Кэндимэн / Candyman (1992) [REMASTERED] BDRip 1080p [HEVC] 10 bit от OldGamerЗагрузка...Cкриншот3 Кэндимэн / Candyman (1992) [REMASTERED] BDRip 1080p [HEVC] 10 bit от OldGamerЗагрузка...Cкриншот4 Кэндимэн / Candyman (1992) [REMASTERED] BDRip 1080p [HEVC] 10 bit от OldGamer
2. Кэндимэн 2: Прощание с плотью / Candyman: Farewell to the Flesh (1995) BDRip 1080p [HEVC] 10 bit от OldGamer
Обложка Кэндимэн 2: Прощание с плотью / Candyman: Farewell to the Flesh (1995) BDRip 1080p [HEVC] 10 bit от OldGamer
HEVC
10 bit
✂︎Сэмпл
Год: 1995
Страна: США, Великобритания
Студия: PolyGram Filmed Entertainment, Propaganda Films
Жанр: Ужасы, Триллер
Длительность: 01:35:05

Режиссер: Билл Кондон
В ролях: Кэролин Барклай, Майкл Бержерон, Брианна Бланчард, Clotiel Bordeltier, Расселл Бьюкэнэн, Нат Бинум, Сэнди Бёрд, Эрик Кадора, Тимоти Кархарт, Вероника Картрайт

Описание: Новый Орлеан. Произнеси пять раз его имя, и он появится. Железный крюк вместо руки да пчёлы, летающие вокруг него. Когда-то, сразу после окончания гражданской войны в США, чернокожий раб Дэниел Робитайл пострадал за свою любовь к белой девушке Кэролайн. Отец возлюбленной вместе с другими богатыми землевладельцами отрезали кисть руки раба, обмазали тело мёдом и оставили того умирать в чистом поле под палящим солнцем и роящими над ним злыми пчёлами. Смерть была медленной и мучительной. Именно отсюда пошло его прозвище - Кэндимен. В наше время девушка Энни, прямой потомок Кэролайн, неосторожно произносит магическое заклинание, и Кэндимен появляется. Вместе с ним появляются и многочисленные трупы...


Исходник: Blu-Ray Remux 1080p (rutracker)
Видео: 1920x1040, 7053 Kbps
Аудио1: AC3, 2 ch, 192 Kbps - РусскийРусский, MVO
Аудио2: AC3, 2 ch, 192 Kbps - РусскийРусский, DVO (НТВ+)
Аудио3: AC3, 2 ch, 192 Kbps - РусскийРусский, DVO (ТВЦ)
Аудио4: AC3, 6 ch, 640 Kbps - РусскийРусский, AVO (Юрий Сербин)
Аудио5: AC3, 2 ch, 192 Kbps - РусскийРусский, AVO (Андрей Гаврилов)
Аудио6: AC3, 2 ch, 192 Kbps - РусскийРусский, AVO (Сергей Визгунов)
Аудио7: AC3, 2 ch, 192 Kbps - РусскийРусский, AVO (Александр Кашкин)
Аудио8: AC3, 6 ch, 640 Kbps - АнглийскийАнглийский
Субтитры: русские, английские (SDH)

Как за несколько секунд удалить ненужные аудиодорожки и субтитры (Внимание! После удаления вы не сможете поддержать раздачу)


Лог (x265 info)x265 [info]: frame I: 609, Avg QP:18.52 kb/s: 14733.46
x265 [info]: frame P: 24953, Avg QP:19.82 kb/s: 11868.83
x265 [info]: frame B: 111238, Avg QP:21.61 kb/s: 5929.19
x265 [info]: Weighted P-Frames: Y:13.9% UV:12.4%
x265 [info]: Weighted B-Frames: Y:12.3% UV:10.5%
x265 [info]: encoded 136800 frames in 111892.37s (1.22 fps), 7051.80 kb/s, Avg QP:21.27
МедиаинфоОбщее
Уникальный идентификатор : 132312241369211466859654369412869274071 (0x638A6927F93063EBBCECDA21DCC039D7)
Полное имя : \\.\02.Кэндимэн.2.Прощание.с.плотью.Candyman.Farewell.to.the.Flesh.1995.BDRip-HEVC.1080p.mkv
Формат : Matroska
Версия формата : Version 4
Размер файла : 6,30 Гбайт
Продолжительность : 1 ч. 35 м.
Общий поток : 9 490 Кбит/сек
Частота кадров : 23,976 кадра/сек
Название фильма : Кэндимэн 2: Прощание с плотью / Кэндимэн 2: Прощание с плотью
Кодирование произвёл : OldGamer
Тип содержимого : Movie
Дата выпуска : 1995-03-17
Дата записи : 1995-03-17
Программа кодирования : mkvmerge v82.0 ('I'm The President') 64-bit
Библиотека кодирования : libebml v1.4.5 + libmatroska v1.7.1 / xvid4psp5
Обложка : Yes
Attachments : cover.jpg
ACTOR : Tony Todd, Kelly Rowan, William O'Leary, Bill Nunn, David Gianopoulos, Matt Clark, Timothy Carhart, Veronica Cartwright, Fay Hauser, Joshua Gibran Mayweather, Caroline Barclay, Michael Bergeron, Brianna Blanchard, Clotiel Bordeltier, Carl Ciarfalio, ...
ARTIST : Tony Todd, Kelly Rowan, William O'Leary, Bill Nunn, David Gianopoulos, Matt Clark, Timothy Carhart, Veronica Cartwright, Fay Hauser, Joshua Gibran Mayweather, Caroline Barclay, Michael Bergeron, Brianna Blanchard, Clotiel Bordeltier, Carl Ciarfalio, ...
DIRECTOR : Bill Condon
GENRE : ужасы, триллер
LAW_RATING : R
PRODUCER : Sigurjón Sighvatsson, Gregg Fienberg
PRODUCTION_STUDIO : Gramercy Pictures
RATING : R
SCREENPLAY_BY : Rand Ravich, Mark Kruger
SYNOPSIS : Новый Орлеан. Произнеси пять раз его имя, и он появится. Железный крюк вместо руки да пчёлы, летающие вокруг него. Когда-то, сразу после окончания гражданской войны в США, чернокожий раб Дэниел Робитайл пострадал за свою любовь к белой девушке Кэролайн. Отец возлюбленной вместе с другими богатыми землевладельцами отрезали кисть руки раба, обмазали тело мёдом и оставили того умирать в чистом поле под палящим солнцем и роящими над ним злыми пчёлами. Смерть была медленной и мучительной. В наше время девушка Энни, прямой потомок Кэролайн, неосторожно произносит магическое заклинание, и Кэндимен появляется.
WRITTEN_BY : Rand Ravich, Mark Kruger

Видео
Идентификатор : 1
Формат : HEVC
Формат/Информация : High Efficiency Video Coding
Профиль формата : Main 10@L4.1@High
Идентификатор кодека : V_MPEGH/ISO/HEVC
Продолжительность : 1 ч. 35 м.
Битрейт : 7 053 Кбит/сек
Ширина : 1 920 пикселей
Высота : 1 040 пикселей
Соотношение сторон : 1,85:1
Режим частоты кадров : Постоянный
Частота кадров : 23,976 (24000/1001) кадра/сек
Цветовое пространство : YUV
Субдискретизация насыщенности : 4:2:0
Битовая глубина : 10 бит
Бит/(Пиксели*Кадры) : 0.147
Размер потока : 4,68 Гбайт (74%)
Заголовок : Candyman: Farewell to the Flesh / Rip by OldGamer
Библиотека кодирования : x265 3.5+110-8ee01d45b:[Windows][GCC 13.2.0][64 bit] 10bit
Настройки программы : cpuid=1111039 / frame-threads=3 / numa-pools=8 / wpp / no-pmode / no-pme / no-psnr / no-ssim / log-level=2 / input-csp=1 / input-res=1920x1040 / interlace=0 / total-frames=136800 / level-idc=41 / high-tier=1 / uhd-bd=0 / ref=5 / no-allow-non-conformance / no-repeat-headers / annexb / no-aud / no-eob / no-eos / no-hrd / info / hash=0 / temporal-layers=0 / open-gop / min-keyint=23 / keyint=240 / gop-lookahead=0 / bframes=16 / b-adapt=2 / b-pyramid / bframe-bias=0 / rc-lookahead=60 / lookahead-slices=0 / scenecut=40 / no-hist-scenecut / radl=0 / no-splice / no-intra-refresh / ctu=32 / min-cu-size=8 / rect / amp / max-tu-size=32 / tu-inter-depth=4 / tu-intra-depth=4 / limit-tu=1 / rdoq-level=2 / dynamic-rd=0.00 / no-ssim-rd / signhide / no-tskip / nr-intra=0 / nr-inter=0 / no-constrained-intra / no-strong-intra-smoothing / max-merge=5 / limit-refs=3 / no-limit-modes / me=3 / subme=7 / merange=57 / temporal-mvp / no-frame-dup / no-hme / weightp / weightb / no-analyze-src-pics / deblock=-2:-2 / no-sao / no-sao-non-deblock / rd=6 / selective-sao=0 / no-early-skip / no-rskip / no-fast-intra / no-tskip-fast / no-cu-lossless / b-intra / no-splitrd-skip / rdpenalty=0 / psy-rd=2.00 / psy-rdoq=1.00 / no-rd-refine / no-lossless / cbqpoffs=0 / crqpoffs=0 / rc=crf / crf=21.4 / qcomp=0.60 / qpstep=4 / stats-write=0 / stats-read=0 / vbv-maxrate=50000 / vbv-bufsize=50000 / vbv-init=0.9 / min-vbv-fullness=50.0 / max-vbv-fullness=80.0 / crf-max=0.0 / crf-min=0.0 / ipratio=1.40 / pbratio=1.30 / aq-mode=1 / aq-strength=1.00 / no-cutree / zone-count=1 / zones: / start-frame=130837 / end-frame=136800 / qp=36 / no-strict-cbr / qg-size=32 / no-rc-grain / qpmax=69 / qpmin=0 / no-const-vbv / sar=1 / overscan=0 / videoformat=5 / range=0 / colorprim=2 / transfer=2 / colormatrix=2 / chromaloc=0 / display-window=0 / cll=0,0 / min-luma=0 / max-luma=1023 / log2-max-poc-lsb=8 / vui-timing-info / vui-hrd-info / slices=1 / no-opt-qp-pps / no-opt-ref-list-length-pps / no-multi-pass-opt-rps / scenecut-bias=0.00 / no-opt-cu-delta-qp / no-aq-motion / no-hdr10 / no-hdr10-opt / no-dhdr10-opt / no-idr-recovery-sei / analysis-reuse-level=0 / analysis-save-reuse-level=0 / analysis-load-reuse-level=0 / scale-factor=0 / refine-intra=0 / refine-inter=0 / refine-mv=1 / refine-ctu-distortion=0 / no-limit-sao / ctu-info=0 / no-lowpass-dct / refine-analysis-type=0 / copy-pic=1 / max-ausize-factor=1.0 / no-dynamic-refine / no-single-sei / no-hevc-aq / no-svt / no-field / qp-adaptation-range=1.00 / scenecut-aware-qp=0conformance-window-offsets / right=0 / bottom=0 / decoder-max-rate=0 / no-vbv-live-multi-pass / no-mcstf / no-sbrc
Язык : English
Default : Да
Forced : Нет

Аудио #1
Идентификатор : 2
ID in the original source medium : 4352 (0x1100)
Формат : AC-3
Формат/Информация : Audio Coding 3
Коммерческое название : Dolby Digital
Идентификатор кодека : A_AC3
Продолжительность : 1 ч. 35 м.
Вид битрейта : Постоянный
Битрейт : 192 Кбит/сек
Каналы : 2 канала
Channel layout : L R
Частота : 48,0 КГц
Частота кадров : 31,250 кадров/сек (1536 SPF)
Метод сжатия : С потерями
Размер потока : 131 Мбайт (2%)
Заголовок : MVO
Язык : Russian
Service kind : Complete Main
Default : Да
Forced : Нет
Носитель оригинала : Blu-ray

Аудио #2
Идентификатор : 3
ID in the original source medium : 4353 (0x1101)
Формат : AC-3
Формат/Информация : Audio Coding 3
Коммерческое название : Dolby Digital
Идентификатор кодека : A_AC3
Продолжительность : 1 ч. 35 м.
Вид битрейта : Постоянный
Битрейт : 192 Кбит/сек
Каналы : 2 канала
Channel layout : L R
Частота : 48,0 КГц
Частота кадров : 31,250 кадров/сек (1536 SPF)
Метод сжатия : С потерями
Размер потока : 131 Мбайт (2%)
Заголовок : DVO (НТВ+)
Язык : Russian
Service kind : Complete Main
Default : Нет
Forced : Нет
Носитель оригинала : Blu-ray

Аудио #3
Идентификатор : 4
ID in the original source medium : 4354 (0x1102)
Формат : AC-3
Формат/Информация : Audio Coding 3
Коммерческое название : Dolby Digital
Идентификатор кодека : A_AC3
Продолжительность : 1 ч. 35 м.
Вид битрейта : Постоянный
Битрейт : 192 Кбит/сек
Каналы : 2 канала
Channel layout : L R
Частота : 48,0 КГц
Частота кадров : 31,250 кадров/сек (1536 SPF)
Метод сжатия : С потерями
Размер потока : 131 Мбайт (2%)
Заголовок : DVO (ТВЦ)
Язык : Russian
Service kind : Complete Main
Default : Нет
Forced : Нет
Носитель оригинала : Blu-ray

Аудио #4
Идентификатор : 5
Формат : AC-3
Формат/Информация : Audio Coding 3
Коммерческое название : Dolby Digital
Идентификатор кодека : A_AC3
Продолжительность : 1 ч. 35 м.
Вид битрейта : Постоянный
Битрейт : 640 Кбит/сек
Каналы : 6 каналов
Channel layout : L R C LFE Ls Rs
Частота : 48,0 КГц
Частота кадров : 31,250 кадров/сек (1536 SPF)
Метод сжатия : С потерями
Размер потока : 435 Мбайт (7%)
Заголовок : AVO (Юрий Сербин)
Язык : Russian
Service kind : Complete Main
Default : Нет
Forced : Нет

Аудио #5
Идентификатор : 6
ID in the original source medium : 4356 (0x1104)
Формат : AC-3
Формат/Информация : Audio Coding 3
Коммерческое название : Dolby Digital
Идентификатор кодека : A_AC3
Продолжительность : 1 ч. 35 м.
Вид битрейта : Постоянный
Битрейт : 192 Кбит/сек
Каналы : 2 канала
Channel layout : L R
Частота : 48,0 КГц
Частота кадров : 31,250 кадров/сек (1536 SPF)
Метод сжатия : С потерями
Размер потока : 131 Мбайт (2%)
Заголовок : AVO (Андрей Гаврилов)
Язык : Russian
Service kind : Complete Main
Default : Нет
Forced : Нет
Носитель оригинала : Blu-ray

Аудио #6
Идентификатор : 7
ID in the original source medium : 4357 (0x1105)
Формат : AC-3
Формат/Информация : Audio Coding 3
Коммерческое название : Dolby Digital
Идентификатор кодека : A_AC3
Продолжительность : 1 ч. 35 м.
Вид битрейта : Постоянный
Битрейт : 192 Кбит/сек
Каналы : 2 канала
Channel layout : L R
Частота : 48,0 КГц
Частота кадров : 31,250 кадров/сек (1536 SPF)
Метод сжатия : С потерями
Размер потока : 131 Мбайт (2%)
Заголовок : AVO (Сергей Визгунов)
Язык : Russian
Service kind : Complete Main
Default : Нет
Forced : Нет
Носитель оригинала : Blu-ray

Аудио #7
Идентификатор : 8
ID in the original source medium : 4358 (0x1106)
Формат : AC-3
Формат/Информация : Audio Coding 3
Коммерческое название : Dolby Digital
Идентификатор кодека : A_AC3
Продолжительность : 1 ч. 35 м.
Вид битрейта : Постоянный
Битрейт : 192 Кбит/сек
Каналы : 2 канала
Channel layout : L R
Частота : 48,0 КГц
Частота кадров : 31,250 кадров/сек (1536 SPF)
Метод сжатия : С потерями
Размер потока : 131 Мбайт (2%)
Заголовок : AVO (Александр Кашкин)
Язык : Russian
Service kind : Complete Main
Default : Нет
Forced : Нет
Носитель оригинала : Blu-ray

Аудио #8
Идентификатор : 9
Формат : AC-3
Формат/Информация : Audio Coding 3
Коммерческое название : Dolby Digital
Идентификатор кодека : A_AC3
Продолжительность : 1 ч. 35 м.
Вид битрейта : Постоянный
Битрейт : 640 Кбит/сек
Каналы : 6 каналов
Channel layout : L R C LFE Ls Rs
Частота : 48,0 КГц
Частота кадров : 31,250 кадров/сек (1536 SPF)
Метод сжатия : С потерями
Размер потока : 435 Мбайт (7%)
Язык : English
Service kind : Complete Main
Default : Нет
Forced : Нет

Текст #1
Идентификатор : 10
Формат : UTF-8
Идентификатор кодека : S_TEXT/UTF8
Идентификатор кодека/Информация : UTF-8 Plain Text
Продолжительность : 1 ч. 30 м.
Битрейт : 70 бит/сек
Частота кадров : 0,175 кадр/сек
Count of elements : 945
Размер потока : 46,8 Кбайт (0%)
Язык : Russian
Default : Нет
Forced : Нет

Текст #2
Идентификатор : 11
Формат : UTF-8
Идентификатор кодека : S_TEXT/UTF8
Идентификатор кодека/Информация : UTF-8 Plain Text
Продолжительность : 1 ч. 30 м.
Битрейт : 38 бит/сек
Частота кадров : 0,138 кадр/сек
Count of elements : 745
Размер потока : 25,4 Кбайт (0%)
Заголовок : SDH
Язык : English
Default : Нет
Forced : Нет

Меню
00:00:00.000 : en:Chapter 01
00:07:43.880 : en:Chapter 02
00:15:28.344 : en:Chapter 03
00:21:44.803 : en:Chapter 04
00:30:27.450 : en:Chapter 05
00:39:52.515 : en:Chapter 06
00:46:29.828 : en:Chapter 07
00:55:55.477 : en:Chapter 08
01:06:10.299 : en:Chapter 09
01:13:35.119 : en:Chapter 10
01:19:36.480 : en:Chapter 11
01:28:38.479 : en:Chapter 12
Загрузка...Cкриншот1 Кэндимэн 2: Прощание с плотью / Candyman: Farewell to the Flesh (1995) BDRip 1080p [HEVC] 10 bit от OldGamerЗагрузка...Cкриншот2 Кэндимэн 2: Прощание с плотью / Candyman: Farewell to the Flesh (1995) BDRip 1080p [HEVC] 10 bit от OldGamerЗагрузка...Cкриншот3 Кэндимэн 2: Прощание с плотью / Candyman: Farewell to the Flesh (1995) BDRip 1080p [HEVC] 10 bit от OldGamerЗагрузка...Cкриншот4 Кэндимэн 2: Прощание с плотью / Candyman: Farewell to the Flesh (1995) BDRip 1080p [HEVC] 10 bit от OldGamer
3. Кэндимэн 3: День мертвых / Candyman: Day of the Dead (1999) BDRip 1080p [HEVC] 10 bit от OldGamer
Обложка Кэндимэн 3: День мертвых / Candyman: Day of the Dead (1999) BDRip 1080p [HEVC] 10 bit от OldGamer
HEVC
10 bit
✂︎Сэмпл
Год: 1999
Страна: США
Студия: Artisan Entertainment, Aurora Productions LLC
Жанр: Ужасы, Триллер
Длительность: 01:33:17

Режиссер: Тури Мейер
В ролях: Донна Д’Эррико, Тони Тодд, Алексия Робинсон, Леонардо Гуэрра, Майк Морофф, Марк Адэйр-Риос, Уэйд Уильямс, Роберт О’Рейли, Крис Ван Даль, Рена Риффел

Описание: Кэролайн МакКивер преследуют кошмары. В снах она переносится в ужасное прошлое, где талантливый чернокожий художник совершил расовое преступление - полюбил белую девушку. Разъярённая толпа лишила его руки, вымазала мёдом и отдала его на растерзание диким пчёлам. Через много лет ужасающая история превратилась в легенду о Кэндимэне: если пять раз произнести перед зеркалом «Кэндимэн», то он появится и разорвёт Вас стальным крюком, вонзённым в обрубок руки. И вот кровавое прошлое вырывается из леденящих душу снов в реальность. Зловещий Кэндимэн несёт своё адское возмездие, карая ни в чём не повинных людей. Кэролайн - единственная, кто может остановить древнее зло. Вскоре она встретится лицом к лицу с кошмаром.


Исходник: Blu-Ray Remux 1080p (PmP)
Видео: 1920x1032, 7824 Kbps
Аудио1: AC3, 2 ch, 192 Kbps - РусскийРусский, MVO (Ren TV)
Аудио2: AC3, 2 ch, 224 Kbps - РусскийРусский, AVO (Юрий Сербин)
Аудио3: AC3, 2 ch, 192 Kbps - РусскийРусский, AVO (Александр Кашкин / Первомайский)
Аудио4: AC3, 2 ch, 192 Kbps - АнглийскийАнглийский
Субтитры: русские, английские (SDH)

Как за несколько секунд удалить ненужные аудиодорожки и субтитры (Внимание! После удаления вы не сможете поддержать раздачу)


Лог (x265 info)x265 [info]: frame I: 595, Avg QP:18.06 kb/s: 17180.54
x265 [info]: frame P: 22626, Avg QP:19.43 kb/s: 13916.05
x265 [info]: frame B: 110987, Avg QP:21.36 kb/s: 6530.57
x265 [info]: Weighted P-Frames: Y:12.4% UV:8.5%
x265 [info]: Weighted B-Frames: Y:11.2% UV:5.8%
x265 [info]: encoded 134208 frames in 115840.58s (1.16 fps), 7822.90 kb/s, Avg QP:21.02
МедиаинфоОбщее
Уникальный идентификатор : 243196068949320984282963726543072363776 (0xB6F5DBF18F93AF70A4697787B7998500)
Полное имя : \\.\03.Кэндимэн.3.День.мертвых.Candyman.Day.of.the.Dead.1999.BDRip-HEVC.1080p.mkv
Формат : Matroska
Версия формата : Version 4
Размер файла : 5,62 Гбайт
Продолжительность : 1 ч. 33 м.
Общий поток : 8 628 Кбит/сек
Частота кадров : 23,976 кадра/сек
Название фильма : Кэндимэн 3: День мертвых (видео) / Кэндимэн 3: День мертвых (видео)
Кодирование произвёл : OldGamer
Тип содержимого : Movie
Дата выпуска : 1999-07-09
Дата записи : 1999-07-09
Программа кодирования : mkvmerge v82.0 ('I'm The President') 64-bit
Библиотека кодирования : libebml v1.4.5 + libmatroska v1.7.1 / xvid4psp5
Обложка : Yes
Attachments : cover.jpg
ACTOR : Tony Todd, Donna D'Errico, Alexia Robinson, Mike Moroff, Mark Adair-Rios, Jsu Garcia, Wade Williams, Ernie Hudson Jr., Lupe Ontiveros, Robert O'Reilly, Rena Riffel, Laura Mazur, Elizabeth Hayes, Leonardo Guerra, Chris Van Dahl, Elizabeth Guber, Lomba...
ARTIST : Tony Todd, Donna D'Errico, Alexia Robinson, Mike Moroff, Mark Adair-Rios, Jsu Garcia, Wade Williams, Ernie Hudson Jr., Lupe Ontiveros, Robert O'Reilly, Rena Riffel, Laura Mazur, Elizabeth Hayes, Leonardo Guerra, Chris Van Dahl, Elizabeth Guber, Lomba...
DIRECTOR : Turi Meyer
GENRE : ужасы, триллер
LAW_RATING : R
PRODUCER : William Stuart, Alfredo Septién
PRODUCTION_STUDIO : Artisan Entertainment
RATING : R
SCREENPLAY_BY : Turi Meyer, Alfredo Septién
SYNOPSIS : Кэролайн МакКивер преследуют кошмары. В снах она переносится в ужасное прошлое, где талантливый чернокожий художник совершил расовое преступление — полюбил белую девушку. Разъярённая толпа лишила его руки, вымазала мёдом и отдала его на растерзание диким пчёлам. Через много лет ужасающая история превратилась в легенду о Кэндимэне: если пять раз произнести перед зеркалом «Кэндимэн», то он появится и разорвёт Вас стальным крюком, вонзённым в обрубок руки. И вот кровавое прошлое вырывается из леденящих душу снов в реальность.
WRITTEN_BY : Turi Meyer, Alfredo Septién

Видео
Идентификатор : 1
Формат : HEVC
Формат/Информация : High Efficiency Video Coding
Профиль формата : Main 10@L4.1@High
Идентификатор кодека : V_MPEGH/ISO/HEVC
Продолжительность : 1 ч. 33 м.
Битрейт : 7 824 Кбит/сек
Ширина : 1 920 пикселей
Высота : 1 032 пикселя
Соотношение сторон : 1,85:1
Режим частоты кадров : Постоянный
Частота кадров : 23,976 (24000/1001) кадра/сек
Цветовое пространство : YUV
Субдискретизация насыщенности : 4:2:0
Битовая глубина : 10 бит
Бит/(Пиксели*Кадры) : 0.165
Размер потока : 5,10 Гбайт (91%)
Заголовок : Candyman: Day of the Dead / Rip by OldGamer
Библиотека кодирования : x265 3.5+110-8ee01d45b:[Windows][GCC 13.2.0][64 bit] 10bit
Настройки программы : cpuid=1111039 / frame-threads=3 / numa-pools=8 / wpp / no-pmode / no-pme / no-psnr / no-ssim / log-level=2 / input-csp=1 / input-res=1920x1032 / interlace=0 / total-frames=134208 / level-idc=41 / high-tier=1 / uhd-bd=0 / ref=5 / no-allow-non-conformance / no-repeat-headers / annexb / no-aud / no-eob / no-eos / no-hrd / info / hash=0 / temporal-layers=0 / open-gop / min-keyint=23 / keyint=240 / gop-lookahead=0 / bframes=16 / b-adapt=2 / b-pyramid / bframe-bias=0 / rc-lookahead=60 / lookahead-slices=0 / scenecut=40 / no-hist-scenecut / radl=0 / no-splice / no-intra-refresh / ctu=32 / min-cu-size=8 / rect / amp / max-tu-size=32 / tu-inter-depth=4 / tu-intra-depth=4 / limit-tu=1 / rdoq-level=2 / dynamic-rd=0.00 / no-ssim-rd / signhide / no-tskip / nr-intra=0 / nr-inter=0 / no-constrained-intra / no-strong-intra-smoothing / max-merge=5 / limit-refs=3 / no-limit-modes / me=3 / subme=7 / merange=57 / temporal-mvp / no-frame-dup / no-hme / weightp / weightb / no-analyze-src-pics / deblock=-2:-2 / no-sao / no-sao-non-deblock / rd=6 / selective-sao=0 / no-early-skip / no-rskip / no-fast-intra / no-tskip-fast / no-cu-lossless / b-intra / no-splitrd-skip / rdpenalty=0 / psy-rd=2.00 / psy-rdoq=1.00 / no-rd-refine / no-lossless / cbqpoffs=0 / crqpoffs=0 / rc=crf / crf=20.7 / qcomp=0.60 / qpstep=4 / stats-write=0 / stats-read=0 / vbv-maxrate=50000 / vbv-bufsize=50000 / vbv-init=0.9 / min-vbv-fullness=50.0 / max-vbv-fullness=80.0 / crf-max=0.0 / crf-min=0.0 / ipratio=1.40 / pbratio=1.30 / aq-mode=1 / aq-strength=1.00 / no-cutree / zone-count=1 / zones: / start-frame=128200 / end-frame=134208 / qp=36 / no-strict-cbr / qg-size=32 / no-rc-grain / qpmax=69 / qpmin=0 / no-const-vbv / sar=1 / overscan=0 / videoformat=5 / range=0 / colorprim=2 / transfer=2 / colormatrix=2 / chromaloc=0 / display-window=0 / cll=0,0 / min-luma=0 / max-luma=1023 / log2-max-poc-lsb=8 / vui-timing-info / vui-hrd-info / slices=1 / no-opt-qp-pps / no-opt-ref-list-length-pps / no-multi-pass-opt-rps / scenecut-bias=0.00 / no-opt-cu-delta-qp / no-aq-motion / no-hdr10 / no-hdr10-opt / no-dhdr10-opt / no-idr-recovery-sei / analysis-reuse-level=0 / analysis-save-reuse-level=0 / analysis-load-reuse-level=0 / scale-factor=0 / refine-intra=0 / refine-inter=0 / refine-mv=1 / refine-ctu-distortion=0 / no-limit-sao / ctu-info=0 / no-lowpass-dct / refine-analysis-type=0 / copy-pic=1 / max-ausize-factor=1.0 / no-dynamic-refine / no-single-sei / no-hevc-aq / no-svt / no-field / qp-adaptation-range=1.00 / scenecut-aware-qp=0conformance-window-offsets / right=0 / bottom=0 / decoder-max-rate=0 / no-vbv-live-multi-pass / no-mcstf / no-sbrc
Язык : English
Default : Да
Forced : Нет

Аудио #1
Идентификатор : 2
Формат : AC-3
Формат/Информация : Audio Coding 3
Коммерческое название : Dolby Digital
Идентификатор кодека : A_AC3
Продолжительность : 1 ч. 33 м.
Вид битрейта : Постоянный
Битрейт : 192 Кбит/сек
Каналы : 2 канала
Channel layout : L R
Частота : 48,0 КГц
Частота кадров : 31,250 кадров/сек (1536 SPF)
Метод сжатия : С потерями
Размер потока : 128 Мбайт (2%)
Заголовок : MVO (Ren TV)
Язык : Russian
Service kind : Complete Main
Default : Да
Forced : Нет

Аудио #2
Идентификатор : 3
Формат : AC-3
Формат/Информация : Audio Coding 3
Коммерческое название : Dolby Digital
Идентификатор кодека : A_AC3
Продолжительность : 1 ч. 33 м.
Вид битрейта : Постоянный
Битрейт : 224 Кбит/сек
Каналы : 2 канала
Channel layout : L R
Частота : 48,0 КГц
Частота кадров : 31,250 кадров/сек (1536 SPF)
Метод сжатия : С потерями
Размер потока : 149 Мбайт (3%)
Заголовок : AVO (Юрий Сербин)
Язык : Russian
Service kind : Complete Main
Default : Нет
Forced : Нет

Аудио #3
Идентификатор : 4
Формат : AC-3
Формат/Информация : Audio Coding 3
Коммерческое название : Dolby Digital
Идентификатор кодека : A_AC3
Продолжительность : 1 ч. 33 м.
Вид битрейта : Постоянный
Битрейт : 192 Кбит/сек
Каналы : 2 канала
Channel layout : L R
Частота : 48,0 КГц
Частота кадров : 31,250 кадров/сек (1536 SPF)
Метод сжатия : С потерями
Размер потока : 128 Мбайт (2%)
Заголовок : AVO (Александр Кашкин / Первомайский)
Язык : Russian
Service kind : Complete Main
Default : Нет
Forced : Нет

Аудио #4
Идентификатор : 5
Формат : AC-3
Формат/Информация : Audio Coding 3
Коммерческое название : Dolby Digital
Идентификатор кодека : A_AC3
Продолжительность : 1 ч. 33 м.
Вид битрейта : Постоянный
Битрейт : 192 Кбит/сек
Каналы : 2 канала
Channel layout : L R
Частота : 48,0 КГц
Частота кадров : 31,250 кадров/сек (1536 SPF)
Метод сжатия : С потерями
Размер потока : 128 Мбайт (2%)
Заголовок : Original
Язык : English
Service kind : Complete Main
Default : Нет
Forced : Нет

Текст #1
Идентификатор : 6
Формат : UTF-8
Идентификатор кодека : S_TEXT/UTF8
Идентификатор кодека/Информация : UTF-8 Plain Text
Продолжительность : 1 ч. 28 м.
Битрейт : 60 бит/сек
Частота кадров : 0,171 кадр/сек
Count of elements : 913
Размер потока : 39,3 Кбайт (0%)
Заголовок : full
Язык : Russian
Default : Нет
Forced : Нет

Текст #2
Идентификатор : 7
Формат : UTF-8
Идентификатор кодека : S_TEXT/UTF8
Идентификатор кодека/Информация : UTF-8 Plain Text
Продолжительность : 1 ч. 22 м.
Битрейт : 37 бит/сек
Частота кадров : 0,194 кадр/сек
Count of elements : 966
Размер потока : 22,8 Кбайт (0%)
Заголовок : full
Язык : English
Default : Нет
Forced : Нет

Текст #3
Идентификатор : 8
Формат : UTF-8
Идентификатор кодека : S_TEXT/UTF8
Идентификатор кодека/Информация : UTF-8 Plain Text
Продолжительность : 1 ч. 31 м.
Битрейт : 38 бит/сек
Частота кадров : 0,208 кадр/сек
Count of elements : 1147
Размер потока : 26,0 Кбайт (0%)
Заголовок : SDH
Язык : English
Default : Нет
Forced : Нет

Меню
00:00:00.000 : en:00:00:00.000
00:06:44.404 : en:00:06:44.404
00:11:29.689 : en:00:11:29.689
00:23:06.385 : en:00:23:06.385
00:29:58.797 : en:00:29:58.797
00:39:53.391 : en:00:39:53.391
00:46:49.807 : en:00:46:49.807
00:54:09.246 : en:00:54:09.246
01:01:41.698 : en:01:01:41.698
01:10:22.218 : en:01:10:22.218
01:16:42.598 : en:01:16:42.598
01:29:06.341 : en:01:29:06.341
Загрузка...Cкриншот1 Кэндимэн 3: День мертвых / Candyman: Day of the Dead (1999) BDRip 1080p [HEVC] 10 bit от OldGamerЗагрузка...Cкриншот2 Кэндимэн 3: День мертвых / Candyman: Day of the Dead (1999) BDRip 1080p [HEVC] 10 bit от OldGamerЗагрузка...Cкриншот3 Кэндимэн 3: День мертвых / Candyman: Day of the Dead (1999) BDRip 1080p [HEVC] 10 bit от OldGamerЗагрузка...Cкриншот4 Кэндимэн 3: День мертвых / Candyman: Day of the Dead (1999) BDRip 1080p [HEVC] 10 bit от OldGamer
4. Кэндимен / Candyman (2021) BDRip 1080p [HEVC] 10 bit от OldGamer
Обложка Кэндимен / Candyman (2021) BDRip 1080p [HEVC] 10 bit от OldGamer
HEVC
10 bit
✂︎Сэмпл
Год: 2021
Страна: Канада, США, Австралия
Студия: Bron Studios, Creative Wealth Media Finance, Metro-Goldwyn-Mayer (MGM), Monkeypaw Prodctions, Universal Pictures
Жанр: Ужасы
Длительность: 01:31:01

Режиссер: Ниа ДаКоста
В ролях: Яхья Абдул-Матин II, Тейона Паррис, Нэйтан Стюарт-Джарретт, Колман Доминго, Кайл Каминский, Ванесса Уильямс, Брайан Кинг, Мириам Мосс, Ребекка Спенс, Карл Клемонс-Хопкинс

Описание: В поисках идей молодой художник из Чикаго Энтони Маккой решает изучить историю района, куда он недавно переехал вместе со своей подругой. Исследование знакомит его с пожилым местным жителем, который рассказывает парню о печально известном маньяке Кэндимене, убивающего тех, кто перед зеркалом пять раз произнесёт его имя. Вдохновившись этой историей, Энтони создаёт экспонат для выставки, где после закрытия происходит двойное убийство.


Исходник: Blu-Ray Remux 1080p (LEGi0N)
Видео: 1920x804, 3526 Kbps
Аудио1: AC3, 6 ch, 384 Kbps - РусскийРусский, DUB (iTunes / Пифагор)
Аудио2: AC3, 6 ch, 448 Kbps - РусскийРусский, DVO (Pazl Voice)
Аудио3: AC3, 6 ch, 448 Kbps - АнглийскийАнглийский
Субтитры: русские (full, forced), английские

Как за несколько секунд удалить ненужные аудиодорожки и субтитры (Внимание! После удаления вы не сможете поддержать раздачу)


Лог (x265 info)x265 [info]: frame I: 551, Avg QP:17.62 kb/s: 13161.15
x265 [info]: frame P: 18832, Avg QP:19.01 kb/s: 8367.15
x265 [info]: frame B: 111555, Avg QP:21.63 kb/s: 2660.32
x265 [info]: Weighted P-Frames: Y:9.3% UV:7.7%
x265 [info]: Weighted B-Frames: Y:7.4% UV:5.8%
x265 [info]: encoded 130938 frames in 69310.36s (1.89 fps), 3525.28 kb/s, Avg QP:21.24
МедиаинфоОбщее
Уникальный идентификатор : 310307361449359821683763443235326127030 (0xE9730620CB83391064F29E385DB5EBB6)
Полное имя : \\.\04.Кэндимен.Candyman.2021.BDRip-HEVC.1080p.mkv
Формат : Matroska
Версия формата : Version 4
Размер файла : 3,06 Гбайт
Продолжительность : 1 ч. 31 м.
Общий поток : 4 809 Кбит/сек
Частота кадров : 23,976 кадра/сек
Название фильма : Кэндимен / Кэндимен
Кодирование произвёл : OldGamer
Тип содержимого : Movie
Описание : Просто произнеси его имя
Дата выпуска : 2021-08-25
Дата записи : 2021-08-25
Программа кодирования : mkvmerge v82.0 ('I'm The President') 64-bit
Библиотека кодирования : libebml v1.4.5 + libmatroska v1.7.1 / xvid4psp5
Обложка : Yes
Attachments : cover.jpg
ACTOR : Yahya Abdul-Mateen II, Teyonah Parris, Colman Domingo, Nathan Stewart-Jarrett, Kyle Kaminsky, Vanessa Williams, Brian King, Miriam Moss, Rebecca Spence, Carl Clemons-Hopkins, Christiana Clark, Michael Hargrove, Rodney L Jones III, Ireon Roach, Breann...
ARTIST : Yahya Abdul-Mateen II, Teyonah Parris, Colman Domingo, Nathan Stewart-Jarrett, Kyle Kaminsky, Vanessa Williams, Brian King, Miriam Moss, Rebecca Spence, Carl Clemons-Hopkins, Christiana Clark, Michael Hargrove, Rodney L Jones III, Ireon Roach, Breann...
DIRECTOR : Nia DaCosta
GENRE : ужасы, детектив, триллер
LAW_RATING : R
PRODUCER : Jordan Peele, Win Rosenfeld, Ian Cooper
PRODUCTION_STUDIO : Creative Wealth Media Finance
RATING : R
SCREENPLAY_BY : Jordan Peele, Nia DaCosta, Win Rosenfeld
SUMMARY : Просто произнеси его имя
SYNOPSIS : В поисках идей молодой художник из Чикаго Энтони Маккой решает изучить историю района, куда он недавно переехал вместе со своей подругой. Исследование знакомит его с пожилым местным жителем, который рассказывает парню о печально известном маньяке Кэндимене, убивающего тех, кто перед зеркалом пять раз произнесёт его имя. Вдохновившись этой историей, Энтони создаёт экспонат для выставки, где после закрытия происходит двойное убийство.
WRITTEN_BY : Jordan Peele, Nia DaCosta, Win Rosenfeld

Видео
Идентификатор : 1
Формат : HEVC
Формат/Информация : High Efficiency Video Coding
Профиль формата : Main 10@L4.1@High
Идентификатор кодека : V_MPEGH/ISO/HEVC
Продолжительность : 1 ч. 31 м.
Битрейт : 3 526 Кбит/сек
Ширина : 1 920 пикселей
Высота : 804 пикселя
Соотношение сторон : 2,39:1
Режим частоты кадров : Постоянный
Частота кадров : 23,976 (24000/1001) кадра/сек
Цветовое пространство : YUV
Субдискретизация насыщенности : 4:2:0
Битовая глубина : 10 бит
Бит/(Пиксели*Кадры) : 0.095
Размер потока : 2,24 Гбайт (73%)
Заголовок : Candyman / Rip by OldGamer
Библиотека кодирования : x265 3.5+110-8ee01d45b:[Windows][GCC 13.2.0][64 bit] 10bit
Настройки программы : cpuid=1111039 / frame-threads=3 / numa-pools=8 / wpp / no-pmode / no-pme / no-psnr / no-ssim / log-level=2 / input-csp=1 / input-res=1920x804 / interlace=0 / total-frames=130938 / level-idc=41 / high-tier=1 / uhd-bd=0 / ref=5 / no-allow-non-conformance / no-repeat-headers / annexb / no-aud / no-eob / no-eos / no-hrd / info / hash=0 / temporal-layers=0 / open-gop / min-keyint=23 / keyint=240 / gop-lookahead=0 / bframes=16 / b-adapt=2 / b-pyramid / bframe-bias=0 / rc-lookahead=60 / lookahead-slices=0 / scenecut=40 / no-hist-scenecut / radl=0 / no-splice / no-intra-refresh / ctu=32 / min-cu-size=8 / rect / amp / max-tu-size=32 / tu-inter-depth=4 / tu-intra-depth=4 / limit-tu=1 / rdoq-level=2 / dynamic-rd=0.00 / no-ssim-rd / signhide / no-tskip / nr-intra=0 / nr-inter=0 / no-constrained-intra / no-strong-intra-smoothing / max-merge=5 / limit-refs=3 / no-limit-modes / me=3 / subme=7 / merange=57 / temporal-mvp / no-frame-dup / no-hme / weightp / weightb / no-analyze-src-pics / deblock=-2:-2 / no-sao / no-sao-non-deblock / rd=6 / selective-sao=0 / no-early-skip / no-rskip / no-fast-intra / no-tskip-fast / no-cu-lossless / b-intra / no-splitrd-skip / rdpenalty=0 / psy-rd=2.00 / psy-rdoq=1.00 / no-rd-refine / no-lossless / cbqpoffs=0 / crqpoffs=0 / rc=crf / crf=21.0 / qcomp=0.60 / qpstep=4 / stats-write=0 / stats-read=0 / vbv-maxrate=50000 / vbv-bufsize=50000 / vbv-init=0.9 / min-vbv-fullness=50.0 / max-vbv-fullness=80.0 / crf-max=0.0 / crf-min=0.0 / ipratio=1.40 / pbratio=1.30 / aq-mode=1 / aq-strength=1.00 / no-cutree / zone-count=1 / zones: / start-frame=123916 / end-frame=130938 / qp=36 / no-strict-cbr / qg-size=32 / no-rc-grain / qpmax=69 / qpmin=0 / no-const-vbv / sar=1 / overscan=0 / videoformat=5 / range=0 / colorprim=2 / transfer=2 / colormatrix=2 / chromaloc=0 / display-window=0 / cll=0,0 / min-luma=0 / max-luma=1023 / log2-max-poc-lsb=8 / vui-timing-info / vui-hrd-info / slices=1 / no-opt-qp-pps / no-opt-ref-list-length-pps / no-multi-pass-opt-rps / scenecut-bias=0.00 / no-opt-cu-delta-qp / no-aq-motion / no-hdr10 / no-hdr10-opt / no-dhdr10-opt / no-idr-recovery-sei / analysis-reuse-level=0 / analysis-save-reuse-level=0 / analysis-load-reuse-level=0 / scale-factor=0 / refine-intra=0 / refine-inter=0 / refine-mv=1 / refine-ctu-distortion=0 / no-limit-sao / ctu-info=0 / no-lowpass-dct / refine-analysis-type=0 / copy-pic=1 / max-ausize-factor=1.0 / no-dynamic-refine / no-single-sei / no-hevc-aq / no-svt / no-field / qp-adaptation-range=1.00 / scenecut-aware-qp=0conformance-window-offsets / right=0 / bottom=0 / decoder-max-rate=0 / no-vbv-live-multi-pass / no-mcstf / no-sbrc
Язык : English
Default : Да
Forced : Нет

Аудио #1
Идентификатор : 2
Формат : AC-3
Формат/Информация : Audio Coding 3
Коммерческое название : Dolby Digital
Идентификатор кодека : A_AC3
Продолжительность : 1 ч. 31 м.
Вид битрейта : Постоянный
Битрейт : 384 Кбит/сек
Каналы : 6 каналов
Channel layout : L R C LFE Ls Rs
Частота : 48,0 КГц
Частота кадров : 31,250 кадров/сек (1536 SPF)
Метод сжатия : С потерями
Размер потока : 250 Мбайт (8%)
Заголовок : DUB (iTunes / Пифагор)
Язык : Russian
Service kind : Complete Main
Default : Да
Forced : Нет

Аудио #2
Идентификатор : 3
Формат : AC-3
Формат/Информация : Audio Coding 3
Коммерческое название : Dolby Digital
Идентификатор кодека : A_AC3
Продолжительность : 1 ч. 31 м.
Вид битрейта : Постоянный
Битрейт : 448 Кбит/сек
Каналы : 6 каналов
Channel layout : L R C LFE Ls Rs
Частота : 48,0 КГц
Частота кадров : 31,250 кадров/сек (1536 SPF)
Метод сжатия : С потерями
Размер потока : 292 Мбайт (9%)
Заголовок : DVO (Pazl Voice)
Язык : Russian
Service kind : Complete Main
Default : Нет
Forced : Нет

Аудио #3
Идентификатор : 4
ID in the original source medium : 4352 (0x1100)
Формат : AC-3
Формат/Информация : Audio Coding 3
Коммерческое название : Dolby Digital
Идентификатор кодека : A_AC3
Продолжительность : 1 ч. 31 м.
Вид битрейта : Постоянный
Битрейт : 448 Кбит/сек
Каналы : 6 каналов
Channel layout : L R C LFE Ls Rs
Частота : 48,0 КГц
Частота кадров : 31,250 кадров/сек (1536 SPF)
Метод сжатия : С потерями
Размер потока : 292 Мбайт (9%)
Язык : English
Service kind : Complete Main
Default : Нет
Forced : Нет
Носитель оригинала : Blu-ray

Текст #1
Идентификатор : 5
Формат : UTF-8
Идентификатор кодека : S_TEXT/UTF8
Идентификатор кодека/Информация : UTF-8 Plain Text
Продолжительность : 1 ч. 24 м.
Битрейт : 0 бит/сек
Частота кадров : 0,002 кадр/сек
Count of elements : 9
Размер потока : 384 байт (0%)
Заголовок : forced
Язык : Russian
Default : Да
Forced : Нет

Текст #2
Идентификатор : 6
Формат : UTF-8
Идентификатор кодека : S_TEXT/UTF8
Идентификатор кодека/Информация : UTF-8 Plain Text
Продолжительность : 1 ч. 24 м.
Битрейт : 77 бит/сек
Частота кадров : 0,199 кадр/сек
Count of elements : 1011
Размер потока : 48,5 Кбайт (0%)
Заголовок : iTunes
Язык : Russian
Default : Нет
Forced : Нет

Текст #3
Идентификатор : 7
Формат : UTF-8
Идентификатор кодека : S_TEXT/UTF8
Идентификатор кодека/Информация : UTF-8 Plain Text
Продолжительность : 1 ч. 24 м.
Битрейт : 80 бит/сек
Частота кадров : 0,193 кадр/сек
Count of elements : 981
Размер потока : 50,1 Кбайт (0%)
Язык : Russian
Default : Нет
Forced : Нет

Текст #4
Идентификатор : 8
Формат : UTF-8
Идентификатор кодека : S_TEXT/UTF8
Идентификатор кодека/Информация : UTF-8 Plain Text
Продолжительность : 1 ч. 24 м.
Битрейт : 48 бит/сек
Частота кадров : 0,189 кадр/сек
Count of elements : 958
Размер потока : 29,9 Кбайт (0%)
Язык : English
Default : Нет
Forced : Нет

Меню
00:00:00.000 : en:Chapter 01
00:06:34.269 : en:Chapter 02
00:12:45.515 : en:Chapter 03
00:18:00.621 : en:Chapter 04
00:21:03.888 : en:Chapter 05
00:24:59.915 : en:Chapter 06
00:30:13.311 : en:Chapter 07
00:34:37.117 : en:Chapter 08
00:38:23.760 : en:Chapter 09
00:41:22.772 : en:Chapter 10
00:46:14.480 : en:Chapter 11
00:49:43.647 : en:Chapter 12
00:53:53.313 : en:Chapter 13
00:57:36.870 : en:Chapter 14
01:00:56.027 : en:Chapter 15
01:03:32.434 : en:Chapter 16
01:08:56.132 : en:Chapter 17
01:13:33.034 : en:Chapter 18
01:20:20.399 : en:Chapter 19
01:26:08.330 : en:Chapter 20
Загрузка...Cкриншот1 Кэндимен / Candyman (2021) BDRip 1080p [HEVC] 10 bit от OldGamerЗагрузка...Cкриншот2 Кэндимен / Candyman (2021) BDRip 1080p [HEVC] 10 bit от OldGamerЗагрузка...Cкриншот3 Кэндимен / Candyman (2021) BDRip 1080p [HEVC] 10 bit от OldGamerЗагрузка...Cкриншот4 Кэндимен / Candyman (2021) BDRip 1080p [HEVC] 10 bit от OldGamer

Поблагодарили: 8and50, Antilord90, Brooklyn, han-nik, Kiran, maxim2201, SergKote, sharkey71
Файлы: 4
  • Candyman
    • 10.94 ГБ01.Кэндимэн.Candyman.1992.Remastered.BDRip-HEVC.1080p.mkv
    • 6.3 ГБ02.Кэндимэн.2.Прощание.с.плотью.Candyman.Farewell.to.the.Flesh.1995.BDRip-HEVC.1080p.mkv
    • 5.62 ГБ03.Кэндимэн.3.День.мертвых.Candyman.Day.of.the.Dead.1999.BDRip-HEVC.1080p.mkv
    • 3.06 ГБ04.Кэндимен.Candyman.2021.BDRip-HEVC.1080p.mkv

Рейтинги КП и IMDB, кнопки "Раздайте, пожалуйста" и "Спасибо", а также мультитрекерная статистика доступны только зарегистрированным/авторизованным пользователям!

OldGamer
62820(4) 25.92 ГБ

💬︎ Комментарии

Добавление комментариев доступно только зарегистрированным/авторизованным пользователям.