💬 Мини-чат

Для тех, кому интересен процесс переделки сайта - https://rips.club/changelog.html (обновлен 20.04.2024)
  • Kiran
  • z1M4p9i0
Отправка сообщений доступна только зарегистрированным/авторизованным пользователям.
Онлайн (за 10 мин.): 2

Пиджак / The Jacket (2005) BDRip 1080p [HEVC] 10 bit от OldGamer (RG RIPS CLUB)

HEVC
10 bit
Обложка Пиджак / The Jacket (2005) BDRip 1080p [HEVC] 10 bit от OldGamer (RG RIPS CLUB) Год: 2005
Страна: США, Германия
Студия: 2929 Productions, Mandalay Pictures, Rising Star, Section Eight Ltd., VIP 2 Medienfonds, VIP 3 Medienfonds, Warner Independent Pictures
Жанр: Триллер, Фантастика, Детектив, Драма
Продолжительность: 01:42:55

Режиссер: Джон Мэйбери
В ролях: Эдриан Броуди, Кира Найтли, Крис Кристофферсон, Дженнифер Джейсон Ли, Келли Линч, Брэд Ренфро, Дэниэл Крэйг, Стивен Макинтош, Брендан Койл, МакКензи Филлипс

Описание: Ветеран войны в Персидском заливе Джек Старкс поправляется после ранения в голову. Он возвращается в родной штат Вермонт, но ранение даёт о себе знать приступами амнезии. Когда Старкса обвиняют в убийстве полицейского, его направляют на психиатрическую экспертизу. Доктор Беккер использует экспериментальные методы лечения, вводя Старксу новейшие препараты. После инъекций Старксу надевают смирительную рубашку и помещают в подвал. В наркотическом опьянении мысли Старкса устремляются в будущее, где он встречает Джеки и узнаёт, что ему осталось жить четыре дня. Вместе с Джеки он ищет возможность убежать от судьбы.


Исходник: Blu-Ray Remux 1080p (kinozal)
Видео: 1920x792, 6472 Kbps
Аудио1: AC3, 6 ch, 640 Kbps - РусскийРусский, DUB (Мосфильм-Мастер)
Аудио2: AC3, 5 ch, 640 Kbps - РусскийРусский, MVO (CP Digital)
Аудио3: AC3, 5 ch, 640 Kbps - РусскийРусский, MVO (LDV)
Аудио4: AC3, 6 ch, 640 Kbps - РусскийРусский, DVO (Tycoon-Studio)
Аудио5: AC3, 6 ch, 640 Kbps - РусскийРусский, AVO (Юрий Живов)
Аудио6: AC3, 6 ch, 640 Kbps - РусскийРусский, AVO (Антон Карповский / Боровой) v.2
Аудио7: AC3, 5 ch, 640 Kbps - РусскийРусский, AVO (Антон Карповский / Боровой) v.1
Аудио8: AC3, 6 ch, 640 Kbps - РусскийРусский, VO (Данис Нурмухаметов)
Аудио9: AC3, 6 ch, 640 Kbps - УкраинскийУкраинский, MVO (Так Треба Продакшн)
Аудио10: AC3, 6 ch, 640 Kbps - АнглийскийАнглийский
Субтитры: русские (full, forced), украинские, английские

Как за пару секунд удалить ненужные аудиодорожки и субтитры (Внимание! После удаления вы не сможете поддержать раздачу)

Лог (x265 info)
x265 [info]: frame I: 630, Avg QP:17.64 kb/s: 15648.63
x265 [info]: frame P: 24715, Avg QP:18.97 kb/s: 11303.90
x265 [info]: frame B: 122686, Avg QP:21.61 kb/s: 5450.19
x265 [info]: Weighted P-Frames: Y:10.7% UV:8.2%
x265 [info]: Weighted B-Frames: Y:10.2% UV:6.3%
x265 [info]: encoded 148031 frames in 95825.46s (1.54 fps), 6470.92 kb/s, Avg QP:21.15
Медиаинфо
Общее
Уникальный идентификатор : 247010461712404564308578512404023634301 (0xB9D47C06CEE0FF2EAF0A781BD4CC697D)
Полное имя : \\.\Пиджак.The.Jacket.2005.BDRip-HEVC.1080p.mkv
Формат : Matroska
Версия формата : Version 4
Размер файла : 9,26 Гбайт
Продолжительность : 1 ч. 42 м.
Общий поток : 12,9 Мбит/сек
Частота кадров : 23,976 кадра/сек
Название фильма : Пиджак / Пиджак
Кодирование произвёл : OldGamer
Тип содержимого : Movie
Дата выпуска : 2005-03-04
Дата записи : 2005-03-04
Программа кодирования : mkvmerge v82.0 ('I'm The President') 64-bit
Библиотека кодирования : libebml v1.4.5 + libmatroska v1.7.1 / xvid4psp5
Обложка : Yes
Attachments : cover.jpg
ACTOR : Adrien Brody, Keira Knightley, Kris Kristofferson, Jennifer Jason Leigh, Kelly Lynch, Brad Renfro, Daniel Craig, Angel Coulby, Steven Mackintosh, Brendan Coyle, Mackenzie Phillips, Laura Marano, Jason Lewis, Richard Dillane, Jonah Lotan, Nigel Whitme...
ARTIST : Adrien Brody, Keira Knightley, Kris Kristofferson, Jennifer Jason Leigh, Kelly Lynch, Brad Renfro, Daniel Craig, Angel Coulby, Steven Mackintosh, Brendan Coyle, Mackenzie Phillips, Laura Marano, Jason Lewis, Richard Dillane, Jonah Lotan, Nigel Whitme...
DIRECTOR : John Maybury
GENRE : триллер, детектив, драма, фантастика, фэнтези
LAW_RATING : R
PRODUCER : George Clooney, Steven Soderbergh, Peter Guber
PRODUCTION_STUDIO : 2929 Entertainment
RATING : R
SCREENPLAY_BY : Massy Tadjedin
SYNOPSIS : В 1991 году в Ираке американский солдат Джек Старкс встретился с местным подростком и получил от пацана пулю в голову. Врачи спасли Джеку жизнь, но от страшных последствий почти смертельного ранения уберечь не смогли: после дембеля начались у солдата такие глюки, что загремел он в психушку к доктору Томасу Беккеру. Этот доктор был известен тем, что назначал своим пациентам интенсивный курс лечения с помощью различных экспериментальных препаратов. Препарат произвел побочный эффект: Старкс увидел будущее…
WRITTEN_BY : Massy Tadjedin

Видео
Идентификатор : 1
Формат : HEVC
Формат/Информация : High Efficiency Video Coding
Профиль формата : Main 10@L4.1@High
Идентификатор кодека : V_MPEGH/ISO/HEVC
Продолжительность : 1 ч. 42 м.
Битрейт : 6 472 Кбит/сек
Ширина : 1 920 пикселей
Высота : 792 пикселя
Соотношение сторон : 2,40:1
Режим частоты кадров : Постоянный
Частота кадров : 23,976 (24000/1001) кадра/сек
Цветовое пространство : YUV
Субдискретизация насыщенности : 4:2:0
Битовая глубина : 10 бит
Бит/(Пиксели*Кадры) : 0.178
Размер потока : 4,65 Гбайт (50%)
Заголовок : The Jacket / Rip by OldGamer
Библиотека кодирования : x265 3.5+110-8ee01d45b:[Windows][GCC 13.2.0][64 bit] 10bit
Настройки программы : cpuid=1111039 / frame-threads=3 / numa-pools=8 / wpp / no-pmode / no-pme / no-psnr / no-ssim / log-level=2 / input-csp=1 / input-res=1920x792 / interlace=0 / total-frames=148031 / level-idc=41 / high-tier=1 / uhd-bd=0 / ref=5 / no-allow-non-conformance / no-repeat-headers / annexb / no-aud / no-eob / no-eos / no-hrd / info / hash=0 / temporal-layers=0 / open-gop / min-keyint=23 / keyint=240 / gop-lookahead=0 / bframes=16 / b-adapt=2 / b-pyramid / bframe-bias=0 / rc-lookahead=60 / lookahead-slices=0 / scenecut=40 / no-hist-scenecut / radl=0 / no-splice / no-intra-refresh / ctu=32 / min-cu-size=8 / rect / amp / max-tu-size=32 / tu-inter-depth=4 / tu-intra-depth=4 / limit-tu=1 / rdoq-level=2 / dynamic-rd=0.00 / no-ssim-rd / signhide / no-tskip / nr-intra=0 / nr-inter=0 / no-constrained-intra / no-strong-intra-smoothing / max-merge=5 / limit-refs=3 / no-limit-modes / me=3 / subme=7 / merange=57 / temporal-mvp / no-frame-dup / no-hme / weightp / weightb / no-analyze-src-pics / deblock=-2:-2 / no-sao / no-sao-non-deblock / rd=6 / selective-sao=0 / no-early-skip / no-rskip / no-fast-intra / no-tskip-fast / no-cu-lossless / b-intra / no-splitrd-skip / rdpenalty=0 / psy-rd=2.00 / psy-rdoq=1.00 / no-rd-refine / no-lossless / cbqpoffs=0 / crqpoffs=0 / rc=crf / crf=20.2 / qcomp=0.60 / qpstep=4 / stats-write=0 / stats-read=0 / vbv-maxrate=50000 / vbv-bufsize=50000 / vbv-init=0.9 / min-vbv-fullness=50.0 / max-vbv-fullness=80.0 / crf-max=0.0 / crf-min=0.0 / ipratio=1.40 / pbratio=1.30 / aq-mode=1 / aq-strength=1.00 / no-cutree / zone-count=1 / zones: / start-frame=140801 / end-frame=148031 / qp=36 / no-strict-cbr / qg-size=32 / no-rc-grain / qpmax=69 / qpmin=0 / no-const-vbv / sar=1 / overscan=0 / videoformat=5 / range=0 / colorprim=2 / transfer=2 / colormatrix=2 / chromaloc=0 / display-window=0 / cll=0,0 / min-luma=0 / max-luma=1023 / log2-max-poc-lsb=8 / vui-timing-info / vui-hrd-info / slices=1 / no-opt-qp-pps / no-opt-ref-list-length-pps / no-multi-pass-opt-rps / scenecut-bias=0.00 / no-opt-cu-delta-qp / no-aq-motion / no-hdr10 / no-hdr10-opt / no-dhdr10-opt / no-idr-recovery-sei / analysis-reuse-level=0 / analysis-save-reuse-level=0 / analysis-load-reuse-level=0 / scale-factor=0 / refine-intra=0 / refine-inter=0 / refine-mv=1 / refine-ctu-distortion=0 / no-limit-sao / ctu-info=0 / no-lowpass-dct / refine-analysis-type=0 / copy-pic=1 / max-ausize-factor=1.0 / no-dynamic-refine / no-single-sei / no-hevc-aq / no-svt / no-field / qp-adaptation-range=1.00 / scenecut-aware-qp=0conformance-window-offsets / right=0 / bottom=0 / decoder-max-rate=0 / no-vbv-live-multi-pass / no-mcstf / no-sbrc
Язык : English
Default : Да
Forced : Нет

Аудио #1
Идентификатор : 2
Формат : AC-3
Формат/Информация : Audio Coding 3
Коммерческое название : Dolby Digital
Идентификатор кодека : A_AC3
Продолжительность : 1 ч. 42 м.
Вид битрейта : Постоянный
Битрейт : 640 Кбит/сек
Каналы : 6 каналов
Channel layout : L R C LFE Ls Rs
Частота : 48,0 КГц
Частота кадров : 31,250 кадров/сек (1536 SPF)
Метод сжатия : С потерями
Размер потока : 471 Мбайт (5%)
Заголовок : DUB (Мосфильм-Мастер)
Язык : Russian
Service kind : Complete Main
Default : Да
Forced : Нет

Аудио #2
Идентификатор : 3
Формат : AC-3
Формат/Информация : Audio Coding 3
Коммерческое название : Dolby Digital
Идентификатор кодека : A_AC3
Продолжительность : 1 ч. 42 м.
Вид битрейта : Постоянный
Битрейт : 640 Кбит/сек
Каналы : 5 каналов
Channel layout : L R LFE Ls Rs
Частота : 48,0 КГц
Частота кадров : 31,250 кадров/сек (1536 SPF)
Метод сжатия : С потерями
Размер потока : 471 Мбайт (5%)
Заголовок : MVO (CP Digital)
Язык : Russian
Service kind : Complete Main
Default : Нет
Forced : Нет

Аудио #3
Идентификатор : 4
Формат : AC-3
Формат/Информация : Audio Coding 3
Коммерческое название : Dolby Digital
Идентификатор кодека : A_AC3
Продолжительность : 1 ч. 42 м.
Вид битрейта : Постоянный
Битрейт : 640 Кбит/сек
Каналы : 5 каналов
Channel layout : L R LFE Ls Rs
Частота : 48,0 КГц
Частота кадров : 31,250 кадров/сек (1536 SPF)
Метод сжатия : С потерями
Размер потока : 471 Мбайт (5%)
Заголовок : MVO (LDV)
Язык : Russian
Service kind : Complete Main
Default : Нет
Forced : Нет

Аудио #4
Идентификатор : 5
Формат : AC-3
Формат/Информация : Audio Coding 3
Коммерческое название : Dolby Digital
Идентификатор кодека : A_AC3
Продолжительность : 1 ч. 42 м.
Вид битрейта : Постоянный
Битрейт : 640 Кбит/сек
Каналы : 6 каналов
Channel layout : L R C LFE Ls Rs
Частота : 48,0 КГц
Частота кадров : 31,250 кадров/сек (1536 SPF)
Метод сжатия : С потерями
Размер потока : 471 Мбайт (5%)
Заголовок : DVO (Tycoon-Studio)
Язык : Russian
Service kind : Complete Main
Default : Нет
Forced : Нет

Аудио #5
Идентификатор : 6
Формат : AC-3
Формат/Информация : Audio Coding 3
Коммерческое название : Dolby Digital
Идентификатор кодека : A_AC3
Продолжительность : 1 ч. 42 м.
Вид битрейта : Постоянный
Битрейт : 640 Кбит/сек
Каналы : 6 каналов
Channel layout : L R C LFE Ls Rs
Частота : 48,0 КГц
Частота кадров : 31,250 кадров/сек (1536 SPF)
Метод сжатия : С потерями
Размер потока : 471 Мбайт (5%)
Заголовок : AVO (Юрий Живов)
Язык : Russian
Service kind : Complete Main
Default : Нет
Forced : Нет

Аудио #6
Идентификатор : 7
Формат : AC-3
Формат/Информация : Audio Coding 3
Коммерческое название : Dolby Digital
Идентификатор кодека : A_AC3
Продолжительность : 1 ч. 42 м.
Вид битрейта : Постоянный
Битрейт : 640 Кбит/сек
Каналы : 6 каналов
Channel layout : L R C LFE Ls Rs
Частота : 48,0 КГц
Частота кадров : 31,250 кадров/сек (1536 SPF)
Метод сжатия : С потерями
Размер потока : 471 Мбайт (5%)
Заголовок : AVO (Антон Карповский / Боровой) v.2
Язык : Russian
Service kind : Complete Main
Default : Нет
Forced : Нет

Аудио #7
Идентификатор : 8
Формат : AC-3
Формат/Информация : Audio Coding 3
Коммерческое название : Dolby Digital
Идентификатор кодека : A_AC3
Продолжительность : 1 ч. 42 м.
Вид битрейта : Постоянный
Битрейт : 640 Кбит/сек
Каналы : 5 каналов
Channel layout : L R LFE Ls Rs
Частота : 48,0 КГц
Частота кадров : 31,250 кадров/сек (1536 SPF)
Метод сжатия : С потерями
Размер потока : 471 Мбайт (5%)
Заголовок : AVO (Антон Карповский / Боровой) v.1
Язык : Russian
Service kind : Complete Main
Default : Нет
Forced : Нет

Аудио #8
Идентификатор : 9
Формат : AC-3
Формат/Информация : Audio Coding 3
Коммерческое название : Dolby Digital
Идентификатор кодека : A_AC3
Продолжительность : 1 ч. 42 м.
Вид битрейта : Постоянный
Битрейт : 640 Кбит/сек
Каналы : 6 каналов
Channel layout : L R C LFE Ls Rs
Частота : 48,0 КГц
Частота кадров : 31,250 кадров/сек (1536 SPF)
Метод сжатия : С потерями
Размер потока : 471 Мбайт (5%)
Заголовок : VO (Данис Нурмухаметов)
Язык : Russian
Service kind : Complete Main
Default : Нет
Forced : Нет

Аудио #9
Идентификатор : 10
Формат : AC-3
Формат/Информация : Audio Coding 3
Коммерческое название : Dolby Digital
Идентификатор кодека : A_AC3
Продолжительность : 1 ч. 42 м.
Вид битрейта : Постоянный
Битрейт : 640 Кбит/сек
Каналы : 6 каналов
Channel layout : L R C LFE Ls Rs
Частота : 48,0 КГц
Частота кадров : 31,250 кадров/сек (1536 SPF)
Метод сжатия : С потерями
Размер потока : 471 Мбайт (5%)
Заголовок : MVO (Так Треба Продакшн)
Язык : Ukrainian
Service kind : Complete Main
Default : Нет
Forced : Нет

Аудио #10
Идентификатор : 11
Формат : AC-3
Формат/Информация : Audio Coding 3
Коммерческое название : Dolby Digital
Идентификатор кодека : A_AC3
Продолжительность : 1 ч. 42 м.
Вид битрейта : Постоянный
Битрейт : 640 Кбит/сек
Каналы : 6 каналов
Channel layout : L R C LFE Ls Rs
Частота : 48,0 КГц
Частота кадров : 31,250 кадров/сек (1536 SPF)
Метод сжатия : С потерями
Размер потока : 471 Мбайт (5%)
Язык : English
Service kind : Complete Main
Default : Нет
Forced : Нет

Текст #1
Идентификатор : 12
Формат : UTF-8
Идентификатор кодека : S_TEXT/UTF8
Идентификатор кодека/Информация : UTF-8 Plain Text
Продолжительность : 1 ч. 34 м.
Битрейт : 2 бит/сек
Частота кадров : 0,004 кадр/сек
Count of elements : 20
Размер потока : 1,48 Кбайт (0%)
Заголовок : Forced
Язык : Russian
Default : Да
Forced : Нет

Текст #2
Идентификатор : 13
Формат : UTF-8
Идентификатор кодека : S_TEXT/UTF8
Идентификатор кодека/Информация : UTF-8 Plain Text
Продолжительность : 1 ч. 34 м.
Битрейт : 75 бит/сек
Частота кадров : 0,181 кадр/сек
Count of elements : 1029
Размер потока : 52,4 Кбайт (0%)
Заголовок : full R5
Язык : Russian
Default : Нет
Forced : Нет

Текст #3
Идентификатор : 14
Формат : UTF-8
Идентификатор кодека : S_TEXT/UTF8
Идентификатор кодека/Информация : UTF-8 Plain Text
Продолжительность : 1 ч. 34 м.
Битрейт : 72 бит/сек
Частота кадров : 0,164 кадр/сек
Count of elements : 925
Размер потока : 49,6 Кбайт (0%)
Заголовок : full Tycoon - Studio
Язык : Russian
Default : Нет
Forced : Нет

Текст #4
Идентификатор : 15
Формат : UTF-8
Идентификатор кодека : S_TEXT/UTF8
Идентификатор кодека/Информация : UTF-8 Plain Text
Продолжительность : 1 ч. 34 м.
Битрейт : 72 бит/сек
Частота кадров : 0,180 кадр/сек
Count of elements : 1027
Размер потока : 50,7 Кбайт (0%)
Заголовок : full
Язык : Ukrainian
Default : Нет
Forced : Нет

Текст #5
Идентификатор : 16
Формат : UTF-8
Идентификатор кодека : S_TEXT/UTF8
Идентификатор кодека/Информация : UTF-8 Plain Text
Продолжительность : 1 ч. 34 м.
Битрейт : 48 бит/сек
Частота кадров : 0,168 кадр/сек
Count of elements : 951
Размер потока : 33,6 Кбайт (0%)
Заголовок : full
Язык : English
Default : Нет
Forced : Нет

Меню
00:00:00.000 : en:01. Вступление
00:01:44.000 : en:02. Когда я впервые умер
00:03:44.599 : en:03. Помощь на дороге
00:07:10.805 : en:04. Помещен в больницу
00:12:29.248 : en:05. Видение в морге
00:16:41.417 : en:06. Встреча с Маккензи
00:19:28.584 : en:07. Второй раунд
00:22:50.828 : en:08. Сочельник с Джеки
00:27:10.212 : en:09. Джек роется в вещах
00:30:38.378 : en:10. Разве ты меня не помнишь?
00:35:53.360 : en:11. Я не потная крыса
00:38:28.806 : en:12. Где медицина бессильна
00:43:26.813 : en:13. Другой человек
00:46:23.406 : en:14. У Беккера насчет тебя где-то зудит
00:51:16.991 : en:15. Сумасшедшая
00:56:20.627 : en:16. Удар по голове
00:59:24.728 : en:17. Мы знакомы?
01:01:49.539 : en:18. Его могила
01:04:44.464 : en:19. Всякий бы нервничал?
01:09:45.723 : en:20. Встреча с призраком
01:15:02.289 : en:21. Мы будем преследовать тебя!
01:17:59.091 : en:22. Прорыв
01:21:42.314 : en:23. В гостях у Джин и Джеки
01:27:48.513 : en:24. Жизнь после смерти
01:32:45.185 : en:25. Теперь гораздо лучше
01:35:29.724 : en:26. Финальные титры
Загрузка...Cкриншот1 Пиджак / The Jacket (2005) BDRip 1080p [HEVC] 10 bit от OldGamer (RG RIPS CLUB)Загрузка...Cкриншот2 Пиджак / The Jacket (2005) BDRip 1080p [HEVC] 10 bit от OldGamer (RG RIPS CLUB)Загрузка...Cкриншот3 Пиджак / The Jacket (2005) BDRip 1080p [HEVC] 10 bit от OldGamer (RG RIPS CLUB)Загрузка...Cкриншот4 Пиджак / The Jacket (2005) BDRip 1080p [HEVC] 10 bit от OldGamer (RG RIPS CLUB)
Релиз-группа: RIPS CLUB
Сэмпл Торрент🧲 Магнет

Рейтинги КП и IMDB, кнопки "Позвать в чате" и "Спасибо", а также мультитрекерная статистика доступны только зарегистрированным/авторизованным пользователям!

Файлы: 1
  • Пиджак.The.Jacket.2005.BDRip-HEVC.1080p.mkv   9.26 ГБ
Поблагодарили: 8
and50, AndresUA, aquarius, Brooklyn, donadar, ExoticDeer, stickstoff, Winsent
OldGamer
3156909.26 ГБ

Добавление нового комментария

Добавление комментариев доступно только зарегистрированным/авторизованным пользователям.
Аватар OldGamer
  OldGamer  
Niflung писал(а):
OldGamer

Приветствую. Можешь в итоге ответить есть ли микрофризы с пропуском кадров?
Есть. Причину не установил ещё.
Аватар не указан
  Niflung  
OldGamer

Приветствую. Можешь в итоге ответить есть ли микрофризы с пропуском кадров?
Аватар не указан
  ss307  
Заметил косяк. Периодически возникают микрофризы с пропуском кадров. Например в интервале 10:35-10:37. В исходнике или иных рипах подобного нет.