💬 Мини-чат

Для тех, кому интересен процесс переделки сайта - https://rips.club/changelog.html (обновлен 20.04.2024)
  • Roman1312
Отправка сообщений доступна только зарегистрированным/авторизованным пользователям.
Онлайн (за 10 мин.): 1

Приглашение к убийству / Invitation to a Murder (2023) BDRip 1080p [HEVC] 10 bit от OldGamer (RG RIPS CLUB)

HEVC
10 bit
Обложка Приглашение к убийству / Invitation to a Murder (2023) BDRip 1080p [HEVC] 10 bit от OldGamer (RG RIPS CLUB) Год: 2023
Страна: Франция
Студия: ACE Entertainment, Ari Productions
Жанр: Триллер, Детектив
Продолжительность: 01:32:28

Режиссер: Стивен Шимек
В ролях: Миша Бартон, Крис Браунинг, Бьянка А. Сантос, Джиллз Мэттхи, Грэйс Линн Кунг, Шеймус Девер, Джеймс Урбаняк, Эми Слоун, Алекс Хайд-Вайт, Кларк Кармайкл

Описание: 1934 год. Южная Англия. 28-летняя цветочница Миранда и пять других не связанных между собой людей оказываются приглашены на выходные в особняк миллиардера Льюиса Финдли.


Исходник: Blu-Ray Remux 1080p (rutracker)
Видео: 1920x800, 5268 Kbps
Аудио1: AC3, 6 ch, 448 Kbps - РусскийРусский, DUB (Студия Позитив)
Аудио2: AC3, 6 ch, 448 Kbps - АнглийскийАнглийский
Субтитры: русские, французские, английские (SDH)

Как за пару секунд удалить ненужные аудиодорожки и субтитры (Внимание! После удаления вы не сможете поддержать раздачу)

Лог (x265 info)
x265 [info]: frame I: 558, Avg QP:17.81 kb/s: 16466.96
x265 [info]: frame P: 18356, Avg QP:18.95 kb/s: 12179.59
x265 [info]: frame B: 114106, Avg QP:21.51 kb/s: 4100.19
x265 [info]: Weighted P-Frames: Y:6.1% UV:4.2%
x265 [info]: Weighted B-Frames: Y:4.3% UV:1.8%
x265 [info]: encoded 133020 frames in 76131.14s (1.75 fps), 5266.98 kb/s, Avg QP:21.14
Медиаинфо
Общее
Уникальный идентификатор : 250459151698515736419312133403133142386 (0xBC6CAD921391EDBC77F75A6D5FF4E572)
Полное имя : \\.\Приглашение.к.убийству.Invitation.to.a.Murder.2023.BDRip-HEVC.1080p.mkv
Формат : Matroska
Версия формата : Version 4
Размер файла : 3,98 Гбайт
Продолжительность : 1 ч. 32 м.
Общий поток : 6 167 Кбит/сек
Частота кадров : 23,976 кадра/сек
Название фильма : Приглашение к убийству / Приглашение к убийству
Кодирование произвёл : OldGamer
Тип содержимого : Movie
Дата выпуска : 2023-05-05
Дата записи : 2023-05-05
Программа кодирования : mkvmerge v83.0 ('Circle Of Friends') 64-bit
Библиотека кодирования : libebml v1.4.5 + libmatroska v1.7.1 / xvid4psp5
Обложка : Yes
Attachments : cover.jpg
ACTOR : Mischa Barton, Chris Browning, Bianca A. Santos, Giles Matthey, Grace Lynn Kung, Seamus Dever, James Urbaniak, Amy Sloan, Alex Hyde-White, Clark Carmichael, Rae Gray, Liz Pazik, Curtis Edward Jackson, Peter Berwick, Don Stuck
ARTIST : Mischa Barton, Chris Browning, Bianca A. Santos, Giles Matthey, Grace Lynn Kung, Seamus Dever, James Urbaniak, Amy Sloan, Alex Hyde-White, Clark Carmichael, Rae Gray, Liz Pazik, Curtis Edward Jackson, Peter Berwick, Don Stuck
DIRECTOR : Stephen Shimek
GENRE : детектив, триллер
LAW_RATING : PG-13
PRODUCER : Zeus Zamani, Brian Vilim, Jerome Reygner-Kalfon, Sebastien Semon
PRODUCTION_STUDIO : Grindstone Entertainment Group
RATING : PG-13
SYNOPSIS : Миллиардер-затворник приглашает шестерых, казалось бы, случайных незнакомцев в свое островное поместье на юге Англии. Начинающий детектив Миранда Грин находит таинственное приглашение слишком заманчивым, чтобы отказываться от него. Когда еще один гость оказывается мертвым, Миранда должна разобраться в злонамеренном заговоре.

Видео
Идентификатор : 1
Формат : HEVC
Формат/Информация : High Efficiency Video Coding
Профиль формата : Main 10@L4.1@High
Идентификатор кодека : V_MPEGH/ISO/HEVC
Продолжительность : 1 ч. 32 м.
Битрейт : 5 268 Кбит/сек
Ширина : 1 920 пикселей
Высота : 800 пикселей
Соотношение сторон : 2,40:1
Режим частоты кадров : Постоянный
Частота кадров : 23,976 (24000/1001) кадра/сек
Цветовое пространство : YUV
Субдискретизация насыщенности : 4:2:0
Битовая глубина : 10 бит
Бит/(Пиксели*Кадры) : 0.143
Размер потока : 3,40 Гбайт (85%)
Заголовок : Invitation to a Murder / Rip by OldGamer
Библиотека кодирования : x265 3.5+110-8ee01d45b:[Windows][GCC 13.2.0][64 bit] 10bit
Настройки программы : cpuid=1111039 / frame-threads=3 / numa-pools=8 / wpp / no-pmode / no-pme / no-psnr / no-ssim / log-level=2 / input-csp=1 / input-res=1920x800 / interlace=0 / total-frames=133020 / level-idc=41 / high-tier=1 / uhd-bd=0 / ref=5 / no-allow-non-conformance / no-repeat-headers / annexb / no-aud / no-eob / no-eos / no-hrd / info / hash=0 / temporal-layers=0 / open-gop / min-keyint=23 / keyint=240 / gop-lookahead=0 / bframes=16 / b-adapt=2 / b-pyramid / bframe-bias=0 / rc-lookahead=60 / lookahead-slices=0 / scenecut=40 / no-hist-scenecut / radl=0 / no-splice / no-intra-refresh / ctu=32 / min-cu-size=8 / rect / amp / max-tu-size=32 / tu-inter-depth=4 / tu-intra-depth=4 / limit-tu=1 / rdoq-level=2 / dynamic-rd=0.00 / no-ssim-rd / signhide / no-tskip / nr-intra=0 / nr-inter=0 / no-constrained-intra / no-strong-intra-smoothing / max-merge=5 / limit-refs=3 / no-limit-modes / me=3 / subme=7 / merange=57 / temporal-mvp / no-frame-dup / no-hme / weightp / weightb / no-analyze-src-pics / deblock=-2:-2 / no-sao / no-sao-non-deblock / rd=6 / selective-sao=0 / no-early-skip / no-rskip / no-fast-intra / no-tskip-fast / no-cu-lossless / b-intra / no-splitrd-skip / rdpenalty=0 / psy-rd=2.00 / psy-rdoq=1.00 / no-rd-refine / no-lossless / cbqpoffs=0 / crqpoffs=0 / rc=crf / crf=20.7 / qcomp=0.60 / qpstep=4 / stats-write=0 / stats-read=0 / vbv-maxrate=50000 / vbv-bufsize=50000 / vbv-init=0.9 / min-vbv-fullness=50.0 / max-vbv-fullness=80.0 / crf-max=0.0 / crf-min=0.0 / ipratio=1.40 / pbratio=1.30 / aq-mode=1 / aq-strength=1.00 / no-cutree / zone-count=1 / zones: / start-frame=129421 / end-frame=133020 / qp=36 / no-strict-cbr / qg-size=32 / no-rc-grain / qpmax=69 / qpmin=0 / no-const-vbv / sar=1 / overscan=0 / videoformat=5 / range=0 / colorprim=2 / transfer=2 / colormatrix=2 / chromaloc=0 / display-window=0 / cll=0,0 / min-luma=0 / max-luma=1023 / log2-max-poc-lsb=8 / vui-timing-info / vui-hrd-info / slices=1 / no-opt-qp-pps / no-opt-ref-list-length-pps / no-multi-pass-opt-rps / scenecut-bias=0.00 / no-opt-cu-delta-qp / no-aq-motion / no-hdr10 / no-hdr10-opt / no-dhdr10-opt / no-idr-recovery-sei / analysis-reuse-level=0 / analysis-save-reuse-level=0 / analysis-load-reuse-level=0 / scale-factor=0 / refine-intra=0 / refine-inter=0 / refine-mv=1 / refine-ctu-distortion=0 / no-limit-sao / ctu-info=0 / no-lowpass-dct / refine-analysis-type=0 / copy-pic=1 / max-ausize-factor=1.0 / no-dynamic-refine / no-single-sei / no-hevc-aq / no-svt / no-field / qp-adaptation-range=1.00 / scenecut-aware-qp=0conformance-window-offsets / right=0 / bottom=0 / decoder-max-rate=0 / no-vbv-live-multi-pass / no-mcstf / no-sbrc
Язык : English
Default : Да
Forced : Нет

Аудио #1
Идентификатор : 2
Формат : AC-3
Формат/Информация : Audio Coding 3
Коммерческое название : Dolby Digital
Идентификатор кодека : A_AC3
Продолжительность : 1 ч. 32 м.
Вид битрейта : Постоянный
Битрейт : 448 Кбит/сек
Каналы : 6 каналов
Channel layout : L R C LFE Ls Rs
Частота : 48,0 КГц
Частота кадров : 31,250 кадров/сек (1536 SPF)
Метод сжатия : С потерями
Размер потока : 296 Мбайт (7%)
Заголовок : DUB (Студия Позитив)
Язык : Russian
Service kind : Complete Main
Default : Да
Forced : Нет

Аудио #2
Идентификатор : 3
Формат : AC-3
Формат/Информация : Audio Coding 3
Коммерческое название : Dolby Digital
Идентификатор кодека : A_AC3
Продолжительность : 1 ч. 32 м.
Вид битрейта : Постоянный
Битрейт : 448 Кбит/сек
Каналы : 6 каналов
Channel layout : L R C LFE Ls Rs
Частота : 48,0 КГц
Частота кадров : 31,250 кадров/сек (1536 SPF)
Метод сжатия : С потерями
Размер потока : 296 Мбайт (7%)
Язык : English
Service kind : Complete Main
Default : Нет
Forced : Нет

Текст #1
Идентификатор : 4
Формат : UTF-8
Идентификатор кодека : S_TEXT/UTF8
Идентификатор кодека/Информация : UTF-8 Plain Text
Продолжительность : 1 ч. 28 м.
Битрейт : 97 бит/сек
Частота кадров : 0,179 кадр/сек
Count of elements : 944
Размер потока : 62,7 Кбайт (0%)
Заголовок : Russian full
Язык : Russian
Default : Нет
Forced : Нет

Текст #2
Идентификатор : 5
Формат : UTF-8
Идентификатор кодека : S_TEXT/UTF8
Идентификатор кодека/Информация : UTF-8 Plain Text
Продолжительность : 1 ч. 28 м.
Битрейт : 63 бит/сек
Частота кадров : 0,212 кадр/сек
Count of elements : 1123
Размер потока : 40,8 Кбайт (0%)
Заголовок : French full
Язык : French
Default : Нет
Forced : Нет

Текст #3
Идентификатор : 6
Формат : UTF-8
Идентификатор кодека : S_TEXT/UTF8
Идентификатор кодека/Информация : UTF-8 Plain Text
Продолжительность : 1 ч. 27 м.
Битрейт : 62 бит/сек
Частота кадров : 0,225 кадр/сек
Count of elements : 1176
Размер потока : 40,2 Кбайт (0%)
Заголовок : English full
Язык : English
Default : Нет
Forced : Нет

Текст #4
Идентификатор : 7
Формат : UTF-8
Идентификатор кодека : S_TEXT/UTF8
Идентификатор кодека/Информация : UTF-8 Plain Text
Продолжительность : 1 ч. 28 м.
Битрейт : 65 бит/сек
Частота кадров : 0,240 кадр/сек
Count of elements : 1278
Размер потока : 42,6 Кбайт (0%)
Заголовок : English SDH
Язык : English
Default : Нет
Forced : Нет

Меню
00:00:00.000 : en:Глава 01
00:10:12.028 : en:Глава 02
00:27:44.162 : en:Глава 03
00:38:20.214 : en:Глава 04
00:53:21.114 : en:Глава 05
01:02:24.115 : en:Глава 06
01:12:11.410 : en:Глава 07
01:27:25.865 : en:Глава 08
01:29:59.102 : en:Глава 09
Загрузка...Cкриншот1 Приглашение к убийству / Invitation to a Murder (2023) BDRip 1080p [HEVC] 10 bit от OldGamer (RG RIPS CLUB)Загрузка...Cкриншот2 Приглашение к убийству / Invitation to a Murder (2023) BDRip 1080p [HEVC] 10 bit от OldGamer (RG RIPS CLUB)Загрузка...Cкриншот3 Приглашение к убийству / Invitation to a Murder (2023) BDRip 1080p [HEVC] 10 bit от OldGamer (RG RIPS CLUB)Загрузка...Cкриншот4 Приглашение к убийству / Invitation to a Murder (2023) BDRip 1080p [HEVC] 10 bit от OldGamer (RG RIPS CLUB)
Релиз-группа: RIPS CLUB
Сэмпл Торрент🧲 Магнет

Рейтинги КП и IMDB, кнопки "Позвать в чате" и "Спасибо", а также мультитрекерная статистика доступны только зарегистрированным/авторизованным пользователям!

Файлы: 1
  • Приглашение.к.убийству.Invitation.to.a.Murder.2023.BDRip-HEVC.1080p.mkv   3.98 ГБ
Поблагодарили: 8
Alex302, and50, aquarius, donadar, ExoticDeer, han-nik, netfigni, Winsent
OldGamer
02001513.98 ГБ

Добавление нового комментария

Добавление комментариев доступно только зарегистрированным/авторизованным пользователям.