💬 Мини-чат

Для тех, кому интересен процесс переделки сайта - https://rips.club/changelog.html (обновлен 20.04.2024)
  • justmkr
Отправка сообщений доступна только зарегистрированным/авторизованным пользователям.
Онлайн (за 10 мин.): 1

Возмещение ущерба / Collateral Damage (2001) BDRip 1080p [HEVC] 10 bit от OldGamer (RG RIPS CLUB)

HEVC
10 bit
Обложка Возмещение ущерба / Collateral Damage (2001) BDRip 1080p [HEVC] 10 bit от OldGamer (RG RIPS CLUB) Год: 2001
Страна: США, Мексика
Студия: Bel Air Entertainment, David Foster Productions, Hacienda Productions, Warner Bros. Pictures
Жанр: Боевик, Триллер, Драма
Продолжительность: 01:48:48

Режиссер: Эндрю Дэвис
В ролях: Арнольд Шварценеггер, Франческа Нери, Элиас Котеас, Клифф Кёртис, Джон Легуизамо, Джон Туртурро, Хсу Гарсиа, Тайлер Пози, Майкл Милхоун, Рик Уорси

Описание: Власти, расследующие теракт, советуют Горди Брюеру не вмешиваться в это дело. Но он уже вмешался в него самым страшным образом: его жена и сын значатся в списке жертв взрыва бомбы. Брюер, пожарный из Лос-Анджелеса, полон решимости найти неуловимого террориста по кличке Эль Лобо. Брюер знает, что Эль Лобо нанесёт свой следующий удар именно здесь. Но как? Когда? И где именно? В мучительном поиске ответов на эти вопросы ясно только одно: Возмещение ущерба - это тикающая бомба постоянного напряжения.


Исходник: Blu-Ray Remux 1080p (rutracker)
Видео: 1920x1080, 9310 Kbps
Аудио1: AC3, 6 ch, 384 Kbps - РусскийРусский, DUB (R5)
Аудио2: AC3, 6 ch, 640 Kbps - РусскийРусский, MVO (Карусель)
Аудио3: AC3, 6 ch, 384 Kbps - РусскийРусский, MVO (FDV)
Аудио4: AC3, 6 ch, 384 Kbps - РусскийРусский, MVO
Аудио5: AC3, 2 ch, 192 Kbps - РусскийРусский, MVO (НТВ)
Аудио6: AC3, 2 ch, 192 Kbps - РусскийРусский, MVO (VCD)
Аудио7: AC3, 2 ch, 192 Kbps - РусскийРусский, DVO (SDI Media)
Аудио8: AC3, 6 ch, 640 Kbps - РусскийРусский, AVO (Андрей Гаврилов)
Аудио9: AC3, 6 ch, 640 Kbps - РусскийРусский, AVO (Леонид Володарский)
Аудио10: AC3, 6 ch, 640 Kbps - РусскийРусский, AVO (Евгений Рудой)
Аудио11: AC3, 2 ch, 192 Kbps - РусскийРусский, AVO (Сергей Визгунов)
Аудио12: AC3, 2 ch, 192 Kbps - РусскийРусский, AVO (Андрей Дольский)
Аудио13: AC3, 2 ch, 192 Kbps - РусскийРусский, VO (Неизвестный)
Аудио14: AC3, 6 ch, 640 Kbps - АнглийскийАнглийский
Субтитры: русские, английские

Как за пару секунд удалить ненужные аудиодорожки и субтитры (Внимание! После удаления вы не сможете поддержать раздачу)

Лог (x265 info)
x265 [info]: frame I: 659, Avg QP:17.90 kb/s: 18013.49
x265 [info]: frame P: 35146, Avg QP:19.40 kb/s: 14501.95
x265 [info]: frame B: 120720, Avg QP:21.31 kb/s: 7750.18
x265 [info]: Weighted P-Frames: Y:11.9% UV:10.2%
x265 [info]: Weighted B-Frames: Y:15.7% UV:12.9%
x265 [info]: encoded 156525 frames in 141517.82s (1.11 fps), 9309.43 kb/s, Avg QP:20.87
Медиаинфо
Общее
Уникальный идентификатор : 93912039938132881384808107844303315732 (0x46A6CD0D635127F2EF0CF20C9687E314)
Полное имя : \\.\Возмещение.ущерба.Collateral.Damage.2002.BDRip-HEVC.1080p.mkv
Формат : Matroska
Версия формата : Version 4
Размер файла : 11,3 Гбайт
Продолжительность : 1 ч. 48 м.
Общий поток : 14,8 Мбит/сек
Частота кадров : 23,976 кадра/сек
Название фильма : Возмещение ущерба / Возмещение ущерба
Кодирование произвёл : OldGamer
Тип содержимого : Movie
Описание : Удар террориста не был нацелен на него. Но возмездие будет персональным
Дата выпуска : 2002-02-06
Дата записи : 2002-02-06
Программа кодирования : mkvmerge v83.0 ('Circle Of Friends') 64-bit
Библиотека кодирования : libebml v1.4.5 + libmatroska v1.7.1 / xvid4psp5
Обложка : Yes
Attachments : cover.jpg
ACTOR : Arnold Schwarzenegger, Francesca Neri, Elias Koteas, Cliff Curtis, John Leguizamo, John Turturro, Jsu Garcia, Tyler Posey, Michael Milhoan, Rick Worthy, Raymond Cruz, Lindsay Frost, Ethan Dampf, Jorge Zepeda, Miguel Sandoval, Harry Lennix, Madison Ma...
ARTIST : Arnold Schwarzenegger, Francesca Neri, Elias Koteas, Cliff Curtis, John Leguizamo, John Turturro, Jsu Garcia, Tyler Posey, Michael Milhoan, Rick Worthy, Raymond Cruz, Lindsay Frost, Ethan Dampf, Jorge Zepeda, Miguel Sandoval, Harry Lennix, Madison Ma...
DIRECTOR : Andrew Davis
GENRE : боевик, триллер, драма
LAW_RATING : R
PRODUCER : Steven Reuther, David Foster
PRODUCTION_STUDIO : Warner Bros. Pictures
RATING : R
SCREENPLAY_BY : Ronald Roose, David Griffiths, Peter Griffiths
SUMMARY : Удар террориста не был нацелен на него. Но возмездие будет персональным
SYNOPSIS : Власти, расследующие теракт, советуют Горди Брюеру не вмешиваться в это дело. Но он уже вмешался в него самым страшным образом: его жена и сын значатся в списке жертв взрыва бомбы. Брюер, пожарный из Лос-Анджелеса, полон решимости найти неуловимого террориста по кличке Эль Лобо. Брюер знает, что Эль Лобо нанесет свой следующий удар именно здесь. Но как? Когда? И где именно? В мучительном поиске ответов на эти вопросы ясно только одно: Возмещение ущерба — это тикающая бомба постоянного напряжения.
WRITTEN_BY : Ronald Roose, David Griffiths, Peter Griffiths

Видео
Идентификатор : 1
Формат : HEVC
Формат/Информация : High Efficiency Video Coding
Профиль формата : Main 10@L4.1@High
Идентификатор кодека : V_MPEGH/ISO/HEVC
Продолжительность : 1 ч. 48 м.
Битрейт : 9 310 Кбит/сек
Ширина : 1 920 пикселей
Высота : 1 080 пикселей
Соотношение сторон : 16:9
Режим частоты кадров : Постоянный
Частота кадров : 23,976 (24000/1001) кадра/сек
Цветовое пространство : YUV
Субдискретизация насыщенности : 4:2:0
Битовая глубина : 10 бит
Бит/(Пиксели*Кадры) : 0.187
Размер потока : 7,08 Гбайт (63%)
Заголовок : Collateral Damage / Rip by OldGamer
Библиотека кодирования : x265 3.5+110-8ee01d45b:[Windows][GCC 13.2.0][64 bit] 10bit
Настройки программы : cpuid=1111039 / frame-threads=3 / numa-pools=8 / wpp / no-pmode / no-pme / no-psnr / no-ssim / log-level=2 / input-csp=1 / input-res=1920x1080 / interlace=0 / total-frames=156525 / level-idc=41 / high-tier=1 / uhd-bd=0 / ref=5 / no-allow-non-conformance / no-repeat-headers / annexb / no-aud / no-eob / no-eos / no-hrd / info / hash=0 / temporal-layers=0 / open-gop / min-keyint=23 / keyint=240 / gop-lookahead=0 / bframes=16 / b-adapt=2 / b-pyramid / bframe-bias=0 / rc-lookahead=60 / lookahead-slices=0 / scenecut=40 / no-hist-scenecut / radl=0 / no-splice / no-intra-refresh / ctu=32 / min-cu-size=8 / rect / amp / max-tu-size=32 / tu-inter-depth=4 / tu-intra-depth=4 / limit-tu=1 / rdoq-level=2 / dynamic-rd=0.00 / no-ssim-rd / signhide / no-tskip / nr-intra=0 / nr-inter=0 / no-constrained-intra / no-strong-intra-smoothing / max-merge=5 / limit-refs=3 / no-limit-modes / me=3 / subme=7 / merange=57 / temporal-mvp / no-frame-dup / no-hme / weightp / weightb / no-analyze-src-pics / deblock=-2:-2 / no-sao / no-sao-non-deblock / rd=6 / selective-sao=0 / no-early-skip / no-rskip / no-fast-intra / no-tskip-fast / no-cu-lossless / b-intra / no-splitrd-skip / rdpenalty=0 / psy-rd=2.00 / psy-rdoq=1.00 / no-rd-refine / no-lossless / cbqpoffs=0 / crqpoffs=0 / rc=crf / crf=20.3 / qcomp=0.60 / qpstep=4 / stats-write=0 / stats-read=0 / vbv-maxrate=50000 / vbv-bufsize=50000 / vbv-init=0.9 / min-vbv-fullness=50.0 / max-vbv-fullness=80.0 / crf-max=0.0 / crf-min=0.0 / ipratio=1.40 / pbratio=1.30 / aq-mode=1 / aq-strength=1.00 / no-cutree / zone-count=1 / zones: / start-frame=150355 / end-frame=156525 / qp=36 / no-strict-cbr / qg-size=32 / no-rc-grain / qpmax=69 / qpmin=0 / no-const-vbv / sar=1 / overscan=0 / videoformat=5 / range=0 / colorprim=2 / transfer=2 / colormatrix=2 / chromaloc=0 / display-window=0 / cll=0,0 / min-luma=0 / max-luma=1023 / log2-max-poc-lsb=8 / vui-timing-info / vui-hrd-info / slices=1 / no-opt-qp-pps / no-opt-ref-list-length-pps / no-multi-pass-opt-rps / scenecut-bias=0.00 / no-opt-cu-delta-qp / no-aq-motion / no-hdr10 / no-hdr10-opt / no-dhdr10-opt / no-idr-recovery-sei / analysis-reuse-level=0 / analysis-save-reuse-level=0 / analysis-load-reuse-level=0 / scale-factor=0 / refine-intra=0 / refine-inter=0 / refine-mv=1 / refine-ctu-distortion=0 / no-limit-sao / ctu-info=0 / no-lowpass-dct / refine-analysis-type=0 / copy-pic=1 / max-ausize-factor=1.0 / no-dynamic-refine / no-single-sei / no-hevc-aq / no-svt / no-field / qp-adaptation-range=1.00 / scenecut-aware-qp=0conformance-window-offsets / right=0 / bottom=0 / decoder-max-rate=0 / no-vbv-live-multi-pass / no-mcstf / no-sbrc
Язык : English
Default : Да
Forced : Нет

Аудио #1
Идентификатор : 2
Формат : AC-3
Формат/Информация : Audio Coding 3
Коммерческое название : Dolby Digital
Идентификатор кодека : A_AC3
Продолжительность : 1 ч. 48 м.
Вид битрейта : Постоянный
Битрейт : 384 Кбит/сек
Каналы : 6 каналов
Channel layout : L R C LFE Ls Rs
Частота : 48,0 КГц
Частота кадров : 31,250 кадров/сек (1536 SPF)
Метод сжатия : С потерями
Размер потока : 299 Мбайт (3%)
Заголовок : DUB (R5)
Язык : Russian
Service kind : Complete Main
Default : Да
Forced : Нет

Аудио #2
Идентификатор : 3
Формат : AC-3
Формат/Информация : Audio Coding 3
Коммерческое название : Dolby Digital
Идентификатор кодека : A_AC3
Продолжительность : 1 ч. 48 м.
Вид битрейта : Постоянный
Битрейт : 640 Кбит/сек
Каналы : 6 каналов
Channel layout : L R C LFE Ls Rs
Частота : 48,0 КГц
Частота кадров : 31,250 кадров/сек (1536 SPF)
Метод сжатия : С потерями
Размер потока : 498 Мбайт (4%)
Заголовок : MVO (Карусель)
Язык : Russian
Service kind : Complete Main
Default : Нет
Forced : Нет

Аудио #3
Идентификатор : 4
Формат : AC-3
Формат/Информация : Audio Coding 3
Коммерческое название : Dolby Digital
Идентификатор кодека : A_AC3
Продолжительность : 1 ч. 48 м.
Вид битрейта : Постоянный
Битрейт : 384 Кбит/сек
Каналы : 6 каналов
Channel layout : L R C LFE Ls Rs
Частота : 48,0 КГц
Частота кадров : 31,250 кадров/сек (1536 SPF)
Метод сжатия : С потерями
Размер потока : 299 Мбайт (3%)
Заголовок : MVO (FDV)
Язык : Russian
Service kind : Complete Main
Default : Нет
Forced : Нет

Аудио #4
Идентификатор : 5
Формат : AC-3
Формат/Информация : Audio Coding 3
Коммерческое название : Dolby Digital
Идентификатор кодека : A_AC3
Продолжительность : 1 ч. 48 м.
Вид битрейта : Постоянный
Битрейт : 384 Кбит/сек
Каналы : 6 каналов
Channel layout : L R C LFE Ls Rs
Частота : 48,0 КГц
Частота кадров : 31,250 кадров/сек (1536 SPF)
Метод сжатия : С потерями
Размер потока : 299 Мбайт (3%)
Заголовок : MVO
Язык : Russian
Service kind : Complete Main
Default : Нет
Forced : Нет

Аудио #5
Идентификатор : 6
Формат : AC-3
Формат/Информация : Audio Coding 3
Коммерческое название : Dolby Digital
Идентификатор кодека : A_AC3
Продолжительность : 1 ч. 48 м.
Вид битрейта : Постоянный
Битрейт : 192 Кбит/сек
Каналы : 2 канала
Channel layout : L R
Частота : 48,0 КГц
Частота кадров : 31,250 кадров/сек (1536 SPF)
Метод сжатия : С потерями
Размер потока : 149 Мбайт (1%)
Заголовок : MVO (НТВ)
Язык : Russian
Service kind : Complete Main
Default : Нет
Forced : Нет

Аудио #6
Идентификатор : 7
Формат : AC-3
Формат/Информация : Audio Coding 3
Коммерческое название : Dolby Digital
Идентификатор кодека : A_AC3
Продолжительность : 1 ч. 48 м.
Вид битрейта : Постоянный
Битрейт : 192 Кбит/сек
Каналы : 2 канала
Channel layout : L R
Частота : 48,0 КГц
Частота кадров : 31,250 кадров/сек (1536 SPF)
Метод сжатия : С потерями
Размер потока : 149 Мбайт (1%)
Заголовок : MVO (VCD)
Язык : Russian
Service kind : Complete Main
Default : Нет
Forced : Нет

Аудио #7
Идентификатор : 8
Формат : AC-3
Формат/Информация : Audio Coding 3
Коммерческое название : Dolby Digital
Идентификатор кодека : A_AC3
Продолжительность : 1 ч. 48 м.
Вид битрейта : Постоянный
Битрейт : 192 Кбит/сек
Каналы : 2 канала
Channel layout : L R
Частота : 48,0 КГц
Частота кадров : 31,250 кадров/сек (1536 SPF)
Метод сжатия : С потерями
Размер потока : 149 Мбайт (1%)
Заголовок : DVO (SDI Media)
Язык : Russian
Service kind : Complete Main
Default : Нет
Forced : Нет

Аудио #8
Идентификатор : 9
Формат : AC-3
Формат/Информация : Audio Coding 3
Коммерческое название : Dolby Digital
Идентификатор кодека : A_AC3
Продолжительность : 1 ч. 48 м.
Вид битрейта : Постоянный
Битрейт : 640 Кбит/сек
Каналы : 6 каналов
Channel layout : L R C LFE Ls Rs
Частота : 48,0 КГц
Частота кадров : 31,250 кадров/сек (1536 SPF)
Метод сжатия : С потерями
Размер потока : 498 Мбайт (4%)
Заголовок : AVO (Андрей Гаврилов)
Язык : Russian
Service kind : Complete Main
Default : Нет
Forced : Нет

Аудио #9
Идентификатор : 10
Формат : AC-3
Формат/Информация : Audio Coding 3
Коммерческое название : Dolby Digital
Идентификатор кодека : A_AC3
Продолжительность : 1 ч. 48 м.
Вид битрейта : Постоянный
Битрейт : 640 Кбит/сек
Каналы : 6 каналов
Channel layout : L R C LFE Ls Rs
Частота : 48,0 КГц
Частота кадров : 31,250 кадров/сек (1536 SPF)
Метод сжатия : С потерями
Размер потока : 498 Мбайт (4%)
Заголовок : AVO (Леонид Володарский)
Язык : Russian
Service kind : Complete Main
Default : Нет
Forced : Нет

Аудио #10
Идентификатор : 11
Формат : AC-3
Формат/Информация : Audio Coding 3
Коммерческое название : Dolby Digital
Идентификатор кодека : A_AC3
Продолжительность : 1 ч. 48 м.
Вид битрейта : Постоянный
Битрейт : 640 Кбит/сек
Каналы : 6 каналов
Channel layout : L R C LFE Ls Rs
Частота : 48,0 КГц
Частота кадров : 31,250 кадров/сек (1536 SPF)
Метод сжатия : С потерями
Размер потока : 498 Мбайт (4%)
Заголовок : AVO (Евгений Рудой)
Язык : Russian
Service kind : Complete Main
Default : Нет
Forced : Нет

Аудио #11
Идентификатор : 12
Формат : AC-3
Формат/Информация : Audio Coding 3
Коммерческое название : Dolby Digital
Идентификатор кодека : A_AC3
Продолжительность : 1 ч. 48 м.
Вид битрейта : Постоянный
Битрейт : 192 Кбит/сек
Каналы : 2 канала
Channel layout : L R
Частота : 48,0 КГц
Частота кадров : 31,250 кадров/сек (1536 SPF)
Метод сжатия : С потерями
Размер потока : 149 Мбайт (1%)
Заголовок : AVO (Сергей Визгунов)
Язык : Russian
Service kind : Complete Main
Default : Нет
Forced : Нет

Аудио #12
Идентификатор : 13
Формат : AC-3
Формат/Информация : Audio Coding 3
Коммерческое название : Dolby Digital
Идентификатор кодека : A_AC3
Продолжительность : 1 ч. 48 м.
Вид битрейта : Постоянный
Битрейт : 192 Кбит/сек
Каналы : 2 канала
Channel layout : L R
Частота : 48,0 КГц
Частота кадров : 31,250 кадров/сек (1536 SPF)
Метод сжатия : С потерями
Размер потока : 149 Мбайт (1%)
Заголовок : AVO (Андрей Дольский)
Язык : Russian
Service kind : Complete Main
Default : Нет
Forced : Нет

Аудио #13
Идентификатор : 14
Формат : AC-3
Формат/Информация : Audio Coding 3
Коммерческое название : Dolby Digital
Идентификатор кодека : A_AC3
Продолжительность : 1 ч. 48 м.
Вид битрейта : Постоянный
Битрейт : 192 Кбит/сек
Каналы : 2 канала
Channel layout : L R
Частота : 48,0 КГц
Частота кадров : 31,250 кадров/сек (1536 SPF)
Метод сжатия : С потерями
Размер потока : 149 Мбайт (1%)
Заголовок : VO (Неизвестный)
Язык : Russian
Service kind : Complete Main
Default : Нет
Forced : Нет

Аудио #14
Идентификатор : 15
Формат : AC-3
Формат/Информация : Audio Coding 3
Коммерческое название : Dolby Digital
Идентификатор кодека : A_AC3
Продолжительность : 1 ч. 48 м.
Вид битрейта : Постоянный
Битрейт : 640 Кбит/сек
Каналы : 6 каналов
Channel layout : L R C LFE Ls Rs
Частота : 48,0 КГц
Частота кадров : 31,250 кадров/сек (1536 SPF)
Метод сжатия : С потерями
Задержка видео : 42 мс.
Размер потока : 498 Мбайт (4%)
Язык : English
Service kind : Complete Main
Default : Нет
Forced : Нет

Текст #1
Идентификатор : 16
Формат : UTF-8
Идентификатор кодека : S_TEXT/UTF8
Идентификатор кодека/Информация : UTF-8 Plain Text
Продолжительность : 1 ч. 43 м.
Битрейт : 58 бит/сек
Частота кадров : 0,125 кадр/сек
Count of elements : 779
Размер потока : 44,3 Кбайт (0%)
Заголовок : Russian
Язык : Russian
Default : Нет
Forced : Нет

Текст #2
Идентификатор : 17
Формат : UTF-8
Идентификатор кодека : S_TEXT/UTF8
Идентификатор кодека/Информация : UTF-8 Plain Text
Продолжительность : 1 ч. 43 м.
Битрейт : 52 бит/сек
Частота кадров : 0,115 кадр/сек
Count of elements : 714
Размер потока : 39,6 Кбайт (0%)
Заголовок : Russian
Язык : Russian
Default : Нет
Forced : Нет

Текст #3
Идентификатор : 18
Формат : UTF-8
Идентификатор кодека : S_TEXT/UTF8
Идентификатор кодека/Информация : UTF-8 Plain Text
Продолжительность : 1 ч. 48 м.
Битрейт : 42 бит/сек
Частота кадров : 0,130 кадр/сек
Count of elements : 845
Размер потока : 33,8 Кбайт (0%)
Заголовок : English
Язык : English
Default : Нет
Forced : Нет

Меню
00:00:00.000 : en:Gordy at Work (Credits)
00:03:22.159 : en:Gordy at home
00:04:52.291 : en:Plaza Explosion
00:08:11.949 : en:"I Saw Him"
00:12:53.355 : en:El Lobo
00:17:01.645 : en:Collateral Damage
00:20:37.027 : en:Terminated
00:24:50.447 : en:Into Colombia
00:27:48.917 : en:Bus stop
00:31:27.385 : en:In Search of a pass
00:34:51.255 : en:Arrested
00:37:33.458 : en:Armstrong
00:40:51.073 : en:Guerrilla Siege
00:45:08.914 : en:Upriver - at Gunpoint
00:48:48.300 : en:Taste of Felix
00:52:54.629 : en:No Room for Mistakes
00:56:56.663 : en:Gordy's Ride
00:59:57.552 : en:El Robo's Compound
01:02:58.733 : en:Surprise on the Street
01:04:40.876 : en:Remembered faces
01:08:43.035 : en:No better than he is
01:13:19.311 : en:Attack on the Ship
01:17:04.036 : en:Brandt's Excuse to Kill
01:19:38.439 : en:Arrivals in Washington
01:23:31.673 : en:The Target
01:27:21.027 : en:Restroom Revelations
01:31:47.460 : en:Through the roof
01:34:00.593 : en:Getting the Shaft
01:36:25.946 : en:Tunnel of flame
01:40:43.620 : en:Final battle
01:43:06.555 : en:Survivors
01:44:34.059 : en:End Credits
01:48:48.146 : en:End
Загрузка...Cкриншот1 Возмещение ущерба / Collateral Damage (2001) BDRip 1080p [HEVC] 10 bit от OldGamer (RG RIPS CLUB)Загрузка...Cкриншот2 Возмещение ущерба / Collateral Damage (2001) BDRip 1080p [HEVC] 10 bit от OldGamer (RG RIPS CLUB)Загрузка...Cкриншот3 Возмещение ущерба / Collateral Damage (2001) BDRip 1080p [HEVC] 10 bit от OldGamer (RG RIPS CLUB)Загрузка...Cкриншот4 Возмещение ущерба / Collateral Damage (2001) BDRip 1080p [HEVC] 10 bit от OldGamer (RG RIPS CLUB)
Релиз-группа: RIPS CLUB
Сэмпл Торрент🧲 Магнет

Рейтинги КП и IMDB, кнопки "Позвать в чате" и "Спасибо", а также мультитрекерная статистика доступны только зарегистрированным/авторизованным пользователям!

Файлы: 1
  • Возмещение.ущерба.Collateral.Damage.2002.BDRip-HEVC.1080p.mkv   11.26 ГБ
Поблагодарили: 10
Alex302, and50, anderb, AndresUA, Art1967, Brooklyn, donadar, Kiran, Maksimus_2024, MIGRANT
OldGamer
01679011.26 ГБ

Добавление нового комментария

Добавление комментариев доступно только зарегистрированным/авторизованным пользователям.