Чат

⚫︎
Список изменений сайта - https://rips.club/changelog.html (обновлен 24.05.2024)
  • arwis
Онлайн (за 10 мин.): 1
Отправка сообщений доступна только зарегистрированным/авторизованным пользователям.

🎥︎🎥︎Джуманджи: Трилогия / Jumanji: Trilogy (1995-2019) BDRip 1080p [HEVC] 10 bit от OldGamer (RG RIPS CLUB)


Обложка Джуманджи: Трилогия / Jumanji: Trilogy (1995-2019) BDRip 1080p [HEVC] 10 bit от OldGamer (RG RIPS CLUB)
HEVC
10 bit
⤓︎Торрент🧲︎Магнет$Пожертвования

При перезаливке на другие сайты просьба указать автора и релиз-группу.


Год: 1995-2019
Страна: США
Жанр: Фэнтези, Комедия, Приключения, Семейный


Релиз-группа: RIPS CLUB
1. Джуманджи / Jumanji (1995) [4K REMASTERED] BDRip 1080p [HEVC] 10 bit от OldGamer
Обложка Джуманджи / Jumanji (1995) [4K REMASTERED] BDRip 1080p [HEVC] 10 bit от OldGamer
HEVC
10 bit
✂︎Сэмпл
Год: 1995
Страна: США
Студия: Interscope Communications, Teitler Film, TriStar Pictures
Жанр: Фэнтези, Комедия, Приключения, Семейный
Длительность: 01:44:06

Режиссер: Джо Джонстон
В ролях: Робин Уильямс, Бонни Хант, Кирстен Данст, Брэдли Пирс, Биби Ньювирт, Джонатан Хайд, Дэвид Алан Грир, Патриша Кларксон, Адам Хэнн-Берд, Лаура Белл Банди

Описание: Случайно обнаружив настольную игру со странным названием «Джуманджи», Алан Пэрриш на глазах изумлённой подружки перенёсся в джунгли. Он находился в этом мире до тех пор, пока двое ни о чём не подозревающих подростков не нашли игру и не сняли волшебные чары, освободив Алана из многолетнего плена. Теперь им предстоит решить нелёгкую задачу - пройти немыслимые препятствия и одержать победу над силами магии.


Исходник: Blu-Ray Remux 1080p (rutracker)
Видео: 1920x1040, 11.3 Mbps
Аудио1: AC3, 6 ch, 448 Kbps - РусскийРусский, DUB (Киномания)
Аудио2: AC3, 6 ch, 640 Kbps - РусскийРусский, MVO (Superbit)
Аудио3: AC3, 2 ch, 192 Kbps - РусскийРусский, MVO (Видеосервис DVD)
Аудио4: AC3, 2 ch, 192 Kbps - РусскийРусский, MVO (Видеосервис VHS)
Аудио5: AC3, 2 ch, 192 Kbps - РусскийРусский, MVO (НТВ)
Аудио6: AC3, 2 ch, 192 Kbps - РусскийРусский, MVO (Первый канал)
Аудио7: AC3, 2 ch, 192 Kbps - РусскийРусский, MVO (РТР)
Аудио8: AC3, 2 ch, 192 Kbps - РусскийРусский, MVO (СТС)
Аудио9: AC3, 6 ch, 640 Kbps - РусскийРусский, AVO (Юрий Живов)
Аудио10: AC3, 6 ch, 640 Kbps - РусскийРусский, AVO (Андрей Гаврилов поздний)
Аудио11: AC3, 2 ch, 192 Kbps - РусскийРусский, AVO (Андрей Гаврилов ранний)
Аудио12: AC3, 2 ch, 192 Kbps - РусскийРусский, AVO (Сергей Визгунов)
Аудио13: AC3, 6 ch, 448 Kbps - РусскийРусский, VO (Вячеслав Котов)
Аудио14: AC3, 2 ch, 192 Kbps - РусскийРусский, VO ("Лёша - Прапорщик")
Аудио15: AC3, 2 ch, 192 Kbps - УкраинскийУкраинский, MVO (ICTV)
Аудио16: AC3, 2 ch, 192 Kbps - УкраинскийУкраинский, MVO (Інтер)
Аудио17: AC3, 2 ch, 192 Kbps - УкраинскийУкраинский, DVO (1+1)
Аудио18: AC3, 2 ch, 192 Kbps - УкраинскийУкраинский, DVO (Новий)
Аудио19: AC3, 6 ch, 640 Kbps - АнглийскийАнглийский
Субтитры: русские, украинские (full, forced), английские

Как за несколько секунд удалить ненужные аудиодорожки и субтитры (Внимание! После удаления вы не сможете поддержать раздачу)


Лог (x265 info)x265 [info]: frame I: 632, Avg QP:18.77 kb/s: 28900.87
x265 [info]: frame P: 29538, Avg QP:19.92 kb/s: 20992.66
x265 [info]: frame B: 119590, Avg QP:21.97 kb/s: 8775.34
x265 [info]: Weighted P-Frames: Y:6.5% UV:5.6%
x265 [info]: Weighted B-Frames: Y:5.6% UV:4.8%
x265 [info]: encoded 149760 frames in 141779.84s (1.06 fps), 11269.96 kb/s, Avg QP:21.55
МедиаинфоОбщее
Уникальный идентификатор : 280515476818008787837693959809618186525 (0xD30950CF89DD24C69422A9AA2C84911D)
Полное имя : \\.\Джуманджи.Jumanji.1995.4K.Remastered.BDRip-HEVC.1080p.mkv
Формат : Matroska
Версия формата : Version 4
Размер файла : 12,5 Гбайт
Продолжительность : 1 ч. 44 м.
Общий поток : 17,2 Мбит/сек
Частота кадров : 23,976 кадра/сек
Название фильма : Джуманджи / Джуманджи
Кодирование произвёл : OldGamer
Тип содержимого : Movie
Описание : Эта игра заставит Вас поверить в чудеса
Дата выпуска : 1995-12-15
Дата записи : 1995-12-15
Программа кодирования : mkvmerge v83.0 ('Circle Of Friends') 64-bit
Библиотека кодирования : libebml v1.4.5 + libmatroska v1.7.1 / xvid4psp5
Обложка : Yes
Attachments : cover.jpg
ACTOR : Robin Williams, Kirsten Dunst, Bradley Pierce, Bonnie Hunt, Jonathan Hyde, Bebe Neuwirth, David Alan Grier, Adam Hann-Byrd, Patricia Clarkson, Laura Bell Bundy, James Handy, Gillian Barber, Brandon Obray, Cyrus Thiedeke, Gary Joseph Thorup, Leonard Z...
ARTIST : Robin Williams, Kirsten Dunst, Bradley Pierce, Bonnie Hunt, Jonathan Hyde, Bebe Neuwirth, David Alan Grier, Adam Hann-Byrd, Patricia Clarkson, Laura Bell Bundy, James Handy, Gillian Barber, Brandon Obray, Cyrus Thiedeke, Gary Joseph Thorup, Leonard Z...
DIRECTOR : Joe Johnston
GENRE : приключения, фэнтези, семейный
LAW_RATING : PG
PRODUCER : Scott Kroopf, William Teitler
PRODUCTION_STUDIO : PolyGram Filmed Entertainment
RATING : PG
SCREENPLAY_BY : Jonathan Hensleigh, Greg Taylor, Jim Strain
SUMMARY : Эта игра заставит Вас поверить в чудеса
SYNOPSIS : Случайно обнаружив настольную игру со странным названием «Джуманджи» Алан Пэрриш, не зная о ее сверхъестественных свойствах, на глазах изумленной подружки переносится в джунгли.Долгие годы он находится в потустороннем мире, до тех пор, пока двое ни о чем не подозревающих подростков не находят игру и не снимают волшебные чары, освобождая Алана из многолетнего плена. Теперь им предстоит решить нелегкую задачу — победить могущественную силу игры, пройти немыслимые препятствия и одержать победу над силами Магии!
WRITTEN_BY : Jonathan Hensleigh, Greg Taylor, Jim Strain

Видео
Идентификатор : 1
Формат : HEVC
Формат/Информация : High Efficiency Video Coding
Профиль формата : Main 10@L4.1@High
Идентификатор кодека : V_MPEGH/ISO/HEVC
Продолжительность : 1 ч. 44 м.
Битрейт : 11,3 Мбит/сек
Ширина : 1 920 пикселей
Высота : 1 040 пикселей
Соотношение сторон : 1,85:1
Режим частоты кадров : Постоянный
Частота кадров : 23,976 (24000/1001) кадра/сек
Цветовое пространство : YUV
Субдискретизация насыщенности : 4:2:0
Битовая глубина : 10 бит
Бит/(Пиксели*Кадры) : 0.235
Размер потока : 8,20 Гбайт (65%)
Заголовок : Jumanji / Rip by OldGamer
Библиотека кодирования : x265 3.5+110-8ee01d45b:[Windows][GCC 13.2.0][64 bit] 10bit
Настройки программы : cpuid=1111039 / frame-threads=3 / numa-pools=8 / wpp / no-pmode / no-pme / no-psnr / no-ssim / log-level=2 / input-csp=1 / input-res=1920x1040 / interlace=0 / total-frames=149760 / level-idc=41 / high-tier=1 / uhd-bd=0 / ref=5 / no-allow-non-conformance / no-repeat-headers / annexb / no-aud / no-eob / no-eos / no-hrd / info / hash=0 / temporal-layers=0 / open-gop / min-keyint=23 / keyint=240 / gop-lookahead=0 / bframes=16 / b-adapt=2 / b-pyramid / bframe-bias=0 / rc-lookahead=60 / lookahead-slices=0 / scenecut=40 / no-hist-scenecut / radl=0 / no-splice / no-intra-refresh / ctu=32 / min-cu-size=8 / rect / amp / max-tu-size=32 / tu-inter-depth=4 / tu-intra-depth=4 / limit-tu=1 / rdoq-level=2 / dynamic-rd=0.00 / no-ssim-rd / signhide / no-tskip / nr-intra=0 / nr-inter=0 / no-constrained-intra / no-strong-intra-smoothing / max-merge=5 / limit-refs=3 / no-limit-modes / me=3 / subme=7 / merange=57 / temporal-mvp / no-frame-dup / no-hme / weightp / weightb / no-analyze-src-pics / deblock=-2:-2 / no-sao / no-sao-non-deblock / rd=6 / selective-sao=0 / no-early-skip / no-rskip / no-fast-intra / no-tskip-fast / no-cu-lossless / b-intra / no-splitrd-skip / rdpenalty=0 / psy-rd=2.00 / psy-rdoq=1.00 / no-rd-refine / no-lossless / cbqpoffs=0 / crqpoffs=0 / rc=crf / crf=19.7 / qcomp=0.60 / qpstep=4 / stats-write=0 / stats-read=0 / vbv-maxrate=50000 / vbv-bufsize=50000 / vbv-init=0.9 / min-vbv-fullness=50.0 / max-vbv-fullness=80.0 / crf-max=0.0 / crf-min=0.0 / ipratio=1.40 / pbratio=1.30 / aq-mode=1 / aq-strength=1.00 / no-cutree / zone-count=1 / zones: / start-frame=141422 / end-frame=149760 / qp=36 / no-strict-cbr / qg-size=32 / no-rc-grain / qpmax=69 / qpmin=0 / no-const-vbv / sar=1 / overscan=0 / videoformat=5 / range=0 / colorprim=2 / transfer=2 / colormatrix=2 / chromaloc=0 / display-window=0 / cll=0,0 / min-luma=0 / max-luma=1023 / log2-max-poc-lsb=8 / vui-timing-info / vui-hrd-info / slices=1 / no-opt-qp-pps / no-opt-ref-list-length-pps / no-multi-pass-opt-rps / scenecut-bias=0.00 / no-opt-cu-delta-qp / no-aq-motion / no-hdr10 / no-hdr10-opt / no-dhdr10-opt / no-idr-recovery-sei / analysis-reuse-level=0 / analysis-save-reuse-level=0 / analysis-load-reuse-level=0 / scale-factor=0 / refine-intra=0 / refine-inter=0 / refine-mv=1 / refine-ctu-distortion=0 / no-limit-sao / ctu-info=0 / no-lowpass-dct / refine-analysis-type=0 / copy-pic=1 / max-ausize-factor=1.0 / no-dynamic-refine / no-single-sei / no-hevc-aq / no-svt / no-field / qp-adaptation-range=1.00 / scenecut-aware-qp=0conformance-window-offsets / right=0 / bottom=0 / decoder-max-rate=0 / no-vbv-live-multi-pass / no-mcstf / no-sbrc
Язык : English
Default : Да
Forced : Нет

Аудио #1
Идентификатор : 2
Формат : AC-3
Формат/Информация : Audio Coding 3
Коммерческое название : Dolby Digital
Идентификатор кодека : A_AC3
Продолжительность : 1 ч. 44 м.
Вид битрейта : Постоянный
Битрейт : 448 Кбит/сек
Каналы : 6 каналов
Channel layout : L R C LFE Ls Rs
Частота : 48,0 КГц
Частота кадров : 31,250 кадров/сек (1536 SPF)
Метод сжатия : С потерями
Размер потока : 334 Мбайт (3%)
Заголовок : DUB (Киномания)
Язык : Russian
Service kind : Complete Main
Default : Да
Forced : Нет

Аудио #2
Идентификатор : 3
Формат : AC-3
Формат/Информация : Audio Coding 3
Коммерческое название : Dolby Digital
Идентификатор кодека : A_AC3
Продолжительность : 1 ч. 44 м.
Вид битрейта : Постоянный
Битрейт : 640 Кбит/сек
Каналы : 6 каналов
Channel layout : L R C LFE Ls Rs
Частота : 48,0 КГц
Частота кадров : 31,250 кадров/сек (1536 SPF)
Метод сжатия : С потерями
Размер потока : 477 Мбайт (4%)
Заголовок : MVO (Superbit)
Язык : Russian
Service kind : Complete Main
Default : Нет
Forced : Нет

Аудио #3
Идентификатор : 4
Формат : AC-3
Формат/Информация : Audio Coding 3
Коммерческое название : Dolby Digital
Идентификатор кодека : A_AC3
Продолжительность : 1 ч. 44 м.
Вид битрейта : Постоянный
Битрейт : 192 Кбит/сек
Каналы : 2 канала
Channel layout : L R
Частота : 48,0 КГц
Частота кадров : 31,250 кадров/сек (1536 SPF)
Метод сжатия : С потерями
Размер потока : 143 Мбайт (1%)
Заголовок : MVO (Видеосервис DVD)
Язык : Russian
Service kind : Complete Main
Default : Нет
Forced : Нет

Аудио #4
Идентификатор : 5
Формат : AC-3
Формат/Информация : Audio Coding 3
Коммерческое название : Dolby Digital
Идентификатор кодека : A_AC3
Продолжительность : 1 ч. 44 м.
Вид битрейта : Постоянный
Битрейт : 192 Кбит/сек
Каналы : 2 канала
Channel layout : L R
Частота : 48,0 КГц
Частота кадров : 31,250 кадров/сек (1536 SPF)
Метод сжатия : С потерями
Размер потока : 143 Мбайт (1%)
Заголовок : MVO (Видеосервис VHS)
Язык : Russian
Service kind : Complete Main
Default : Нет
Forced : Нет

Аудио #5
Идентификатор : 6
Формат : AC-3
Формат/Информация : Audio Coding 3
Коммерческое название : Dolby Digital
Идентификатор кодека : A_AC3
Продолжительность : 1 ч. 44 м.
Вид битрейта : Постоянный
Битрейт : 192 Кбит/сек
Каналы : 2 канала
Channel layout : L R
Частота : 48,0 КГц
Частота кадров : 31,250 кадров/сек (1536 SPF)
Метод сжатия : С потерями
Размер потока : 143 Мбайт (1%)
Заголовок : MVO (НТВ)
Язык : Russian
Service kind : Complete Main
Default : Нет
Forced : Нет

Аудио #6
Идентификатор : 7
Формат : AC-3
Формат/Информация : Audio Coding 3
Коммерческое название : Dolby Digital
Идентификатор кодека : A_AC3
Продолжительность : 1 ч. 44 м.
Вид битрейта : Постоянный
Битрейт : 192 Кбит/сек
Каналы : 2 канала
Channel layout : L R
Частота : 48,0 КГц
Частота кадров : 31,250 кадров/сек (1536 SPF)
Метод сжатия : С потерями
Размер потока : 143 Мбайт (1%)
Заголовок : MVO (Первый канал)
Язык : Russian
Service kind : Complete Main
Default : Нет
Forced : Нет

Аудио #7
Идентификатор : 8
Формат : AC-3
Формат/Информация : Audio Coding 3
Коммерческое название : Dolby Digital
Идентификатор кодека : A_AC3
Продолжительность : 1 ч. 44 м.
Вид битрейта : Постоянный
Битрейт : 192 Кбит/сек
Каналы : 2 канала
Channel layout : L R
Частота : 48,0 КГц
Частота кадров : 31,250 кадров/сек (1536 SPF)
Метод сжатия : С потерями
Размер потока : 143 Мбайт (1%)
Заголовок : MVO (РТР)
Язык : Russian
Service kind : Complete Main
Default : Нет
Forced : Нет

Аудио #8
Идентификатор : 9
Формат : AC-3
Формат/Информация : Audio Coding 3
Коммерческое название : Dolby Digital
Идентификатор кодека : A_AC3
Продолжительность : 1 ч. 44 м.
Вид битрейта : Постоянный
Битрейт : 192 Кбит/сек
Каналы : 2 канала
Channel layout : L R
Частота : 48,0 КГц
Частота кадров : 31,250 кадров/сек (1536 SPF)
Метод сжатия : С потерями
Размер потока : 143 Мбайт (1%)
Заголовок : MVO (СТС)
Язык : Russian
Service kind : Complete Main
Default : Нет
Forced : Нет

Аудио #9
Идентификатор : 10
Формат : AC-3
Формат/Информация : Audio Coding 3
Коммерческое название : Dolby Digital
Идентификатор кодека : A_AC3
Продолжительность : 1 ч. 44 м.
Вид битрейта : Постоянный
Битрейт : 640 Кбит/сек
Каналы : 6 каналов
Channel layout : L R C LFE Ls Rs
Частота : 48,0 КГц
Частота кадров : 31,250 кадров/сек (1536 SPF)
Метод сжатия : С потерями
Размер потока : 477 Мбайт (4%)
Заголовок : AVO (Юрий Живов)
Язык : Russian
Service kind : Complete Main
Default : Нет
Forced : Нет

Аудио #10
Идентификатор : 11
Формат : AC-3
Формат/Информация : Audio Coding 3
Коммерческое название : Dolby Digital
Идентификатор кодека : A_AC3
Продолжительность : 1 ч. 44 м.
Вид битрейта : Постоянный
Битрейт : 640 Кбит/сек
Каналы : 6 каналов
Channel layout : L R C LFE Ls Rs
Частота : 48,0 КГц
Частота кадров : 31,250 кадров/сек (1536 SPF)
Метод сжатия : С потерями
Размер потока : 477 Мбайт (4%)
Заголовок : AVO (Андрей Гаврилов поздний)
Язык : Russian
Service kind : Complete Main
Default : Нет
Forced : Нет

Аудио #11
Идентификатор : 12
Формат : AC-3
Формат/Информация : Audio Coding 3
Коммерческое название : Dolby Digital
Идентификатор кодека : A_AC3
Продолжительность : 1 ч. 44 м.
Вид битрейта : Постоянный
Битрейт : 192 Кбит/сек
Каналы : 2 канала
Channel layout : L R
Частота : 48,0 КГц
Частота кадров : 31,250 кадров/сек (1536 SPF)
Метод сжатия : С потерями
Размер потока : 143 Мбайт (1%)
Заголовок : AVO (Андрей Гаврилов ранний)
Язык : Russian
Service kind : Complete Main
Default : Нет
Forced : Нет

Аудио #12
Идентификатор : 13
Формат : AC-3
Формат/Информация : Audio Coding 3
Коммерческое название : Dolby Digital
Идентификатор кодека : A_AC3
Продолжительность : 1 ч. 44 м.
Вид битрейта : Постоянный
Битрейт : 192 Кбит/сек
Каналы : 2 канала
Channel layout : L R
Частота : 48,0 КГц
Частота кадров : 31,250 кадров/сек (1536 SPF)
Метод сжатия : С потерями
Размер потока : 143 Мбайт (1%)
Заголовок : AVO (Сергей Визгунов)
Язык : Russian
Service kind : Complete Main
Default : Нет
Forced : Нет

Аудио #13
Идентификатор : 14
Формат : AC-3
Формат/Информация : Audio Coding 3
Коммерческое название : Dolby Digital
Идентификатор кодека : A_AC3
Продолжительность : 1 ч. 44 м.
Вид битрейта : Постоянный
Битрейт : 448 Кбит/сек
Каналы : 6 каналов
Channel layout : L R C LFE Ls Rs
Частота : 48,0 КГц
Частота кадров : 31,250 кадров/сек (1536 SPF)
Метод сжатия : С потерями
Размер потока : 334 Мбайт (3%)
Заголовок : VO (Вячеслав Котов)
Язык : Russian
Service kind : Complete Main
Default : Нет
Forced : Нет

Аудио #14
Идентификатор : 15
Формат : AC-3
Формат/Информация : Audio Coding 3
Коммерческое название : Dolby Digital
Идентификатор кодека : A_AC3
Продолжительность : 1 ч. 44 м.
Вид битрейта : Постоянный
Битрейт : 192 Кбит/сек
Каналы : 2 канала
Channel layout : L R
Частота : 48,0 КГц
Частота кадров : 31,250 кадров/сек (1536 SPF)
Метод сжатия : С потерями
Размер потока : 143 Мбайт (1%)
Заголовок : VO ("Лёша - Прапорщик")
Язык : Russian
Service kind : Complete Main
Default : Нет
Forced : Нет

Аудио #15
Идентификатор : 16
Формат : AC-3
Формат/Информация : Audio Coding 3
Коммерческое название : Dolby Digital
Идентификатор кодека : A_AC3
Продолжительность : 1 ч. 44 м.
Вид битрейта : Постоянный
Битрейт : 192 Кбит/сек
Каналы : 2 канала
Channel layout : L R
Частота : 48,0 КГц
Частота кадров : 31,250 кадров/сек (1536 SPF)
Метод сжатия : С потерями
Размер потока : 143 Мбайт (1%)
Заголовок : MVO (ICTV)
Язык : Ukrainian
Service kind : Complete Main
Default : Нет
Forced : Нет

Аудио #16
Идентификатор : 17
Формат : AC-3
Формат/Информация : Audio Coding 3
Коммерческое название : Dolby Digital
Идентификатор кодека : A_AC3
Продолжительность : 1 ч. 44 м.
Вид битрейта : Постоянный
Битрейт : 192 Кбит/сек
Каналы : 2 канала
Channel layout : L R
Частота : 48,0 КГц
Частота кадров : 31,250 кадров/сек (1536 SPF)
Метод сжатия : С потерями
Размер потока : 143 Мбайт (1%)
Заголовок : MVO (Інтер)
Язык : Ukrainian
Service kind : Complete Main
Default : Нет
Forced : Нет

Аудио #17
Идентификатор : 18
Формат : AC-3
Формат/Информация : Audio Coding 3
Коммерческое название : Dolby Digital
Идентификатор кодека : A_AC3
Продолжительность : 1 ч. 44 м.
Вид битрейта : Постоянный
Битрейт : 192 Кбит/сек
Каналы : 2 канала
Channel layout : L R
Частота : 48,0 КГц
Частота кадров : 31,250 кадров/сек (1536 SPF)
Метод сжатия : С потерями
Размер потока : 143 Мбайт (1%)
Заголовок : DVO (1+1)
Язык : Ukrainian
Service kind : Complete Main
Default : Нет
Forced : Нет

Аудио #18
Идентификатор : 19
Формат : AC-3
Формат/Информация : Audio Coding 3
Коммерческое название : Dolby Digital
Идентификатор кодека : A_AC3
Продолжительность : 1 ч. 44 м.
Вид битрейта : Постоянный
Битрейт : 192 Кбит/сек
Каналы : 2 канала
Channel layout : L R
Частота : 48,0 КГц
Частота кадров : 31,250 кадров/сек (1536 SPF)
Метод сжатия : С потерями
Размер потока : 143 Мбайт (1%)
Заголовок : DVO (Новий)
Язык : Ukrainian
Service kind : Complete Main
Default : Нет
Forced : Нет

Аудио #19
Идентификатор : 20
Формат : AC-3
Формат/Информация : Audio Coding 3
Коммерческое название : Dolby Digital
Идентификатор кодека : A_AC3
Продолжительность : 1 ч. 44 м.
Вид битрейта : Постоянный
Битрейт : 640 Кбит/сек
Каналы : 6 каналов
Channel layout : L R C LFE Ls Rs
Частота : 48,0 КГц
Частота кадров : 31,250 кадров/сек (1536 SPF)
Метод сжатия : С потерями
Размер потока : 477 Мбайт (4%)
Заголовок : Original
Язык : English
Service kind : Complete Main
Default : Нет
Forced : Нет

Текст #1
Идентификатор : 21
Формат : UTF-8
Идентификатор кодека : S_TEXT/UTF8
Идентификатор кодека/Информация : UTF-8 Plain Text
Продолжительность : 1 ч. 37 м.
Битрейт : 59 бит/сек
Частота кадров : 0,177 кадр/сек
Count of elements : 1036
Размер потока : 42,5 Кбайт (0%)
Заголовок : Full UHD Blu-Ray
Язык : Russian
Default : Нет
Forced : Нет

Текст #2
Идентификатор : 22
Формат : UTF-8
Идентификатор кодека : S_TEXT/UTF8
Идентификатор кодека/Информация : UTF-8 Plain Text
Продолжительность : 1 ч. 37 м.
Битрейт : 51 бит/сек
Частота кадров : 0,109 кадр/сек
Count of elements : 638
Размер потока : 36,8 Кбайт (0%)
Заголовок : Full 2
Язык : Russian
Default : Нет
Forced : Нет

Текст #3
Идентификатор : 23
Формат : UTF-8
Идентификатор кодека : S_TEXT/UTF8
Идентификатор кодека/Информация : UTF-8 Plain Text
Продолжительность : 1 ч. 28 м.
Битрейт : 4 бит/сек
Частота кадров : 0,012 кадр/сек
Count of elements : 61
Размер потока : 2,75 Кбайт (0%)
Заголовок : Forced
Язык : Ukrainian
Default : Нет
Forced : Нет

Текст #4
Идентификатор : 24
Формат : UTF-8
Идентификатор кодека : S_TEXT/UTF8
Идентификатор кодека/Информация : UTF-8 Plain Text
Продолжительность : 1 ч. 43 м.
Битрейт : 69 бит/сек
Частота кадров : 0,191 кадр/сек
Count of elements : 1184
Размер потока : 52,5 Кбайт (0%)
Заголовок : Full Netflix
Язык : Ukrainian
Default : Нет
Forced : Нет

Текст #5
Идентификатор : 25
Формат : UTF-8
Идентификатор кодека : S_TEXT/UTF8
Идентификатор кодека/Информация : UTF-8 Plain Text
Продолжительность : 1 ч. 37 м.
Битрейт : 45 бит/сек
Частота кадров : 0,173 кадр/сек
Count of elements : 1012
Размер потока : 32,1 Кбайт (0%)
Заголовок : Full
Язык : English
Default : Нет
Forced : Нет

Меню
00:00:00.000 : en:Madam Serena
00:06:31.100 : en:"I'm Back!"
00:12:05.133 : en:Drumbeats
00:13:53.333 : en:Bats in the Attic
00:18:22.466 : en:In the Jungle
00:22:50.666 : en:A Really Weird Game
00:25:36.634 : en:Digging Out the Past
00:26:24.535 : en:Start
00:28:15.002 : en:It Isn't Thunder
00:30:06.469 : en:Van Pelt
00:46:14.170 : en:Much Faster Than Bamboo
00:50:22.004 : en:His Fangs Are Sharp
00:55:10.705 : en:Monkeys
00:58:24.272 : en:A Tiny Bite
01:04:37.506 : en:Peter Cheats
01:06:29.773 : en:Panic
01:08:26.674 : en:Sir Save-a-Lot
01:11:17.141 : en:Peter vs. Van Pelt
01:13:28.508 : en:At the Crossroads
01:14:46.675 : en:Peter's Tail
01:18:26.109 : en:Monsoon in Your Lagoon
01:21:34.010 : en:Opening the Flood Gates
01:23:23.844 : en:Quicker Than the Sand
01:25:43.511 : en:Need a Hand?
01:27:33.878 : en:Ground Begins to Quake
01:30:52.011 : en:Jumanji
01:34:46.845 : en:Burial at Sea
01:35:47.845 : en:Christmas 1995
Загрузка...Cкриншот1 Джуманджи / Jumanji (1995) [4K REMASTERED] BDRip 1080p [HEVC] 10 bit от OldGamerЗагрузка...Cкриншот2 Джуманджи / Jumanji (1995) [4K REMASTERED] BDRip 1080p [HEVC] 10 bit от OldGamerЗагрузка...Cкриншот3 Джуманджи / Jumanji (1995) [4K REMASTERED] BDRip 1080p [HEVC] 10 bit от OldGamerЗагрузка...Cкриншот4 Джуманджи / Jumanji (1995) [4K REMASTERED] BDRip 1080p [HEVC] 10 bit от OldGamer
2. Джуманджи: Зов джунглей / Jumanji: Welcome to the Jungle (2017) BDRip 1080p [HEVC] 10 bit от OldGamer
Обложка Джуманджи: Зов джунглей / Jumanji: Welcome to the Jungle (2017) BDRip 1080p [HEVC] 10 bit от OldGamer
HEVC
10 bit
✂︎Сэмпл
Год: 2017
Страна: США, Австралия, Канада, Мексика, Индия
Студия: Matt Tolmach Productions, Radar Pictures Inc., Seven Bucks Productions, Sony Pictures Entertainment (SPE)
Жанр: Фэнтези, Боевик, Комедия, Приключения
Длительность: 01:59:03

Режиссер: Джейк Кэздан
В ролях: Дуэйн Джонсон, Кевин Харт, Джек Блэк, Карен Гиллан, Риз Дэрби, Бобби Каннавале, Ник Джонас, Алекс Вулф, Сер’Дариус Блэйн, Мэдисон Айсмен

Описание: Четверо подростков оказываются внутри игры Джуманджи. Их ждёт схватка с носорогами, чёрными мамбами, а на каждом шагу будет подстерегать бесконечная череда ловушек и головоломок. В игре они перевоплощаются: робкий и застенчивый Спенсер превращается в отважного и сильного исследователя, здоровяк Фридж – в коротышку-зоолога, модница и красавица Беттани – в полного профессора, а неуклюжая Марта становится бесстрашной и ловкой амазонкой. Друзьям придётся привыкнуть к новым ролям, постараться не погибнуть и найти дорогу домой.


Исходник: Blu-Ray Remux 1080p (rutracker)
Видео: 1920x804, 5771 Kbps
Аудио1: AC3, 6 ch, 640 Kbps - РусскийРусский, DUB (Пифагор)
Аудио2: AC3, 6 ch, 640 Kbps - РусскийРусский, AVO (Юрий Живов)
Аудио3: AC3, 6 ch, 640 Kbps - РусскийРусский, VO (Михаил Яроцкий)
Аудио4: AC3, 2 ch, 224 Kbps - УкраинскийУкраинский, DUB
Аудио5: AC3, 6 ch, 640 Kbps - АнглийскийАнглийский
Субтитры: русские, украинские, английские (SDH)

Как за несколько секунд удалить ненужные аудиодорожки и субтитры (Внимание! После удаления вы не сможете поддержать раздачу)


Лог (x265 info)x265 [info]: frame I: 715, Avg QP:17.98 kb/s: 18694.75
x265 [info]: frame P: 34258, Avg QP:19.26 kb/s: 11896.20
x265 [info]: frame B: 136291, Avg QP:21.42 kb/s: 4162.32
x265 [info]: Weighted P-Frames: Y:8.6% UV:6.2%
x265 [info]: Weighted B-Frames: Y:11.9% UV:7.9%
x265 [info]: encoded 171264 frames in 117432.21s (1.46 fps), 5770.00 kb/s, Avg QP:20.97
МедиаинфоОбщее
Уникальный идентификатор : 42445673445260856074885649685007638621 (0x1FEEBD460724A7D040FC2C4C0C39205D)
Полное имя : \\.\Джуманджи.Зов.джунглей.Jumanji.Welcome.To.The.Jungle.2017.BDRip-HEVC.1080p.mkv
Формат : Matroska
Версия формата : Version 4
Размер файла : 7,12 Гбайт
Продолжительность : 1 ч. 59 м.
Общий поток : 8 559 Кбит/сек
Частота кадров : 23,976 кадра/сек
Название фильма : Джуманджи: Зов Джунглей / Джуманджи: Зов Джунглей
Кодирование произвёл : OldGamer
Тип содержимого : Movie
Описание : «Осторожно, засосёт»
Дата выпуска : 2017-12-09
Дата записи : 2017-12-09
Программа кодирования : mkvmerge v83.0 ('Circle Of Friends') 64-bit
Библиотека кодирования : libebml v1.4.5 + libmatroska v1.7.1 / xvid4psp5
Обложка : Yes
Attachments : cover.jpg
ACTOR : Dwayne Johnson, Kevin Hart, Jack Black, Karen Gillan, Rhys Darby, Bobby Cannavale, Nick Jonas, Alex Wolff, Ser'Darius Blain, Madison Iseman, Morgan Turner, Sean Buxton, Mason Guccione, Marin Hinkle, Tracey Bonner, Najah Jackson, Natasha Charles Parke...
ARTIST : Dwayne Johnson, Kevin Hart, Jack Black, Karen Gillan, Rhys Darby, Bobby Cannavale, Nick Jonas, Alex Wolff, Ser'Darius Blain, Madison Iseman, Morgan Turner, Sean Buxton, Mason Guccione, Marin Hinkle, Tracey Bonner, Najah Jackson, Natasha Charles Parke...
DIRECTOR : Jake Kasdan
GENRE : приключения, комедия, фэнтези
LAW_RATING : PG-13
PRODUCER : William Teitler, Matt Tolmach
PRODUCTION_STUDIO : Columbia Pictures
RATING : PG-13
SCREENPLAY_BY : Scott Rosenberg, Jeff Pinkner, Chris McKenna, Erik Sommers
SUMMARY : «Осторожно, засосёт»
SYNOPSIS : На этот раз в полном опасностей и приключений мире Джуманджи оказываются четверо подростков. Их ждет схватка с носорогами, черными мамбами, а на каждом шагу будет подстерегать бесконечная череда ловушек и головоломок. Чтобы пройти игру и остаться в живых, им придется перевоплотиться в персонажей игры: робкий и застенчивый Спенсер превращается в отважного и сильного исследователя, здоровяк Фридж – в заучку-коротышку, модница и красавица Беттани – в профессора, а неуклюжая и нескладная Марта становится бесстрашной и ловкой амазонкой.
WRITTEN_BY : Scott Rosenberg, Jeff Pinkner, Chris McKenna, Erik Sommers

Видео
Идентификатор : 1
Формат : HEVC
Формат/Информация : High Efficiency Video Coding
Профиль формата : Main 10@L4.1@High
Идентификатор кодека : V_MPEGH/ISO/HEVC
Продолжительность : 1 ч. 59 м.
Битрейт : 5 771 Кбит/сек
Ширина : 1 920 пикселей
Высота : 804 пикселя
Соотношение сторон : 2,39:1
Режим частоты кадров : Постоянный
Частота кадров : 23,976 (24000/1001) кадра/сек
Цветовое пространство : YUV
Субдискретизация насыщенности : 4:2:0
Битовая глубина : 10 бит
Бит/(Пиксели*Кадры) : 0.156
Размер потока : 4,80 Гбайт (67%)
Заголовок : Jumanji: Welcome to the Jungle / Rip by OldGamer
Библиотека кодирования : x265 3.5+110-8ee01d45b:[Windows][GCC 13.2.0][64 bit] 10bit
Настройки программы : cpuid=1111039 / frame-threads=3 / numa-pools=8 / wpp / no-pmode / no-pme / no-psnr / no-ssim / log-level=2 / input-csp=1 / input-res=1920x804 / interlace=0 / total-frames=171264 / level-idc=41 / high-tier=1 / uhd-bd=0 / ref=5 / no-allow-non-conformance / no-repeat-headers / annexb / no-aud / no-eob / no-eos / no-hrd / info / hash=0 / temporal-layers=0 / open-gop / min-keyint=23 / keyint=240 / gop-lookahead=0 / bframes=16 / b-adapt=2 / b-pyramid / bframe-bias=0 / rc-lookahead=60 / lookahead-slices=0 / scenecut=40 / no-hist-scenecut / radl=0 / no-splice / no-intra-refresh / ctu=32 / min-cu-size=8 / rect / amp / max-tu-size=32 / tu-inter-depth=4 / tu-intra-depth=4 / limit-tu=1 / rdoq-level=2 / dynamic-rd=0.00 / no-ssim-rd / signhide / no-tskip / nr-intra=0 / nr-inter=0 / no-constrained-intra / no-strong-intra-smoothing / max-merge=5 / limit-refs=3 / no-limit-modes / me=3 / subme=7 / merange=57 / temporal-mvp / no-frame-dup / no-hme / weightp / weightb / no-analyze-src-pics / deblock=-2:-2 / no-sao / no-sao-non-deblock / rd=6 / selective-sao=0 / no-early-skip / no-rskip / no-fast-intra / no-tskip-fast / no-cu-lossless / b-intra / no-splitrd-skip / rdpenalty=0 / psy-rd=2.00 / psy-rdoq=1.00 / no-rd-refine / no-lossless / cbqpoffs=0 / crqpoffs=0 / rc=crf / crf=19.1 / qcomp=0.60 / qpstep=4 / stats-write=0 / stats-read=0 / vbv-maxrate=50000 / vbv-bufsize=50000 / vbv-init=0.9 / min-vbv-fullness=50.0 / max-vbv-fullness=80.0 / crf-max=0.0 / crf-min=0.0 / ipratio=1.40 / pbratio=1.30 / aq-mode=1 / aq-strength=1.00 / no-cutree / zone-count=1 / zones: / start-frame=161706 / end-frame=171264 / qp=36 / no-strict-cbr / qg-size=32 / no-rc-grain / qpmax=69 / qpmin=0 / no-const-vbv / sar=1 / overscan=0 / videoformat=5 / range=0 / colorprim=2 / transfer=2 / colormatrix=2 / chromaloc=0 / display-window=0 / cll=0,0 / min-luma=0 / max-luma=1023 / log2-max-poc-lsb=8 / vui-timing-info / vui-hrd-info / slices=1 / no-opt-qp-pps / no-opt-ref-list-length-pps / no-multi-pass-opt-rps / scenecut-bias=0.00 / no-opt-cu-delta-qp / no-aq-motion / no-hdr10 / no-hdr10-opt / no-dhdr10-opt / no-idr-recovery-sei / analysis-reuse-level=0 / analysis-save-reuse-level=0 / analysis-load-reuse-level=0 / scale-factor=0 / refine-intra=0 / refine-inter=0 / refine-mv=1 / refine-ctu-distortion=0 / no-limit-sao / ctu-info=0 / no-lowpass-dct / refine-analysis-type=0 / copy-pic=1 / max-ausize-factor=1.0 / no-dynamic-refine / no-single-sei / no-hevc-aq / no-svt / no-field / qp-adaptation-range=1.00 / scenecut-aware-qp=0conformance-window-offsets / right=0 / bottom=0 / decoder-max-rate=0 / no-vbv-live-multi-pass / no-mcstf / no-sbrc
Язык : English
Default : Да
Forced : Нет

Аудио #1
Идентификатор : 2
ID in the original source medium : 4355 (0x1103)
Формат : AC-3
Формат/Информация : Audio Coding 3
Коммерческое название : Dolby Digital
Идентификатор кодека : A_AC3
Продолжительность : 1 ч. 59 м.
Вид битрейта : Постоянный
Битрейт : 640 Кбит/сек
Каналы : 6 каналов
Channel layout : L R C LFE Ls Rs
Частота : 48,0 КГц
Частота кадров : 31,250 кадров/сек (1536 SPF)
Метод сжатия : С потерями
Размер потока : 545 Мбайт (7%)
Заголовок : DUB (Пифагор)
Язык : Russian
Service kind : Complete Main
Default : Да
Forced : Нет
Носитель оригинала : Blu-ray

Аудио #2
Идентификатор : 3
Формат : AC-3
Формат/Информация : Audio Coding 3
Коммерческое название : Dolby Digital
Идентификатор кодека : A_AC3
Продолжительность : 1 ч. 59 м.
Вид битрейта : Постоянный
Битрейт : 640 Кбит/сек
Каналы : 6 каналов
Channel layout : L R C LFE Ls Rs
Частота : 48,0 КГц
Частота кадров : 31,250 кадров/сек (1536 SPF)
Метод сжатия : С потерями
Размер потока : 545 Мбайт (7%)
Заголовок : AVO (Юрий Живов)
Язык : Russian
Service kind : Complete Main
Default : Нет
Forced : Нет

Аудио #3
Идентификатор : 4
Формат : AC-3
Формат/Информация : Audio Coding 3
Коммерческое название : Dolby Digital
Идентификатор кодека : A_AC3
Продолжительность : 1 ч. 59 м.
Вид битрейта : Постоянный
Битрейт : 640 Кбит/сек
Каналы : 6 каналов
Channel layout : L R C LFE Ls Rs
Частота : 48,0 КГц
Частота кадров : 31,250 кадров/сек (1536 SPF)
Метод сжатия : С потерями
Размер потока : 545 Мбайт (7%)
Заголовок : VO (Михаил Яроцкий)
Язык : Russian
Service kind : Complete Main
Default : Нет
Forced : Нет

Аудио #4
Идентификатор : 5
Формат : AC-3
Формат/Информация : Audio Coding 3
Коммерческое название : Dolby Digital
Идентификатор кодека : A_AC3
Продолжительность : 1 ч. 59 м.
Вид битрейта : Постоянный
Битрейт : 224 Кбит/сек
Каналы : 2 канала
Channel layout : L R
Частота : 48,0 КГц
Частота кадров : 31,250 кадров/сек (1536 SPF)
Метод сжатия : С потерями
Размер потока : 191 Мбайт (3%)
Заголовок : DUB
Язык : Ukrainian
Service kind : Complete Main
Default : Нет
Forced : Нет

Аудио #5
Идентификатор : 6
Формат : AC-3
Формат/Информация : Audio Coding 3
Коммерческое название : Dolby Digital
Идентификатор кодека : A_AC3
Продолжительность : 1 ч. 59 м.
Вид битрейта : Постоянный
Битрейт : 640 Кбит/сек
Каналы : 6 каналов
Channel layout : L R C LFE Ls Rs
Частота : 48,0 КГц
Частота кадров : 31,250 кадров/сек (1536 SPF)
Метод сжатия : С потерями
Размер потока : 545 Мбайт (7%)
Язык : English
Service kind : Complete Main
Default : Нет
Forced : Нет

Текст #1
Идентификатор : 7
Формат : UTF-8
Идентификатор кодека : S_TEXT/UTF8
Идентификатор кодека/Информация : UTF-8 Plain Text
Продолжительность : 1 ч. 57 м.
Битрейт : 95 бит/сек
Частота кадров : 0,223 кадр/сек
Count of elements : 1577
Размер потока : 82,2 Кбайт (0%)
Язык : Russian
Default : Нет
Forced : Нет

Текст #2
Идентификатор : 8
Формат : UTF-8
Идентификатор кодека : S_TEXT/UTF8
Идентификатор кодека/Информация : UTF-8 Plain Text
Продолжительность : 1 ч. 57 м.
Битрейт : 76 бит/сек
Частота кадров : 0,221 кадр/сек
Count of elements : 1562
Размер потока : 66,4 Кбайт (0%)
Язык : Ukrainian
Default : Нет
Forced : Нет

Текст #3
Идентификатор : 9
Формат : UTF-8
Идентификатор кодека : S_TEXT/UTF8
Идентификатор кодека/Информация : UTF-8 Plain Text
Продолжительность : 1 ч. 58 м.
Битрейт : 69 бит/сек
Частота кадров : 0,282 кадр/сек
Count of elements : 1999
Размер потока : 60,2 Кбайт (0%)
Заголовок : SDH
Язык : English
Default : Нет
Forced : Нет

Меню
00:00:00.000 : en:Studio Logo
00:00:38.800 : en:In 1996
00:03:05.800 : en:Title Sequence
00:03:10.800 : en:Spencer gives Fridge his paper
00:07:17.800 : en:Spencer and other students receive detention
00:12:35.800 : en:The students discover an old Jumanji game
00:17:15.800 : en:The students learn they're in a different dimension
00:23:43.800 : en:Nigel tells the group the premise of the game
00:29:20.800 : en:The group learns their player's strengths and weaknesses
00:34:26.800 : en:Van Pelt's henchmen find the players
00:38:02.800 : en:The players discover how many lives they have
00:40:26.800 : en:Shelly learns how the male anatomy works
00:41:30.800 : en:Van Pelt learns the players have gotten away
00:42:28.800 : en:Through the forest Bravestone and Moose have a disagreement
00:47:10.800 : en:The group of explorers arrive at the Bazaar
00:57:13.800 : en:A helpful stranger leads the group to safety
01:00:30.800 : en:The group discovers the missing piece and margaritas
01:03:20.800 : en:Shelly gives Ruby some pointers
01:08:14.800 : en:The guys stake out the shed
01:10:21.800 : en:Ruby puts on her dancing shoes
01:15:51.800 : en:Flying by helicopter, the group encounters a rhino stampede
01:21:17.800 : en:Shelly performs a selfless act
01:24:00.800 : en:Bravestone and Roundhouse reveal their feelings
01:28:19.800 : en:The team reaches the final element
01:33:09.800 : en:The group splits up to accomplish the last task
01:42:16.800 : en:Nigel brings the group back
01:45:06.800 : en:The group returns to find their lives back to normal
01:48:31.800 : en:Go get that girl Bravestone
01:50:38.800 : en:End Credits
Загрузка...Cкриншот1 Джуманджи: Зов джунглей / Jumanji: Welcome to the Jungle (2017) BDRip 1080p [HEVC] 10 bit от OldGamerЗагрузка...Cкриншот2 Джуманджи: Зов джунглей / Jumanji: Welcome to the Jungle (2017) BDRip 1080p [HEVC] 10 bit от OldGamerЗагрузка...Cкриншот3 Джуманджи: Зов джунглей / Jumanji: Welcome to the Jungle (2017) BDRip 1080p [HEVC] 10 bit от OldGamerЗагрузка...Cкриншот4 Джуманджи: Зов джунглей / Jumanji: Welcome to the Jungle (2017) BDRip 1080p [HEVC] 10 bit от OldGamer
3. Джуманджи: Новый уровень / Jumanji: The Next Level (2019) BDRip 1080p [HEVC] 10 bit от OldGamer
Обложка Джуманджи: Новый уровень / Jumanji: The Next Level (2019) BDRip 1080p [HEVC] 10 bit от OldGamer
HEVC
10 bit
✂︎Сэмпл
Год: 2019
Страна: США, Индия, Австралия, Новая Зеландия, Таиланд
Студия: Columbia Pictures Corporation, Detective Agency, The, Matt Tolmach Productions, Radar Pictures Inc., Seven Bucks Productions
Жанр: Фэнтези, Боевик, Комедия, Приключения
Длительность: 02:03:10

Режиссер: Джейк Кэздан
В ролях: Дуэйн Джонсон, Джек Блэк, Кевин Харт, Карен Гиллан, Ник Джонас, Аквафина, Риз Дэрби, Дэнни ДеВито, Дэнни Гловер, Морган Тернер

Описание: Пытаясь спасти Спенсера, снова попавшего в игру, туда же отправляются и остальные. К их удивлению, правила Джуманджи изменились, и более того - на этот раз в игру затянуло дедулю Спенсера и его престарелого друга Майло. Чтобы выполнить задания и вернуться домой, друзьям предстоит отправиться в путешествие по ранее неизведанным и таинственным уголкам Джуманджи – от засушливой пустыни до заснеженных гор.


Исходник: Blu-Ray Remux 1080p (rutracker)
Видео: 1920x804, 5080 Kbps
Аудио1: AC3, 6 ch, 640 Kbps - РусскийРусский, DUB (BD EUR)
Аудио2: AC3, 6 ch, 640 Kbps - РусскийРусский, VO (Михаил Яроцкий)
Аудио3: AC3, 6 ch, 640 Kbps - УкраинскийУкраинский, DUB (BD EUR)
Аудио4: AC3, 6 ch, 640 Kbps - АнглийскийАнглийский
Субтитры: русские (full, forced), украинские (full, forced), английские (SDH)

Как за несколько секунд удалить ненужные аудиодорожки и субтитры (Внимание! После удаления вы не сможете поддержать раздачу)


Лог (x265 info)x265 [info]: frame I: 742, Avg QP:18.16 kb/s: 17451.65
x265 [info]: frame P: 33078, Avg QP:19.75 kb/s: 10750.92
x265 [info]: frame B: 143372, Avg QP:21.68 kb/s: 3706.03
x265 [info]: Weighted P-Frames: Y:10.7% UV:8.2%
x265 [info]: Weighted B-Frames: Y:12.6% UV:9.2%
x265 [info]: encoded 177192 frames in 113391.19s (1.56 fps), 5078.72 kb/s, Avg QP:21.30
МедиаинфоОбщее
Уникальный идентификатор : 182663787124819089851681254875139996034 (0x896BC40765EBB4614C260BD61C44F982)
Полное имя : \\.\Джуманджи.Новый.уровень.Jumanji.The.Next.Level.2019.BDRip-HEVC.1080p.mkv
Формат : Matroska
Версия формата : Version 4
Размер файла : 6,58 Гбайт
Продолжительность : 2 ч. 3 м.
Общий поток : 7 644 Кбит/сек
Частота кадров : 23,976 кадра/сек
Название фильма : Джуманджи: Новый уровень / Джуманджи: Новый уровень
Кодирование произвёл : OldGamer
Тип содержимого : Movie
Дата выпуска : 2019-12-04
Дата записи : 2019-12-04
Программа кодирования : mkvmerge v83.0 ('Circle Of Friends') 64-bit
Библиотека кодирования : libebml v1.4.5 + libmatroska v1.7.1 / xvid4psp5
Обложка : Yes
Attachments : cover.jpg
ACTOR : Dwayne Johnson, Kevin Hart, Jack Black, Karen Gillan, Awkwafina, Nick Jonas, Alex Wolff, Morgan Turner, Madison Iseman, Ser'Darius Blain, Danny DeVito, Danny Glover, Rhys Darby, Colin Hanks, Rory McCann, Marin Hinkle, Vince Pisani, Dorothy Steel, Jen...
ARTIST : Dwayne Johnson, Kevin Hart, Jack Black, Karen Gillan, Awkwafina, Nick Jonas, Alex Wolff, Morgan Turner, Madison Iseman, Ser'Darius Blain, Danny DeVito, Danny Glover, Rhys Darby, Colin Hanks, Rory McCann, Marin Hinkle, Vince Pisani, Dorothy Steel, Jen...
DIRECTOR : Jake Kasdan
GENRE : приключения, комедия, фэнтези
LAW_RATING : PG-13
PRODUCER : Dwayne Johnson, Jake Kasdan, Matt Tolmach, Dany Garcia, Hiram Garcia
PRODUCTION_STUDIO : The Detective Agency
RATING : PG-13
SYNOPSIS : Пытаясь спасти Спенсера, снова попавшего в игру, туда же отправляются и остальные. К их удивлению, правила Джуманджи изменились, и более того - на этот раз в игру затянуло дедулю Спенсера и его престарелого друга Майло. Чтобы выполнить задания и вернуться домой, друзьям предстоит отправиться в путешествие по ранее неизведанным и таинственным уголкам Джуманджи – от засушливой пустыни до заснеженных гор.

Видео
Идентификатор : 1
Формат : HEVC
Формат/Информация : High Efficiency Video Coding
Профиль формата : Main 10@L4.1@High
Идентификатор кодека : V_MPEGH/ISO/HEVC
Продолжительность : 2 ч. 3 м.
Битрейт : 5 080 Кбит/сек
Ширина : 1 920 пикселей
Высота : 804 пикселя
Соотношение сторон : 2,39:1
Режим частоты кадров : Постоянный
Частота кадров : 23,976 (24000/1001) кадра/сек
Цветовое пространство : YUV
Субдискретизация насыщенности : 4:2:0
Битовая глубина : 10 бит
Бит/(Пиксели*Кадры) : 0.137
Размер потока : 4,37 Гбайт (66%)
Заголовок : Jumanji: The Next Level / Rip by OldGamer
Библиотека кодирования : x265 3.5+110-8ee01d45b:[Windows][GCC 13.2.0][64 bit] 10bit
Настройки программы : cpuid=1111039 / frame-threads=3 / numa-pools=8 / wpp / no-pmode / no-pme / no-psnr / no-ssim / log-level=2 / input-csp=1 / input-res=1920x804 / interlace=0 / total-frames=177192 / level-idc=41 / high-tier=1 / uhd-bd=0 / ref=5 / no-allow-non-conformance / no-repeat-headers / annexb / no-aud / no-eob / no-eos / no-hrd / info / hash=0 / temporal-layers=0 / open-gop / min-keyint=23 / keyint=240 / gop-lookahead=0 / bframes=16 / b-adapt=2 / b-pyramid / bframe-bias=0 / rc-lookahead=60 / lookahead-slices=0 / scenecut=40 / no-hist-scenecut / radl=0 / no-splice / no-intra-refresh / ctu=32 / min-cu-size=8 / rect / amp / max-tu-size=32 / tu-inter-depth=4 / tu-intra-depth=4 / limit-tu=1 / rdoq-level=2 / dynamic-rd=0.00 / no-ssim-rd / signhide / no-tskip / nr-intra=0 / nr-inter=0 / no-constrained-intra / no-strong-intra-smoothing / max-merge=5 / limit-refs=3 / no-limit-modes / me=3 / subme=7 / merange=57 / temporal-mvp / no-frame-dup / no-hme / weightp / weightb / no-analyze-src-pics / deblock=-2:-2 / no-sao / no-sao-non-deblock / rd=6 / selective-sao=0 / no-early-skip / no-rskip / no-fast-intra / no-tskip-fast / no-cu-lossless / b-intra / no-splitrd-skip / rdpenalty=0 / psy-rd=2.00 / psy-rdoq=1.00 / no-rd-refine / no-lossless / cbqpoffs=0 / crqpoffs=0 / rc=crf / crf=20.2 / qcomp=0.70 / qpstep=4 / stats-write=0 / stats-read=0 / vbv-maxrate=50000 / vbv-bufsize=50000 / vbv-init=0.9 / min-vbv-fullness=50.0 / max-vbv-fullness=80.0 / crf-max=0.0 / crf-min=0.0 / ipratio=1.40 / pbratio=1.30 / aq-mode=1 / aq-strength=1.00 / no-cutree / zone-count=1 / zones: / start-frame=166949 / end-frame=177192 / qp=36 / no-strict-cbr / qg-size=32 / no-rc-grain / qpmax=69 / qpmin=0 / no-const-vbv / sar=1 / overscan=0 / videoformat=5 / range=0 / colorprim=2 / transfer=2 / colormatrix=2 / chromaloc=0 / display-window=0 / cll=0,0 / min-luma=0 / max-luma=1023 / log2-max-poc-lsb=8 / vui-timing-info / vui-hrd-info / slices=1 / no-opt-qp-pps / no-opt-ref-list-length-pps / no-multi-pass-opt-rps / scenecut-bias=0.00 / no-opt-cu-delta-qp / no-aq-motion / no-hdr10 / no-hdr10-opt / no-dhdr10-opt / no-idr-recovery-sei / analysis-reuse-level=0 / analysis-save-reuse-level=0 / analysis-load-reuse-level=0 / scale-factor=0 / refine-intra=0 / refine-inter=0 / refine-mv=1 / refine-ctu-distortion=0 / no-limit-sao / ctu-info=0 / no-lowpass-dct / refine-analysis-type=0 / copy-pic=1 / max-ausize-factor=1.0 / no-dynamic-refine / no-single-sei / no-hevc-aq / no-svt / no-field / qp-adaptation-range=1.00 / scenecut-aware-qp=0conformance-window-offsets / right=0 / bottom=0 / decoder-max-rate=0 / no-vbv-live-multi-pass / no-mcstf / no-sbrc
Язык : English
Default : Да
Forced : Нет

Аудио #1
Идентификатор : 2
Формат : AC-3
Формат/Информация : Audio Coding 3
Коммерческое название : Dolby Digital
Идентификатор кодека : A_AC3
Продолжительность : 2 ч. 3 м.
Вид битрейта : Постоянный
Битрейт : 640 Кбит/сек
Каналы : 6 каналов
Channel layout : L R C LFE Ls Rs
Частота : 48,0 КГц
Частота кадров : 31,250 кадров/сек (1536 SPF)
Метод сжатия : С потерями
Размер потока : 564 Мбайт (8%)
Заголовок : DUB (BD EUR)
Язык : Russian
Service kind : Complete Main
Default : Да
Forced : Нет

Аудио #2
Идентификатор : 3
Формат : AC-3
Формат/Информация : Audio Coding 3
Коммерческое название : Dolby Digital
Идентификатор кодека : A_AC3
Продолжительность : 2 ч. 3 м.
Вид битрейта : Постоянный
Битрейт : 640 Кбит/сек
Каналы : 6 каналов
Channel layout : L R C LFE Ls Rs
Частота : 48,0 КГц
Частота кадров : 31,250 кадров/сек (1536 SPF)
Метод сжатия : С потерями
Размер потока : 564 Мбайт (8%)
Заголовок : VO (Михаил Яроцкий)
Язык : Russian
Service kind : Complete Main
Default : Нет
Forced : Нет

Аудио #3
Идентификатор : 4
Формат : AC-3
Формат/Информация : Audio Coding 3
Коммерческое название : Dolby Digital
Идентификатор кодека : A_AC3
Продолжительность : 2 ч. 3 м.
Вид битрейта : Постоянный
Битрейт : 640 Кбит/сек
Каналы : 6 каналов
Channel layout : L R C LFE Ls Rs
Частота : 48,0 КГц
Частота кадров : 31,250 кадров/сек (1536 SPF)
Метод сжатия : С потерями
Размер потока : 564 Мбайт (8%)
Заголовок : DUB (BD EUR)
Язык : Ukrainian
Service kind : Complete Main
Default : Нет
Forced : Нет

Аудио #4
Идентификатор : 5
Формат : AC-3
Формат/Информация : Audio Coding 3
Коммерческое название : Dolby Digital
Идентификатор кодека : A_AC3
Продолжительность : 2 ч. 3 м.
Вид битрейта : Постоянный
Битрейт : 640 Кбит/сек
Каналы : 6 каналов
Channel layout : L R C LFE Ls Rs
Частота : 48,0 КГц
Частота кадров : 31,250 кадров/сек (1536 SPF)
Метод сжатия : С потерями
Размер потока : 564 Мбайт (8%)
Заголовок : Original
Язык : English
Service kind : Complete Main
Default : Нет
Forced : Нет

Текст #1
Идентификатор : 6
Формат : UTF-8
Идентификатор кодека : S_TEXT/UTF8
Идентификатор кодека/Информация : UTF-8 Plain Text
Продолжительность : 5 с. 506 мс.
Битрейт : 62 бит/сек
Частота кадров : 0,363 кадр/сек
Count of elements : 2
Размер потока : 43,0 байт (0%)
Заголовок : Forced
Язык : Russian
Default : Да
Forced : Нет

Текст #2
Идентификатор : 7
Формат : UTF-8
Идентификатор кодека : S_TEXT/UTF8
Идентификатор кодека/Информация : UTF-8 Plain Text
Продолжительность : 1 ч. 53 м.
Битрейт : 85 бит/сек
Частота кадров : 0,236 кадр/сек
Count of elements : 1603
Размер потока : 71,2 Кбайт (0%)
Заголовок : Full
Язык : Russian
Default : Нет
Forced : Нет

Текст #3
Идентификатор : 8
Формат : UTF-8
Идентификатор кодека : S_TEXT/UTF8
Идентификатор кодека/Информация : UTF-8 Plain Text
Продолжительность : 5 с. 506 мс.
Битрейт : 59 бит/сек
Частота кадров : 0,363 кадр/сек
Count of elements : 2
Размер потока : 41,0 байт (0%)
Заголовок : Forced
Язык : Ukrainian
Default : Нет
Forced : Нет

Текст #4
Идентификатор : 9
Формат : UTF-8
Идентификатор кодека : S_TEXT/UTF8
Идентификатор кодека/Информация : UTF-8 Plain Text
Продолжительность : 1 ч. 52 м.
Битрейт : 81 бит/сек
Частота кадров : 0,232 кадр/сек
Count of elements : 1570
Размер потока : 67,1 Кбайт (0%)
Заголовок : Full
Язык : Ukrainian
Default : Нет
Forced : Нет

Текст #5
Идентификатор : 10
Формат : UTF-8
Идентификатор кодека : S_TEXT/UTF8
Идентификатор кодека/Информация : UTF-8 Plain Text
Продолжительность : 1 ч. 52 м.
Битрейт : 58 бит/сек
Частота кадров : 0,254 кадр/сек
Count of elements : 1719
Размер потока : 48,5 Кбайт (0%)
Заголовок : Full
Язык : English
Default : Нет
Forced : Нет

Текст #6
Идентификатор : 11
Формат : UTF-8
Идентификатор кодека : S_TEXT/UTF8
Идентификатор кодека/Информация : UTF-8 Plain Text
Продолжительность : 2 ч. 2 м.
Битрейт : 63 бит/сек
Частота кадров : 0,299 кадр/сек
Count of elements : 2199
Размер потока : 56,9 Кбайт (0%)
Заголовок : Full - SDH
Язык : English
Default : Нет
Forced : Нет

Меню
00:00:00.000 : en:Chapter01
00:09:18.349 : en:Chapter02
00:17:40.476 : en:Chapter03
00:23:10.681 : en:Chapter04
00:31:12.287 : en:Chapter05
00:38:19.130 : en:Chapter06
00:42:39.265 : en:Chapter07
00:48:52.972 : en:Chapter08
00:57:11.428 : en:Chapter09
01:06:03.001 : en:Chapter10
01:13:16.142 : en:Chapter11
01:21:29.093 : en:Chapter12
01:28:33.725 : en:Chapter13
01:32:39.512 : en:Chapter14
01:37:05.403 : en:Chapter15
01:45:00.586 : en:Chapter16
Загрузка...Cкриншот1 Джуманджи: Новый уровень / Jumanji: The Next Level (2019) BDRip 1080p [HEVC] 10 bit от OldGamerЗагрузка...Cкриншот2 Джуманджи: Новый уровень / Jumanji: The Next Level (2019) BDRip 1080p [HEVC] 10 bit от OldGamerЗагрузка...Cкриншот3 Джуманджи: Новый уровень / Jumanji: The Next Level (2019) BDRip 1080p [HEVC] 10 bit от OldGamerЗагрузка...Cкриншот4 Джуманджи: Новый уровень / Jumanji: The Next Level (2019) BDRip 1080p [HEVC] 10 bit от OldGamer

Поблагодарили: 20AlexsBond, and50, AndresUA, Antilord90, aquarius, Bacek, Broadcast, Brooklyn, FijiMAX, ilyich05, IRIT, Kilop77, Kiran, kotkosten, Maksimus_2024, SergKote, sharkey71, stickstoff, vungtay, Winsent
Файлы: 3
  • Jumanji
    • 12.53 ГБДжуманджи.Jumanji.1995.4K.Remastered.BDRip-HEVC.1080p.mkv
    • 7.12 ГБДжуманджи.Зов.джунглей.Jumanji.Welcome.To.The.Jungle.2017.BDRip-HEVC.1080p.mkv
    • 6.58 ГБДжуманджи.Новый.уровень.Jumanji.The.Next.Level.2019.BDRip-HEVC.1080p.mkv

Рейтинги КП и IMDB, кнопки "Раздайте, пожалуйста" и "Спасибо", а также мультитрекерная статистика доступны только зарегистрированным/авторизованным пользователям!

OldGamer
1252782(3) 26.22 ГБ

💬︎ Комментарии

Добавление комментариев доступно только зарегистрированным/авторизованным пользователям.

Всего: 2
Аватар OldGamer
OldGamer
axe66 писал(а):
спасибо за раздачу. затура будет добавлена? насколько я понимаю фильмы из одной вселенной.
в эту раздачу точно не будет
Аватар axe66
axe66
спасибо за раздачу. затура будет добавлена? насколько я понимаю фильмы из одной вселенной.