💬 Мини-чат

Для тех, кому интересен процесс переделки сайта - https://rips.club/changelog.html (обновлен 20.04.2024)
  • justmkr
Отправка сообщений доступна только зарегистрированным/авторизованным пользователям.
Онлайн (за 10 мин.): 1

Гримм / Grimm (2011-2017) BDRip 1080p [HEVC] 10 bit от OldGamer (RG RIPS CLUB)

HEVC
10 bit
Обложка Гримм / Grimm (2011-2017) BDRip 1080p [HEVC] 10 bit от OldGamer (RG RIPS CLUB) Год: 2011-2017
Страна: США
Жанр: Фэнтези, Ужасы, Драма, Детектив

1. Гримм / Grimm (2011-2012) [1 сезон] BDRip 1080p [HEVC] 10 bit от OldGamer
HEVC
10 bit
Обложка Гримм / Grimm (2011-2012) [1 сезон] BDRip 1080p [HEVC] 10 bit от OldGamer Год: 2011-2012
Страна: США
Студия: GK Productions, Hazy Mills Productions, Universal TV
Жанр: Фэнтези, Ужасы, Драма, Детектив
Продолжительность: ~00:43:00 серия

Режиссер: Норберто Барба, Терренс О’Хара, Эрик Ланёвилль
В ролях: Дэвид Джунтоли, Битси Таллок, Сайлас Уэйр Митчелл, Расселл Хорнсби, Саша Ройз, Регги Ли, Клэр Коффи, Бри Тёрнер, Роберт Бланш, Дэмиен Пакер

Описание: Действие происходит в современном Портленде, где детектив из отдела убийств узнаёт, что он является потомком группы охотников, известных как «Гриммы», которые сражаются, чтобы сохранить человечество в безопасности от сверхъестественных существ. Узнав о своей судьбе, и том, что он является последним из своего рода, он должен защитить каждую живую душу от зловещих персонажей сборника сказок, которые проникли в реальный мир.


Исходник: Blu-Ray Remux 1080p
Видео: 1920x1080, ~8073 Kbps
Аудио1: AC3, 6 ch, 384 Kbps - РусскийРусский, MVO (LostFilm)
Аудио2: AC3, 2 ch, 192 Kbps - РусскийРусский, MVO (SDI Media)
Аудио3: AC3, 6 ch, 640 Kbps - АнглийскийАнглийский
Субтитры: русские, английские (SDH)

Как за пару секунд удалить ненужные аудиодорожки и субтитры (Внимание! После удаления вы не сможете поддержать раздачу)

Лог (x265 info)
x265 [info]: frame I: 270, Avg QP:18.01 kb/s: 18418.52
x265 [info]: frame P: 11471, Avg QP:19.11 kb/s: 14600.75
x265 [info]: frame B: 50741, Avg QP:21.13 kb/s: 6540.62
x265 [info]: Weighted P-Frames: Y:11.2% UV:9.6%
x265 [info]: Weighted B-Frames: Y:9.3% UV:7.3%
x265 [info]: encoded 62482 frames in 51483.68s (1.21 fps), 8071.69 kb/s, Avg QP:20.75
Медиаинфо
Общее
Уникальный идентификатор : 178633016430028698315091754165939040471 (0x866377B0B19232119F7DFA46C7C170D7)
Полное имя : \\.\Grimm.S01E14.Plumed.Serpent.mkv
Формат : Matroska
Версия формата : Version 4
Размер файла : 2,82 Гбайт
Продолжительность : 43 м. 26 с.
Общий поток : 9 291 Кбит/сек
Частота кадров : 23,976 кадра/сек
Дата кодирования : 2024-01-17 16:59:11 UTC
Программа кодирования : mkvmerge v82.0 ('I'm The President') 64-bit
Библиотека кодирования : libebml v1.4.5 + libmatroska v1.7.1

Видео
Идентификатор : 1
Формат : HEVC
Формат/Информация : High Efficiency Video Coding
Профиль формата : Main 10@L4.1@High
Идентификатор кодека : V_MPEGH/ISO/HEVC
Продолжительность : 43 м. 26 с.
Битрейт : 8 073 Кбит/сек
Ширина : 1 920 пикселей
Высота : 1 080 пикселей
Соотношение сторон : 16:9
Режим частоты кадров : Постоянный
Частота кадров : 23,976 (24000/1001) кадра/сек
Цветовое пространство : YUV
Субдискретизация насыщенности : 4:2:0
Битовая глубина : 10 бит
Бит/(Пиксели*Кадры) : 0.162
Размер потока : 2,45 Гбайт (87%)
Заголовок : Grimm S01E14 / Rip by OldGamer
Библиотека кодирования : x265 3.5+110-8ee01d45b:[Windows][GCC 13.2.0][64 bit] 10bit
Настройки программы : cpuid=1111039 / frame-threads=4 / numa-pools=16 / wpp / no-pmode / no-pme / no-psnr / no-ssim / log-level=2 / input-csp=1 / input-res=1920x1080 / interlace=0 / total-frames=62482 / level-idc=41 / high-tier=1 / uhd-bd=0 / ref=5 / no-allow-non-conformance / no-repeat-headers / annexb / no-aud / no-eob / no-eos / no-hrd / info / hash=0 / temporal-layers=0 / open-gop / min-keyint=23 / keyint=240 / gop-lookahead=0 / bframes=16 / b-adapt=2 / b-pyramid / bframe-bias=0 / rc-lookahead=40 / lookahead-slices=0 / scenecut=40 / no-hist-scenecut / radl=0 / no-splice / no-intra-refresh / ctu=32 / min-cu-size=8 / rect / amp / max-tu-size=32 / tu-inter-depth=4 / tu-intra-depth=4 / limit-tu=1 / rdoq-level=2 / dynamic-rd=0.00 / no-ssim-rd / signhide / no-tskip / nr-intra=0 / nr-inter=0 / no-constrained-intra / no-strong-intra-smoothing / max-merge=5 / limit-refs=3 / no-limit-modes / me=3 / subme=7 / merange=57 / temporal-mvp / no-frame-dup / no-hme / weightp / weightb / no-analyze-src-pics / deblock=-2:-2 / no-sao / no-sao-non-deblock / rd=6 / selective-sao=0 / no-early-skip / no-rskip / no-fast-intra / no-tskip-fast / no-cu-lossless / b-intra / no-splitrd-skip / rdpenalty=0 / psy-rd=2.00 / psy-rdoq=1.00 / no-rd-refine / no-lossless / cbqpoffs=0 / crqpoffs=0 / rc=crf / crf=21.6 / qcomp=0.60 / qpstep=4 / stats-write=0 / stats-read=0 / vbv-maxrate=50000 / vbv-bufsize=50000 / vbv-init=0.9 / min-vbv-fullness=50.0 / max-vbv-fullness=80.0 / crf-max=0.0 / crf-min=0.0 / ipratio=1.40 / pbratio=1.30 / aq-mode=1 / aq-strength=1.00 / no-cutree / zone-count=1 / zones: / start-frame=61555 / end-frame=62482 / qp=36 / no-strict-cbr / qg-size=32 / no-rc-grain / qpmax=69 / qpmin=0 / no-const-vbv / sar=1 / overscan=0 / videoformat=5 / range=0 / colorprim=2 / transfer=2 / colormatrix=2 / chromaloc=0 / display-window=0 / cll=0,0 / min-luma=0 / max-luma=1023 / log2-max-poc-lsb=8 / vui-timing-info / vui-hrd-info / slices=1 / no-opt-qp-pps / no-opt-ref-list-length-pps / no-multi-pass-opt-rps / scenecut-bias=0.00 / no-opt-cu-delta-qp / no-aq-motion / no-hdr10 / no-hdr10-opt / no-dhdr10-opt / no-idr-recovery-sei / analysis-reuse-level=0 / analysis-save-reuse-level=0 / analysis-load-reuse-level=0 / scale-factor=0 / refine-intra=0 / refine-inter=0 / refine-mv=1 / refine-ctu-distortion=0 / no-limit-sao / ctu-info=0 / no-lowpass-dct / refine-analysis-type=0 / copy-pic=1 / max-ausize-factor=1.0 / no-dynamic-refine / no-single-sei / no-hevc-aq / no-svt / no-field / qp-adaptation-range=1.00 / scenecut-aware-qp=0conformance-window-offsets / right=0 / bottom=0 / decoder-max-rate=0 / no-vbv-live-multi-pass / no-mcstf / no-sbrc
Язык : English
Default : Да
Forced : Нет

Аудио #1
Идентификатор : 2
Формат : AC-3
Формат/Информация : Audio Coding 3
Коммерческое название : Dolby Digital
Идентификатор кодека : A_AC3
Продолжительность : 43 м. 25 с.
Вид битрейта : Постоянный
Битрейт : 384 Кбит/сек
Каналы : 6 каналов
Channel layout : L R C LFE Ls Rs
Частота : 48,0 КГц
Частота кадров : 31,250 кадров/сек (1536 SPF)
Метод сжатия : С потерями
Размер потока : 119 Мбайт (4%)
Заголовок : MVO (LostFilm)
Язык : Russian
Service kind : Complete Main
Default : Да
Forced : Нет

Аудио #2
Идентификатор : 3
Формат : AC-3
Формат/Информация : Audio Coding 3
Коммерческое название : Dolby Digital
Идентификатор кодека : A_AC3
Продолжительность : 43 м. 25 с.
Вид битрейта : Постоянный
Битрейт : 192 Кбит/сек
Каналы : 2 канала
Channel layout : L R
Частота : 48,0 КГц
Частота кадров : 31,250 кадров/сек (1536 SPF)
Метод сжатия : С потерями
Размер потока : 59,6 Мбайт (2%)
Заголовок : MVO (SDI Media)
Язык : Russian
Service kind : Complete Main
Default : Нет
Forced : Нет

Аудио #3
Идентификатор : 4
Формат : AC-3
Формат/Информация : Audio Coding 3
Коммерческое название : Dolby Digital
Идентификатор кодека : A_AC3
Продолжительность : 43 м. 26 с.
Вид битрейта : Постоянный
Битрейт : 640 Кбит/сек
Каналы : 6 каналов
Channel layout : L R C LFE Ls Rs
Частота : 48,0 КГц
Частота кадров : 31,250 кадров/сек (1536 SPF)
Метод сжатия : С потерями
Размер потока : 199 Мбайт (7%)
Язык : English
Service kind : Complete Main
Default : Нет
Forced : Нет

Текст #1
Идентификатор : 5
Формат : UTF-8
Идентификатор кодека : S_TEXT/UTF8
Идентификатор кодека/Информация : UTF-8 Plain Text
Продолжительность : 42 м. 41 с.
Битрейт : 105 бит/сек
Частота кадров : 0,240 кадр/сек
Count of elements : 614
Размер потока : 33,0 Кбайт (0%)
Заголовок : Russian @ SRT
Язык : Russian
Default : Нет
Forced : Нет

Текст #2
Идентификатор : 6
Формат : UTF-8
Идентификатор кодека : S_TEXT/UTF8
Идентификатор кодека/Информация : UTF-8 Plain Text
Продолжительность : 42 м. 19 с.
Битрейт : 57 бит/сек
Частота кадров : 0,200 кадр/сек
Count of elements : 509
Размер потока : 18,0 Кбайт (0%)
Заголовок : English @ SRT
Язык : English
Default : Нет
Forced : Нет

Текст #3
Идентификатор : 7
Формат : UTF-8
Идентификатор кодека : S_TEXT/UTF8
Идентификатор кодека/Информация : UTF-8 Plain Text
Продолжительность : 42 м. 18 с.
Битрейт : 59 бит/сек
Частота кадров : 0,244 кадр/сек
Count of elements : 620
Размер потока : 18,5 Кбайт (0%)
Заголовок : English @ SRT SDH
Язык : English
Default : Нет
Forced : Нет

Меню
00:00:00.000 : en:Chapter 1
00:03:23.412 : en:Chapter 2
00:20:19.385 : en:Chapter 3
00:34:34.698 : en:Chapter 4
Загрузка...Cкриншот1 Гримм / Grimm (2011-2012) [1 сезон] BDRip 1080p [HEVC] 10 bit от OldGamerЗагрузка...Cкриншот2 Гримм / Grimm (2011-2012) [1 сезон] BDRip 1080p [HEVC] 10 bit от OldGamerЗагрузка...Cкриншот3 Гримм / Grimm (2011-2012) [1 сезон] BDRip 1080p [HEVC] 10 bit от OldGamerЗагрузка...Cкриншот4 Гримм / Grimm (2011-2012) [1 сезон] BDRip 1080p [HEVC] 10 bit от OldGamer
Сэмпл
2. Гримм / Grimm (2012-2013) [2 сезон] BDRip 1080p [HEVC] 10 bit от OldGamer
HEVC
10 bit
Обложка Гримм / Grimm (2012-2013) [2 сезон] BDRip 1080p [HEVC] 10 bit от OldGamer Год: 2012-2013
Страна: США
Студия: GK Productions, Hazy Mills Productions, Universal TV
Жанр: Фэнтези, Ужасы, Драма, Детектив
Продолжительность: ~00:43:00 серия

Режиссер: Норберто Барба, Терренс О’Хара, Эрик Ланёвилль
В ролях: Дэвид Джунтоли, Битси Таллок, Сайлас Уэйр Митчелл, Расселл Хорнсби, Саша Ройз, Регги Ли, Клэр Коффи, Бри Тёрнер, Роберт Бланш, Дэмиен Пакер

Описание: Действие происходит в современном Портленде, где детектив из отдела убийств узнаёт, что он является потомком группы охотников, известных как «Гриммы», которые сражаются, чтобы сохранить человечество в безопасности от сверхъестественных существ. Узнав о своей судьбе, и том, что он является последним из своего рода, он должен защитить каждую живую душу от зловещих персонажей сборника сказок, которые проникли в реальный мир.


Исходник: Blu-Ray Remux 1080p
Видео: 1920x1080, ~6518 Kbps
Аудио1: AC3, 6 ch, 384 Kbps - РусскийРусский, MVO (LostFilm)
Аудио2: AC3, 2 ch, 192 Kbps - РусскийРусский, MVO (SDI Media)
Аудио3: AC3, 6 ch, 640 Kbps - АнглийскийАнглийский
Субтитры: русские, английские (SDH)

Как за пару секунд удалить ненужные аудиодорожки и субтитры (Внимание! После удаления вы не сможете поддержать раздачу)

Лог (x265 info)
x265 [info]: frame I: 275, Avg QP:17.77 kb/s: 17826.00
x265 [info]: frame P: 11463, Avg QP:19.18 kb/s: 13263.94
x265 [info]: frame B: 50211, Avg QP:20.97 kb/s: 4914.54
x265 [info]: Weighted P-Frames: Y:3.6% UV:3.1%
x265 [info]: Weighted B-Frames: Y:2.3% UV:1.7%
x265 [info]: encoded 61949 frames in 48186.28s (1.29 fps), 6516.82 kb/s, Avg QP:20.62
Медиаинфо
Общее
Уникальный идентификатор : 171295201552122890758334399728808527614 (0x80DE417C1A4F5986716B4256ECF686FE)
Полное имя : \\.\Grimm.S02E17.One.Angry.Fuchsbau.mkv
Формат : Matroska
Версия формата : Version 4
Размер файла : 2,33 Гбайт
Продолжительность : 43 м. 3 с.
Общий поток : 7 737 Кбит/сек
Частота кадров : 23,976 кадра/сек
Название фильма : Grimm.S02E17.One.Angry.Fuchsbau / Один сердитый рыжехвост
Трек/Положение : 2
Кодирование произвёл : OldGamer
Тип содержимого : TV Show
Описание : Полгода назад случилось преступление — львиногрив убил свою жену, которая также была существом. Ник решает дать ключи от трейлера Джульетте, чтобы она побывала там и вспомнила его.
Дата выпуска : 2013-04-05
Дата записи : 2013-04-05
Программа кодирования : mkvmerge v82.0 ('I'm The President') 64-bit
Библиотека кодирования : libebml v1.4.5 + libmatroska v1.7.1
Обложка : Yes
Attachments : cover.jpg
ACTOR : David Giuntoli, Silas Weir Mitchell, Russell Hornsby, Sasha Roiz, Reggie Lee, Bree Turner, Elizabeth Tulloch, Claire Coffee, Rachel Pate, Brian T. Finney, Danny Bruno, Phillip Keiman, Erica Sullivan, Diane Englert, Amelia Rose Baldwin, Tom Avila, Tab...
ARTIST : David Giuntoli, Silas Weir Mitchell, Russell Hornsby, Sasha Roiz, Reggie Lee, Bree Turner, Elizabeth Tulloch, Claire Coffee, Rachel Pate, Brian T. Finney, Danny Bruno, Phillip Keiman, Erica Sullivan, Diane Englert, Amelia Rose Baldwin, Tom Avila, Tab...
DIRECTOR : Terrence O'Hara
EPISODE.PART_NUM : 17
GENRE : драма, детектив, НФ и Фэнтези
LAW_RATING : TV-14
PRODUCER : Jim Kouf, Sean Hayes
RATING : TV-14
SCREENPLAY_BY : Richard Hatem
SEASON.PART_NUM : 2
SUMMARY : Полгода назад случилось преступление — львиногрив убил свою жену, которая также была существом. Ник решает дать ключи от трейлера Джульетте, чтобы она побывала там и вспомнила его.
SYNOPSIS : Полгода назад случилось преступление — львиногрив убил свою жену, которая также была существом. Ник решает дать ключи от трейлера Джульетте, чтобы она побывала там и вспомнила его. Розали получают повестку и идет в суд, чтобы стать присяжной. Рассматривается дело об убийстве жены, которое произошло шесть месяцев назад. Она замечает странные обстоятельства: адвокат каким-то образом воздействует на присяжных, пытаясь склонить их в свою сторону. Монро привозит Джульетту в трейлер, чтобы помочь вспомнить прошлую жизнь.
WRITTEN_BY : Richard Hatem

Видео
Идентификатор : 1
Формат : HEVC
Формат/Информация : High Efficiency Video Coding
Профиль формата : Main 10@L4.1@High
Идентификатор кодека : V_MPEGH/ISO/HEVC
Продолжительность : 43 м. 3 с.
Битрейт : 6 518 Кбит/сек
Ширина : 1 920 пикселей
Высота : 1 080 пикселей
Соотношение сторон : 16:9
Режим частоты кадров : Постоянный
Частота кадров : 23,976 (24000/1001) кадра/сек
Цветовое пространство : YUV
Субдискретизация насыщенности : 4:2:0
Битовая глубина : 10 бит
Бит/(Пиксели*Кадры) : 0.131
Размер потока : 1,96 Гбайт (84%)
Заголовок : Grimm S02E17 / Rip by OldGamer
Библиотека кодирования : x265 3.5+110-8ee01d45b:[Windows][GCC 13.2.0][64 bit] 10bit
Настройки программы : cpuid=1111039 / frame-threads=4 / numa-pools=16 / wpp / no-pmode / no-pme / no-psnr / no-ssim / log-level=2 / input-csp=1 / input-res=1920x1080 / interlace=0 / total-frames=61949 / level-idc=41 / high-tier=1 / uhd-bd=0 / ref=5 / no-allow-non-conformance / no-repeat-headers / annexb / no-aud / no-eob / no-eos / no-hrd / info / hash=0 / temporal-layers=0 / open-gop / min-keyint=23 / keyint=240 / gop-lookahead=0 / bframes=16 / b-adapt=2 / b-pyramid / bframe-bias=0 / rc-lookahead=40 / lookahead-slices=0 / scenecut=40 / no-hist-scenecut / radl=0 / no-splice / no-intra-refresh / ctu=32 / min-cu-size=8 / rect / amp / max-tu-size=32 / tu-inter-depth=4 / tu-intra-depth=4 / limit-tu=1 / rdoq-level=2 / dynamic-rd=0.00 / no-ssim-rd / signhide / no-tskip / nr-intra=0 / nr-inter=0 / no-constrained-intra / no-strong-intra-smoothing / max-merge=5 / limit-refs=3 / no-limit-modes / me=3 / subme=7 / merange=57 / temporal-mvp / no-frame-dup / no-hme / weightp / weightb / no-analyze-src-pics / deblock=-2:-2 / no-sao / no-sao-non-deblock / rd=6 / selective-sao=0 / no-early-skip / no-rskip / no-fast-intra / no-tskip-fast / no-cu-lossless / b-intra / no-splitrd-skip / rdpenalty=0 / psy-rd=2.00 / psy-rdoq=1.00 / no-rd-refine / no-lossless / cbqpoffs=0 / crqpoffs=0 / rc=crf / crf=21.4 / qcomp=0.60 / qpstep=4 / stats-write=0 / stats-read=0 / vbv-maxrate=50000 / vbv-bufsize=50000 / vbv-init=0.9 / min-vbv-fullness=50.0 / max-vbv-fullness=80.0 / crf-max=0.0 / crf-min=0.0 / ipratio=1.40 / pbratio=1.30 / aq-mode=1 / aq-strength=1.00 / no-cutree / zone-count=1 / zones: / start-frame=660979 / end-frame=61949 / qp=36 / no-strict-cbr / qg-size=32 / no-rc-grain / qpmax=69 / qpmin=0 / no-const-vbv / sar=1 / overscan=0 / videoformat=5 / range=0 / colorprim=2 / transfer=2 / colormatrix=2 / chromaloc=0 / display-window=0 / cll=0,0 / min-luma=0 / max-luma=1023 / log2-max-poc-lsb=8 / vui-timing-info / vui-hrd-info / slices=1 / no-opt-qp-pps / no-opt-ref-list-length-pps / no-multi-pass-opt-rps / scenecut-bias=0.00 / no-opt-cu-delta-qp / no-aq-motion / no-hdr10 / no-hdr10-opt / no-dhdr10-opt / no-idr-recovery-sei / analysis-reuse-level=0 / analysis-save-reuse-level=0 / analysis-load-reuse-level=0 / scale-factor=0 / refine-intra=0 / refine-inter=0 / refine-mv=1 / refine-ctu-distortion=0 / no-limit-sao / ctu-info=0 / no-lowpass-dct / refine-analysis-type=0 / copy-pic=1 / max-ausize-factor=1.0 / no-dynamic-refine / no-single-sei / no-hevc-aq / no-svt / no-field / qp-adaptation-range=1.00 / scenecut-aware-qp=0conformance-window-offsets / right=0 / bottom=0 / decoder-max-rate=0 / no-vbv-live-multi-pass / no-mcstf / no-sbrc
Язык : English
Default : Да
Forced : Нет

Аудио #1
Идентификатор : 2
Формат : AC-3
Формат/Информация : Audio Coding 3
Коммерческое название : Dolby Digital
Идентификатор кодека : A_AC3
Продолжительность : 43 м. 3 с.
Вид битрейта : Постоянный
Битрейт : 384 Кбит/сек
Каналы : 6 каналов
Channel layout : L R C LFE Ls Rs
Частота : 48,0 КГц
Частота кадров : 31,250 кадров/сек (1536 SPF)
Метод сжатия : С потерями
Размер потока : 118 Мбайт (5%)
Заголовок : MVO (LostFilm)
Язык : Russian
Service kind : Complete Main
Default : Да
Forced : Нет

Аудио #2
Идентификатор : 3
Формат : AC-3
Формат/Информация : Audio Coding 3
Коммерческое название : Dolby Digital
Идентификатор кодека : A_AC3
Продолжительность : 43 м. 3 с.
Вид битрейта : Постоянный
Битрейт : 192 Кбит/сек
Каналы : 2 канала
Channel layout : L R
Частота : 48,0 КГц
Частота кадров : 31,250 кадров/сек (1536 SPF)
Метод сжатия : С потерями
Размер потока : 59,1 Мбайт (2%)
Заголовок : MVO (SDI Media)
Язык : Russian
Service kind : Complete Main
Default : Нет
Forced : Нет

Аудио #3
Идентификатор : 4
Формат : AC-3
Формат/Информация : Audio Coding 3
Коммерческое название : Dolby Digital
Идентификатор кодека : A_AC3
Продолжительность : 43 м. 3 с.
Вид битрейта : Постоянный
Битрейт : 640 Кбит/сек
Каналы : 6 каналов
Channel layout : L R C LFE Ls Rs
Частота : 48,0 КГц
Частота кадров : 31,250 кадров/сек (1536 SPF)
Метод сжатия : С потерями
Размер потока : 197 Мбайт (8%)
Язык : English
Service kind : Complete Main
Default : Нет
Forced : Нет

Текст #1
Идентификатор : 5
Формат : UTF-8
Идентификатор кодека : S_TEXT/UTF8
Идентификатор кодека/Информация : UTF-8 Plain Text
Продолжительность : 42 м. 16 с.
Битрейт : 131 бит/сек
Частота кадров : 0,342 кадр/сек
Count of elements : 867
Размер потока : 40,7 Кбайт (0%)
Заголовок : Russian @ SRT
Язык : Russian
Default : Нет
Forced : Нет

Текст #2
Идентификатор : 6
Формат : UTF-8
Идентификатор кодека : S_TEXT/UTF8
Идентификатор кодека/Информация : UTF-8 Plain Text
Продолжительность : 42 м. 16 с.
Битрейт : 79 бит/сек
Частота кадров : 0,342 кадр/сек
Count of elements : 867
Размер потока : 24,6 Кбайт (0%)
Заголовок : English @ SRT SDH
Язык : English
Default : Нет
Forced : Нет

Меню
00:00:00.000 : en:Chapter 1
00:05:15.065 : en:Chapter 2
00:22:47.241 : en:Chapter 3
00:37:18.903 : en:Chapter 4
Загрузка...Cкриншот1 Гримм / Grimm (2012-2013) [2 сезон] BDRip 1080p [HEVC] 10 bit от OldGamerЗагрузка...Cкриншот2 Гримм / Grimm (2012-2013) [2 сезон] BDRip 1080p [HEVC] 10 bit от OldGamerЗагрузка...Cкриншот3 Гримм / Grimm (2012-2013) [2 сезон] BDRip 1080p [HEVC] 10 bit от OldGamerЗагрузка...Cкриншот4 Гримм / Grimm (2012-2013) [2 сезон] BDRip 1080p [HEVC] 10 bit от OldGamer
Сэмпл
3. Гримм / Grimm (2013-2014) [3 сезон] BDRip 1080p [HEVC] 10 bit от OldGamer
HEVC
10 bit
Обложка Гримм / Grimm (2013-2014) [3 сезон] BDRip 1080p [HEVC] 10 bit от OldGamer Год: 2013-2014
Страна: США
Студия: GK Productions, Hazy Mills Productions, Universal TV
Жанр: Фэнтези, Ужасы, Драма, Детектив
Продолжительность: ~00:43:00 серия

Режиссер: Норберто Барба, Терренс О’Хара, Эрик Ланёвилль
В ролях: Дэвид Джунтоли, Битси Таллок, Сайлас Уэйр Митчелл, Расселл Хорнсби, Саша Ройз, Регги Ли, Клэр Коффи, Бри Тёрнер, Роберт Бланш, Дэмиен Пакер

Описание: Действие происходит в современном Портленде, где детектив из отдела убийств узнаёт, что он является потомком группы охотников, известных как «Гриммы», которые сражаются, чтобы сохранить человечество в безопасности от сверхъестественных существ. Узнав о своей судьбе, и том, что он является последним из своего рода, он должен защитить каждую живую душу от зловещих персонажей сборника сказок, которые проникли в реальный мир.


Исходник: Blu-Ray Remux 1080p
Видео: 1920x1080, ~8565 Kbps
Аудио1: AC3, 6 ch, 384 Kbps - РусскийРусский, MVO (LostFilm)
Аудио2: AC3, 2 ch, 192 Kbps - РусскийРусский, MVO (SDI Media)
Аудио3: AC3, 6 ch, 640 Kbps - АнглийскийАнглийский
Субтитры: русские (SDH), английские (SDH)

Как за пару секунд удалить ненужные аудиодорожки и субтитры (Внимание! После удаления вы не сможете поддержать раздачу)

Лог (x265 info)
x265 [info]: frame I: 268, Avg QP:18.08 kb/s: 19256.56
x265 [info]: frame P: 11295, Avg QP:19.27 kb/s: 16569.25
x265 [info]: frame B: 50237, Avg QP:21.14 kb/s: 6707.39
x265 [info]: Weighted P-Frames: Y:6.7% UV:5.7%
x265 [info]: Weighted B-Frames: Y:6.8% UV:5.7%
x265 [info]: encoded 61800 frames in 51942.78s (1.19 fps), 8564.23 kb/s, Avg QP:20.78
Медиаинфо
Общее
Уникальный идентификатор : 145847297216274037874233802819628675291 (0x6DB92AEE7F410BF2D9115E03F5FBB0DB)
Полное имя : \\.\Grimm.S03E15.Once.We.Were.Gods.mkv
Формат : Matroska
Версия формата : Version 4
Размер файла : 2,94 Гбайт
Продолжительность : 42 м. 57 с.
Общий поток : 9 784 Кбит/сек
Частота кадров : 23,976 кадра/сек
Название фильма : Grimm.S03E15.Once.We.Were.Gods / Когда-то мы были богами
Трек/Положение : 3
Кодирование произвёл : OldGamer
Тип содержимого : TV Show
Описание : Группа археологов обнаруживает древнеегипетский саркофаг с мумией. Но если верить про ведённым исследованиям, это мумия не человека, а неизвестного доселе существа, похожего на Анубиса.
Дата выпуска : 2014-03-14
Дата записи : 2014-03-14
Программа кодирования : mkvmerge v82.0 ('I'm The President') 64-bit
Библиотека кодирования : libebml v1.4.5 + libmatroska v1.7.1 / xvid4psp5
Обложка : Yes
Attachments : cover.jpg
ACTOR : David Giuntoli, Silas Weir Mitchell, Russell Hornsby, Sasha Roiz, Reggie Lee, Bree Turner, Claire Coffee, Elizabeth Tulloch, Damien Puckler, Anne Dudek, Richard Lee Jackson, Rafael Miguel, Susannah Mars, Rob Lauta, Jim Lapan, Henry Noble, Brad Hackwo...
ARTIST : David Giuntoli, Silas Weir Mitchell, Russell Hornsby, Sasha Roiz, Reggie Lee, Bree Turner, Claire Coffee, Elizabeth Tulloch, Damien Puckler, Anne Dudek, Richard Lee Jackson, Rafael Miguel, Susannah Mars, Rob Lauta, Jim Lapan, Henry Noble, Brad Hackwo...
DIRECTOR : Steven DePaul
EPISODE.PART_NUM : 15
GENRE : драма, детектив, НФ и Фэнтези
IMDB : tt1830617
LAW_RATING : TV-14
PRODUCER : Jim Kouf, Sean Hayes
RATING : TV-14
SCREENPLAY_BY : Alan DiFiore
SEASON.PART_NUM : 3
SUMMARY : Группа археологов обнаруживает древнеегипетский саркофаг с мумией. Но если верить про ведённым исследованиям, это мумия не человека, а неизвестного доселе существа, похожего на Анубиса.
SYNOPSIS : Группа археологов обнаруживает древнеегипетский саркофаг с мумией. Но если верить про ведённым исследованиям, это мумия не человека, а неизвестного доселе существа, похожего на Анубиса. Неужели Анубис действительно существовал и не является плодом воображения древних египтян?
WRITTEN_BY : Alan DiFiore

Видео
Идентификатор : 1
Формат : HEVC
Формат/Информация : High Efficiency Video Coding
Профиль формата : Main 10@L4.1@High
Идентификатор кодека : V_MPEGH/ISO/HEVC
Продолжительность : 42 м. 57 с.
Битрейт : 8 565 Кбит/сек
Ширина : 1 920 пикселей
Высота : 1 080 пикселей
Соотношение сторон : 16:9
Режим частоты кадров : Постоянный
Частота кадров : 23,976 (24000/1001) кадра/сек
Цветовое пространство : YUV
Субдискретизация насыщенности : 4:2:0
Битовая глубина : 10 бит
Бит/(Пиксели*Кадры) : 0.172
Размер потока : 2,57 Гбайт (88%)
Заголовок : Grimm S03E15 / Rip by OldGamer
Библиотека кодирования : x265 3.5+110-8ee01d45b:[Windows][GCC 13.2.0][64 bit] 10bit
Настройки программы : cpuid=1111039 / frame-threads=4 / numa-pools=16 / wpp / no-pmode / no-pme / no-psnr / no-ssim / log-level=2 / input-csp=1 / input-res=1920x1080 / interlace=0 / total-frames=61800 / level-idc=41 / high-tier=1 / uhd-bd=0 / ref=5 / no-allow-non-conformance / no-repeat-headers / annexb / no-aud / no-eob / no-eos / no-hrd / info / hash=0 / temporal-layers=0 / open-gop / min-keyint=23 / keyint=240 / gop-lookahead=0 / bframes=16 / b-adapt=2 / b-pyramid / bframe-bias=0 / rc-lookahead=40 / lookahead-slices=0 / scenecut=40 / no-hist-scenecut / radl=0 / no-splice / no-intra-refresh / ctu=32 / min-cu-size=8 / rect / amp / max-tu-size=32 / tu-inter-depth=4 / tu-intra-depth=4 / limit-tu=1 / rdoq-level=2 / dynamic-rd=0.00 / no-ssim-rd / signhide / no-tskip / nr-intra=0 / nr-inter=0 / no-constrained-intra / no-strong-intra-smoothing / max-merge=5 / limit-refs=3 / no-limit-modes / me=3 / subme=7 / merange=57 / temporal-mvp / no-frame-dup / no-hme / weightp / weightb / no-analyze-src-pics / deblock=-2:-2 / no-sao / no-sao-non-deblock / rd=6 / selective-sao=0 / no-early-skip / no-rskip / no-fast-intra / no-tskip-fast / no-cu-lossless / b-intra / no-splitrd-skip / rdpenalty=0 / psy-rd=2.00 / psy-rdoq=1.00 / no-rd-refine / no-lossless / cbqpoffs=0 / crqpoffs=0 / rc=crf / crf=21.6 / qcomp=0.60 / qpstep=4 / stats-write=0 / stats-read=0 / vbv-maxrate=50000 / vbv-bufsize=50000 / vbv-init=0.9 / min-vbv-fullness=50.0 / max-vbv-fullness=80.0 / crf-max=0.0 / crf-min=0.0 / ipratio=1.40 / pbratio=1.30 / aq-mode=1 / aq-strength=1.00 / no-cutree / zone-count=1 / zones: / start-frame=60817 / end-frame=61800 / qp=36 / no-strict-cbr / qg-size=32 / no-rc-grain / qpmax=69 / qpmin=0 / no-const-vbv / sar=1 / overscan=0 / videoformat=5 / range=0 / colorprim=2 / transfer=2 / colormatrix=2 / chromaloc=0 / display-window=0 / cll=0,0 / min-luma=0 / max-luma=1023 / log2-max-poc-lsb=8 / vui-timing-info / vui-hrd-info / slices=1 / no-opt-qp-pps / no-opt-ref-list-length-pps / no-multi-pass-opt-rps / scenecut-bias=0.00 / no-opt-cu-delta-qp / no-aq-motion / no-hdr10 / no-hdr10-opt / no-dhdr10-opt / no-idr-recovery-sei / analysis-reuse-level=0 / analysis-save-reuse-level=0 / analysis-load-reuse-level=0 / scale-factor=0 / refine-intra=0 / refine-inter=0 / refine-mv=1 / refine-ctu-distortion=0 / no-limit-sao / ctu-info=0 / no-lowpass-dct / refine-analysis-type=0 / copy-pic=1 / max-ausize-factor=1.0 / no-dynamic-refine / no-single-sei / no-hevc-aq / no-svt / no-field / qp-adaptation-range=1.00 / scenecut-aware-qp=0conformance-window-offsets / right=0 / bottom=0 / decoder-max-rate=0 / no-vbv-live-multi-pass / no-mcstf / no-sbrc
Язык : English
Default : Да
Forced : Нет

Аудио #1
Идентификатор : 2
Формат : AC-3
Формат/Информация : Audio Coding 3
Коммерческое название : Dolby Digital
Идентификатор кодека : A_AC3
Продолжительность : 42 м. 57 с.
Вид битрейта : Постоянный
Битрейт : 384 Кбит/сек
Каналы : 6 каналов
Channel layout : L R C LFE Ls Rs
Частота : 48,0 КГц
Частота кадров : 31,250 кадров/сек (1536 SPF)
Метод сжатия : С потерями
Размер потока : 118 Мбайт (4%)
Заголовок : MVO (LostFilm)
Язык : Russian
Service kind : Complete Main
Default : Да
Forced : Нет

Аудио #2
Идентификатор : 3
Формат : AC-3
Формат/Информация : Audio Coding 3
Коммерческое название : Dolby Digital
Идентификатор кодека : A_AC3
Продолжительность : 42 м. 57 с.
Вид битрейта : Постоянный
Битрейт : 192 Кбит/сек
Каналы : 2 канала
Channel layout : L R
Частота : 48,0 КГц
Частота кадров : 31,250 кадров/сек (1536 SPF)
Метод сжатия : С потерями
Размер потока : 59,0 Мбайт (2%)
Заголовок : MVO (SDI Media)
Язык : Russian
Service kind : Complete Main
Default : Нет
Forced : Нет

Аудио #3
Идентификатор : 4
Формат : AC-3
Формат/Информация : Audio Coding 3
Коммерческое название : Dolby Digital
Идентификатор кодека : A_AC3
Продолжительность : 42 м. 57 с.
Вид битрейта : Постоянный
Битрейт : 640 Кбит/сек
Каналы : 6 каналов
Channel layout : L R C LFE Ls Rs
Частота : 48,0 КГц
Частота кадров : 31,250 кадров/сек (1536 SPF)
Метод сжатия : С потерями
Размер потока : 197 Мбайт (7%)
Язык : English
Service kind : Complete Main
Default : Нет
Forced : Нет

Текст #1
Идентификатор : 5
Формат : UTF-8
Идентификатор кодека : S_TEXT/UTF8
Идентификатор кодека/Информация : UTF-8 Plain Text
Продолжительность : 42 м. 12 с.
Битрейт : 133 бит/сек
Частота кадров : 0,294 кадр/сек
Count of elements : 744
Размер потока : 41,4 Кбайт (0%)
Заголовок : Russian @ SRT
Язык : Russian
Default : Нет
Forced : Нет

Текст #2
Идентификатор : 6
Формат : UTF-8
Идентификатор кодека : S_TEXT/UTF8
Идентификатор кодека/Информация : UTF-8 Plain Text
Продолжительность : 42 м. 12 с.
Битрейт : 138 бит/сек
Частота кадров : 0,313 кадр/сек
Count of elements : 794
Размер потока : 42,8 Кбайт (0%)
Заголовок : Russian @ SRT SDH
Язык : Russian
Default : Нет
Forced : Нет

Текст #3
Идентификатор : 7
Формат : UTF-8
Идентификатор кодека : S_TEXT/UTF8
Идентификатор кодека/Информация : UTF-8 Plain Text
Продолжительность : 42 м. 12 с.
Битрейт : 74 бит/сек
Частота кадров : 0,276 кадр/сек
Count of elements : 699
Размер потока : 23,2 Кбайт (0%)
Заголовок : English @ SRT
Язык : English
Default : Нет
Forced : Нет

Текст #4
Идентификатор : 8
Формат : UTF-8
Идентификатор кодека : S_TEXT/UTF8
Идентификатор кодека/Информация : UTF-8 Plain Text
Продолжительность : 42 м. 12 с.
Битрейт : 78 бит/сек
Частота кадров : 0,298 кадр/сек
Count of elements : 754
Размер потока : 24,3 Кбайт (0%)
Заголовок : English @ SRT SDH
Язык : English
Default : Нет
Forced : Нет

Меню
00:00:00.000 : en:Chapter 1
00:00:38.455 : en:Chapter 2
00:07:37.374 : en:Chapter 3
00:16:18.186 : en:Chapter 4
00:23:16.895 : en:Chapter 5
00:31:03.945 : en:Chapter 6
00:37:01.678 : en:Chapter 7
00:42:18.745 : en:Chapter 8
Загрузка...Cкриншот1 Гримм / Grimm (2013-2014) [3 сезон] BDRip 1080p [HEVC] 10 bit от OldGamerЗагрузка...Cкриншот2 Гримм / Grimm (2013-2014) [3 сезон] BDRip 1080p [HEVC] 10 bit от OldGamerЗагрузка...Cкриншот3 Гримм / Grimm (2013-2014) [3 сезон] BDRip 1080p [HEVC] 10 bit от OldGamerЗагрузка...Cкриншот4 Гримм / Grimm (2013-2014) [3 сезон] BDRip 1080p [HEVC] 10 bit от OldGamer
Сэмпл
4. Гримм / Grimm (2014-2015) [4 сезон] BDRip 1080p [HEVC] 10 bit от OldGamer
HEVC
10 bit
Обложка Гримм / Grimm (2014-2015) [4 сезон] BDRip 1080p [HEVC] 10 bit от OldGamer Год: 2014-2015
Страна: США
Студия: GK Productions, Hazy Mills Productions, Universal TV
Жанр: Фэнтези, Ужасы, Драма, Детектив
Продолжительность: ~00:43:00 серия

Режиссер: Норберто Барба, Терренс О’Хара, Эрик Ланёвилль
В ролях: Дэвид Джунтоли, Битси Таллок, Сайлас Уэйр Митчелл, Расселл Хорнсби, Саша Ройз, Регги Ли, Клэр Коффи, Бри Тёрнер, Роберт Бланш, Дэмиен Пакер

Описание: Действие происходит в современном Портленде, где детектив из отдела убийств узнаёт, что он является потомком группы охотников, известных как «Гриммы», которые сражаются, чтобы сохранить человечество в безопасности от сверхъестественных существ. Узнав о своей судьбе, и том, что он является последним из своего рода, он должен защитить каждую живую душу от зловещих персонажей сборника сказок, которые проникли в реальный мир.


Исходник: Blu-Ray Remux 1080p
Видео: 1920x1080, ~5688 Kbps
Аудио1: AC3, 6 ch, 384 Kbps - РусскийРусский, MVO (LostFilm)
Аудио2: AC3, 2 ch, 192 Kbps - РусскийРусский, MVO (SDI Media)
Аудио3: AC3, 6 ch, 640 Kbps - АнглийскийАнглийский
Субтитры: русские, английские

Как за пару секунд удалить ненужные аудиодорожки и субтитры (Внимание! После удаления вы не сможете поддержать раздачу)

Лог (x265 info)
x265 [info]: frame I: 277, Avg QP:17.95 kb/s: 17230.15
x265 [info]: frame P: 11563, Avg QP:19.30 kb/s: 12127.22
x265 [info]: frame B: 49999, Avg QP:21.38 kb/s: 4133.57
x265 [info]: Weighted P-Frames: Y:9.3% UV:8.2%
x265 [info]: Weighted B-Frames: Y:7.6% UV:6.1%
x265 [info]: encoded 61839 frames in 47259.58s (1.31 fps), 5686.93 kb/s, Avg QP:20.97
Медиаинфо
Общее
Уникальный идентификатор : 329317018108462124623348338969339655366 (0xF7C0269027D6351B1B64277390C674C6)
Полное имя : D:\На сервер\Grimm.S04E17.Hibernaculum.mkv
Формат : Matroska
Версия формата : Version 4
Размер файла : 2,07 Гбайт
Продолжительность : 42 м. 59 с.
Общий поток : 6 909 Кбит/сек
Частота кадров : 23,976 кадра/сек
Название фильма : Grimm.S04E17.Hibernaculum / Зимнее логово
Трек/Положение : 4
Кодирование произвёл : OldGamer
Тип содержимого : TV Show
Описание : Расследование по факту смерти велосипедиста приводит Ник и Хэнк к Сущности со смертельным прикосновением. Новый член королевской семьи прибывает в Сиэтл, чтобы найти Диану. Капитан Ренард и Адалинда узнают, что шанс найти пропавшего ребенка увеличился.
Дата выпуска : 2015-04-10
Дата записи : 2015-04-10
Программа кодирования : mkvmerge v82.0 ('I'm The President') 64-bit
Библиотека кодирования : libebml v1.4.5 + libmatroska v1.7.1 / xvid4psp5
Обложка : Yes
Attachments : cover.jpg
ACTOR : David Giuntoli, Silas Weir Mitchell, Russell Hornsby, Sasha Roiz, Reggie Lee, Bree Turner, Claire Coffee, Elizabeth Tulloch, Elizabeth Fournier, David Katims, Orion Bradshaw, Matt Keeslar, Jamison Peil, Lorraine Bahr, Makinna Ridgway, Stephanie Kim-B...
ARTIST : David Giuntoli, Silas Weir Mitchell, Russell Hornsby, Sasha Roiz, Reggie Lee, Bree Turner, Claire Coffee, Elizabeth Tulloch, Elizabeth Fournier, David Katims, Orion Bradshaw, Matt Keeslar, Jamison Peil, Lorraine Bahr, Makinna Ridgway, Stephanie Kim-B...
DIRECTOR : John Behring
EPISODE.PART_NUM : 17
GENRE : драма, детектив, НФ и Фэнтези
LAW_RATING : TV-14
RATING : TV-14
SCREENPLAY_BY : Michael Golamco
SEASON.PART_NUM : 4
SUMMARY : Расследование по факту смерти велосипедиста приводит Ник и Хэнк к Сущности со смертельным прикосновением. Новый член королевской семьи прибывает в Сиэтл, чтобы найти Диану. Капитан Ренард и Адалинда узнают, что шанс найти пропавшего ребенка увеличился.
SYNOPSIS : Расследование по факту смерти велосипедиста приводит Ник и Хэнк к Сущности со смертельным прикосновением. Новый член королевской семьи прибывает в Сиэтл, чтобы найти Диану. Капитан Ренард и Адалинда узнают, что шанс найти пропавшего ребенка увеличился. Между тем, Джульетта обдумывает свое будущее в новом статусе, и решает не бороться с тем, чем она стала.
WRITTEN_BY : Michael Golamco

Видео
Идентификатор : 1
Формат : HEVC
Формат/Информация : High Efficiency Video Coding
Профиль формата : Main 10@L4.1@High
Идентификатор кодека : V_MPEGH/ISO/HEVC
Продолжительность : 42 м. 59 с.
Битрейт : 5 688 Кбит/сек
Ширина : 1 920 пикселей
Высота : 1 080 пикселей
Соотношение сторон : 16:9
Режим частоты кадров : Постоянный
Частота кадров : 23,976 (24000/1001) кадра/сек
Цветовое пространство : YUV
Субдискретизация насыщенности : 4:2:0
Битовая глубина : 10 бит
Бит/(Пиксели*Кадры) : 0.114
Размер потока : 1,71 Гбайт (82%)
Заголовок : Grimm S04E17 / Rip by OldGamer
Библиотека кодирования : x265 3.5+110-8ee01d45b:[Windows][GCC 13.2.0][64 bit] 10bit
Настройки программы : cpuid=1111039 / frame-threads=4 / numa-pools=16 / wpp / no-pmode / no-pme / no-psnr / no-ssim / log-level=2 / input-csp=1 / input-res=1920x1080 / interlace=0 / total-frames=61839 / level-idc=41 / high-tier=1 / uhd-bd=0 / ref=5 / no-allow-non-conformance / no-repeat-headers / annexb / no-aud / no-eob / no-eos / no-hrd / info / hash=0 / temporal-layers=0 / open-gop / min-keyint=23 / keyint=240 / gop-lookahead=0 / bframes=16 / b-adapt=2 / b-pyramid / bframe-bias=0 / rc-lookahead=40 / lookahead-slices=0 / scenecut=40 / no-hist-scenecut / radl=0 / no-splice / no-intra-refresh / ctu=32 / min-cu-size=8 / rect / amp / max-tu-size=32 / tu-inter-depth=4 / tu-intra-depth=4 / limit-tu=1 / rdoq-level=2 / dynamic-rd=0.00 / no-ssim-rd / signhide / no-tskip / nr-intra=0 / nr-inter=0 / no-constrained-intra / no-strong-intra-smoothing / max-merge=5 / limit-refs=3 / no-limit-modes / me=3 / subme=7 / merange=57 / temporal-mvp / no-frame-dup / no-hme / weightp / weightb / no-analyze-src-pics / deblock=-2:-2 / no-sao / no-sao-non-deblock / rd=6 / selective-sao=0 / no-early-skip / no-rskip / no-fast-intra / no-tskip-fast / no-cu-lossless / b-intra / no-splitrd-skip / rdpenalty=0 / psy-rd=2.00 / psy-rdoq=1.00 / no-rd-refine / no-lossless / cbqpoffs=0 / crqpoffs=0 / rc=crf / crf=21.7 / qcomp=0.60 / qpstep=4 / stats-write=0 / stats-read=0 / vbv-maxrate=50000 / vbv-bufsize=50000 / vbv-init=0.9 / min-vbv-fullness=50.0 / max-vbv-fullness=80.0 / crf-max=0.0 / crf-min=0.0 / ipratio=1.40 / pbratio=1.30 / aq-mode=1 / aq-strength=1.00 / no-cutree / zone-count=1 / zones: / start-frame=60868 / end-frame=61839 / qp=36 / no-strict-cbr / qg-size=32 / no-rc-grain / qpmax=69 / qpmin=0 / no-const-vbv / sar=1 / overscan=0 / videoformat=5 / range=0 / colorprim=2 / transfer=2 / colormatrix=2 / chromaloc=0 / display-window=0 / cll=0,0 / min-luma=0 / max-luma=1023 / log2-max-poc-lsb=8 / vui-timing-info / vui-hrd-info / slices=1 / no-opt-qp-pps / no-opt-ref-list-length-pps / no-multi-pass-opt-rps / scenecut-bias=0.00 / no-opt-cu-delta-qp / no-aq-motion / no-hdr10 / no-hdr10-opt / no-dhdr10-opt / no-idr-recovery-sei / analysis-reuse-level=0 / analysis-save-reuse-level=0 / analysis-load-reuse-level=0 / scale-factor=0 / refine-intra=0 / refine-inter=0 / refine-mv=1 / refine-ctu-distortion=0 / no-limit-sao / ctu-info=0 / no-lowpass-dct / refine-analysis-type=0 / copy-pic=1 / max-ausize-factor=1.0 / no-dynamic-refine / no-single-sei / no-hevc-aq / no-svt / no-field / qp-adaptation-range=1.00 / scenecut-aware-qp=0conformance-window-offsets / right=0 / bottom=0 / decoder-max-rate=0 / no-vbv-live-multi-pass / no-mcstf / no-sbrc
Язык : English
Default : Да
Forced : Нет

Аудио #1
Идентификатор : 2
Формат : AC-3
Формат/Информация : Audio Coding 3
Коммерческое название : Dolby Digital
Идентификатор кодека : A_AC3
Продолжительность : 42 м. 59 с.
Вид битрейта : Постоянный
Битрейт : 384 Кбит/сек
Каналы : 6 каналов
Channel layout : L R C LFE Ls Rs
Частота : 48,0 КГц
Частота кадров : 31,250 кадров/сек (1536 SPF)
Метод сжатия : С потерями
Размер потока : 118 Мбайт (6%)
Заголовок : MVO (LostFilm)
Язык : Russian
Service kind : Complete Main
Default : Да
Forced : Нет

Аудио #2
Идентификатор : 3
Формат : AC-3
Формат/Информация : Audio Coding 3
Коммерческое название : Dolby Digital
Идентификатор кодека : A_AC3
Продолжительность : 42 м. 59 с.
Вид битрейта : Постоянный
Битрейт : 192 Кбит/сек
Каналы : 2 канала
Channel layout : L R
Частота : 48,0 КГц
Частота кадров : 31,250 кадров/сек (1536 SPF)
Метод сжатия : С потерями
Размер потока : 59,0 Мбайт (3%)
Заголовок : MVO (SDI Media)
Язык : Russian
Service kind : Complete Main
Default : Нет
Forced : Нет

Аудио #3
Идентификатор : 4
Формат : AC-3
Формат/Информация : Audio Coding 3
Коммерческое название : Dolby Digital
Идентификатор кодека : A_AC3
Продолжительность : 42 м. 59 с.
Вид битрейта : Постоянный
Битрейт : 640 Кбит/сек
Каналы : 6 каналов
Channel layout : L R C LFE Ls Rs
Частота : 48,0 КГц
Частота кадров : 31,250 кадров/сек (1536 SPF)
Метод сжатия : С потерями
Размер потока : 197 Мбайт (9%)
Язык : English
Service kind : Complete Main
Default : Нет
Forced : Нет

Текст #1
Идентификатор : 5
Формат : UTF-8
Идентификатор кодека : S_TEXT/UTF8
Идентификатор кодека/Информация : UTF-8 Plain Text
Продолжительность : 41 м. 49 с.
Битрейт : 103 бит/сек
Частота кадров : 0,277 кадр/сек
Count of elements : 695
Размер потока : 31,6 Кбайт (0%)
Заголовок : Russian @ SRT
Язык : Russian
Default : Нет
Forced : Нет

Текст #2
Идентификатор : 6
Формат : UTF-8
Идентификатор кодека : S_TEXT/UTF8
Идентификатор кодека/Информация : UTF-8 Plain Text
Продолжительность : 41 м. 47 с.
Битрейт : 73 бит/сек
Частота кадров : 0,297 кадр/сек
Count of elements : 744
Размер потока : 22,5 Кбайт (0%)
Заголовок : English @ SRT
Язык : English
Default : Нет
Forced : Нет

Меню
00:00:00.000 : en:Chapter 1
00:05:07.390 : en:Chapter 2
00:21:46.555 : en:Chapter 3
00:36:00.658 : en:Chapter 4
Загрузка...Cкриншот1 Гримм / Grimm (2014-2015) [4 сезон] BDRip 1080p [HEVC] 10 bit от OldGamerЗагрузка...Cкриншот2 Гримм / Grimm (2014-2015) [4 сезон] BDRip 1080p [HEVC] 10 bit от OldGamerЗагрузка...Cкриншот3 Гримм / Grimm (2014-2015) [4 сезон] BDRip 1080p [HEVC] 10 bit от OldGamerЗагрузка...Cкриншот4 Гримм / Grimm (2014-2015) [4 сезон] BDRip 1080p [HEVC] 10 bit от OldGamer
Сэмпл
5. Гримм / Grimm (2015-2016) [5 сезон] BDRip 1080p [HEVC] 10 bit от OldGamer
HEVC
10 bit
Обложка Гримм / Grimm (2015-2016) [5 сезон] BDRip 1080p [HEVC] 10 bit от OldGamer Год: 2015-2016
Страна: США
Студия: GK Productions, Hazy Mills Productions, Universal TV
Жанр: Фэнтези, Ужасы, Драма, Детектив
Продолжительность: ~00:43:00 серия

Режиссер: Норберто Барба, Терренс О’Хара, Эрик Ланёвилль
В ролях: Дэвид Джунтоли, Битси Таллок, Сайлас Уэйр Митчелл, Расселл Хорнсби, Саша Ройз, Регги Ли, Клэр Коффи, Бри Тёрнер, Роберт Бланш, Дэмиен Пакер

Описание: Действие происходит в современном Портленде, где детектив из отдела убийств узнаёт, что он является потомком группы охотников, известных как «Гриммы», которые сражаются, чтобы сохранить человечество в безопасности от сверхъестественных существ. Узнав о своей судьбе, и том, что он является последним из своего рода, он должен защитить каждую живую душу от зловещих персонажей сборника сказок, которые проникли в реальный мир.


Исходник: Blu-Ray Remux 1080p
Видео: 1920x1080, ~6104 Kbps
Аудио1: AC3, 6 ch, 384 Kbps - РусскийРусский, MVO (LostFilm)
Аудио2: AC3, 2 ch, 192 Kbps - РусскийРусский, MVO (SDI Media)
Аудио3: AC3, 6 ch, 640 Kbps - АнглийскийАнглийский
Субтитры: русские, английские

Как за пару секунд удалить ненужные аудиодорожки и субтитры (Внимание! После удаления вы не сможете поддержать раздачу)

Лог (x265 info)
x265 [info]: frame I: 271, Avg QP:17.96 kb/s: 16668.79
x265 [info]: frame P: 11278, Avg QP:19.17 kb/s: 12845.54
x265 [info]: frame B: 50261, Avg QP:21.24 kb/s: 4533.31
x265 [info]: Weighted P-Frames: Y:10.8% UV:9.3%
x265 [info]: Weighted B-Frames: Y:8.0% UV:6.6%
x265 [info]: encoded 61810 frames in 47729.92s (1.29 fps), 6103.19 kb/s, Avg QP:20.85
Медиаинфо
Общее
Уникальный идентификатор : 325480011975202384672978208379997650207 (0xF4DD2B8E0CB6B10DD6CF82557691FD1F)
Полное имя : \\.\Grimm.S05E05.Rat.King.mkv
Формат : Matroska
Версия формата : Version 4
Размер файла : 2,20 Гбайт
Продолжительность : 42 м. 58 с.
Общий поток : 7 324 Кбит/сек
Частота кадров : 23,976 кадра/сек
Название фильма : Grimm.S05E05.Rat.King / Крысиный король
Трек/Положение : 5
Кодирование произвёл : OldGamer
Тип содержимого : TV Show
Описание : Раненая Беда возвращается в Портленд и находит убежище Ника и Адалинды. Ник отвозит её в больницу, а сам вынужден ехать на расследование двойного убийства.
Дата выпуска : 2015-12-04
Дата записи : 2015-12-04
Программа кодирования : mkvmerge v82.0 ('I'm The President') 64-bit
Библиотека кодирования : libebml v1.4.5 + libmatroska v1.7.1 / xvid4psp5
Обложка : Yes
Attachments : cover.jpg
ACTOR : David Giuntoli, Silas Weir Mitchell, Russell Hornsby, Sasha Roiz, Reggie Lee, Bree Turner, Claire Coffee, Damien Puckler, Jacqueline Toboni, Tyler Miles, Carlson Young, Chad Addison, Otniel, Drew Barrios, Ryan Tresser, C.C. Barber, John Henry Whitake...
ARTIST : David Giuntoli, Silas Weir Mitchell, Russell Hornsby, Sasha Roiz, Reggie Lee, Bree Turner, Claire Coffee, Damien Puckler, Jacqueline Toboni, Tyler Miles, Carlson Young, Chad Addison, Otniel, Drew Barrios, Ryan Tresser, C.C. Barber, John Henry Whitake...
DIRECTOR : David Solomon
EPISODE.PART_NUM : 5
GENRE : драма, детектив, НФ и Фэнтези
LAW_RATING : TV-14
RATING : TV-14
SCREENPLAY_BY : Jeff Miller
SEASON.PART_NUM : 5
SUMMARY : Раненая Беда возвращается в Портленд и находит убежище Ника и Адалинды. Ник отвозит её в больницу, а сам вынужден ехать на расследование двойного убийства.
SYNOPSIS : Раненая Беда возвращается в Портленд и находит убежище Ника и Адалинды. Ник отвозит её в больницу, а сам вынужден ехать на расследование двойного убийства. Ник, Хэнк, Монро и Розали сталкиваются с Крысиным королём — гигантским существом, невероятным и легендарным монстром даже для самих существ. Тем временем в больнице существа понимают, что Беда — Гримм, и пытаются её похитить.
WRITTEN_BY : Jeff Miller

Видео
Идентификатор : 1
Формат : HEVC
Формат/Информация : High Efficiency Video Coding
Профиль формата : Main 10@L4.1@High
Идентификатор кодека : V_MPEGH/ISO/HEVC
Продолжительность : 42 м. 57 с.
Битрейт : 6 104 Кбит/сек
Ширина : 1 920 пикселей
Высота : 1 080 пикселей
Соотношение сторон : 16:9
Режим частоты кадров : Постоянный
Частота кадров : 23,976 (24000/1001) кадра/сек
Цветовое пространство : YUV
Субдискретизация насыщенности : 4:2:0
Битовая глубина : 10 бит
Бит/(Пиксели*Кадры) : 0.123
Размер потока : 1,83 Гбайт (83%)
Заголовок : Grimm S05E05 / Rip by OldGamer
Библиотека кодирования : x265 3.5+110-8ee01d45b:[Windows][GCC 13.2.0][64 bit] 10bit
Настройки программы : cpuid=1111039 / frame-threads=4 / numa-pools=16 / wpp / no-pmode / no-pme / no-psnr / no-ssim / log-level=2 / input-csp=1 / input-res=1920x1080 / interlace=0 / total-frames=61810 / level-idc=41 / high-tier=1 / uhd-bd=0 / ref=5 / no-allow-non-conformance / no-repeat-headers / annexb / no-aud / no-eob / no-eos / no-hrd / info / hash=0 / temporal-layers=0 / open-gop / min-keyint=23 / keyint=240 / gop-lookahead=0 / bframes=16 / b-adapt=2 / b-pyramid / bframe-bias=0 / rc-lookahead=40 / lookahead-slices=0 / scenecut=40 / no-hist-scenecut / radl=0 / no-splice / no-intra-refresh / ctu=32 / min-cu-size=8 / rect / amp / max-tu-size=32 / tu-inter-depth=4 / tu-intra-depth=4 / limit-tu=1 / rdoq-level=2 / dynamic-rd=0.00 / no-ssim-rd / signhide / no-tskip / nr-intra=0 / nr-inter=0 / no-constrained-intra / no-strong-intra-smoothing / max-merge=5 / limit-refs=3 / no-limit-modes / me=3 / subme=7 / merange=57 / temporal-mvp / no-frame-dup / no-hme / weightp / weightb / no-analyze-src-pics / deblock=-2:-2 / no-sao / no-sao-non-deblock / rd=6 / selective-sao=0 / no-early-skip / no-rskip / no-fast-intra / no-tskip-fast / no-cu-lossless / b-intra / no-splitrd-skip / rdpenalty=0 / psy-rd=2.00 / psy-rdoq=1.00 / no-rd-refine / no-lossless / cbqpoffs=0 / crqpoffs=0 / rc=crf / crf=21.7 / qcomp=0.60 / qpstep=4 / stats-write=0 / stats-read=0 / vbv-maxrate=50000 / vbv-bufsize=50000 / vbv-init=0.9 / min-vbv-fullness=50.0 / max-vbv-fullness=80.0 / crf-max=0.0 / crf-min=0.0 / ipratio=1.40 / pbratio=1.30 / aq-mode=1 / aq-strength=1.00 / no-cutree / zone-count=1 / zones: / start-frame=60825 / end-frame=61810 / qp=36 / no-strict-cbr / qg-size=32 / no-rc-grain / qpmax=69 / qpmin=0 / no-const-vbv / sar=1 / overscan=0 / videoformat=5 / range=0 / colorprim=2 / transfer=2 / colormatrix=2 / chromaloc=0 / display-window=0 / cll=0,0 / min-luma=0 / max-luma=1023 / log2-max-poc-lsb=8 / vui-timing-info / vui-hrd-info / slices=1 / no-opt-qp-pps / no-opt-ref-list-length-pps / no-multi-pass-opt-rps / scenecut-bias=0.00 / no-opt-cu-delta-qp / no-aq-motion / no-hdr10 / no-hdr10-opt / no-dhdr10-opt / no-idr-recovery-sei / analysis-reuse-level=0 / analysis-save-reuse-level=0 / analysis-load-reuse-level=0 / scale-factor=0 / refine-intra=0 / refine-inter=0 / refine-mv=1 / refine-ctu-distortion=0 / no-limit-sao / ctu-info=0 / no-lowpass-dct / refine-analysis-type=0 / copy-pic=1 / max-ausize-factor=1.0 / no-dynamic-refine / no-single-sei / no-hevc-aq / no-svt / no-field / qp-adaptation-range=1.00 / scenecut-aware-qp=0conformance-window-offsets / right=0 / bottom=0 / decoder-max-rate=0 / no-vbv-live-multi-pass / no-mcstf / no-sbrc
Язык : English
Default : Да
Forced : Нет

Аудио #1
Идентификатор : 2
Формат : AC-3
Формат/Информация : Audio Coding 3
Коммерческое название : Dolby Digital
Идентификатор кодека : A_AC3
Продолжительность : 42 м. 57 с.
Вид битрейта : Постоянный
Битрейт : 384 Кбит/сек
Каналы : 6 каналов
Channel layout : L R C LFE Ls Rs
Частота : 48,0 КГц
Частота кадров : 31,250 кадров/сек (1536 SPF)
Метод сжатия : С потерями
Размер потока : 118 Мбайт (5%)
Заголовок : MVO (LostFilm)
Язык : Russian
Service kind : Complete Main
Default : Да
Forced : Нет

Аудио #2
Идентификатор : 3
Формат : AC-3
Формат/Информация : Audio Coding 3
Коммерческое название : Dolby Digital
Идентификатор кодека : A_AC3
Продолжительность : 42 м. 57 с.
Вид битрейта : Постоянный
Битрейт : 192 Кбит/сек
Каналы : 2 канала
Channel layout : L R
Частота : 48,0 КГц
Частота кадров : 31,250 кадров/сек (1536 SPF)
Метод сжатия : С потерями
Размер потока : 59,0 Мбайт (3%)
Заголовок : MVO (SDI Media)
Язык : Russian
Service kind : Complete Main
Default : Нет
Forced : Нет

Аудио #3
Идентификатор : 4
Формат : AC-3
Формат/Информация : Audio Coding 3
Коммерческое название : Dolby Digital
Идентификатор кодека : A_AC3
Продолжительность : 42 м. 58 с.
Вид битрейта : Постоянный
Битрейт : 640 Кбит/сек
Каналы : 6 каналов
Channel layout : L R C LFE Ls Rs
Частота : 48,0 КГц
Частота кадров : 31,250 кадров/сек (1536 SPF)
Метод сжатия : С потерями
Размер потока : 197 Мбайт (9%)
Язык : English
Service kind : Complete Main
Default : Нет
Forced : Нет

Текст #1
Идентификатор : 5
Формат : UTF-8
Идентификатор кодека : S_TEXT/UTF8
Идентификатор кодека/Информация : UTF-8 Plain Text
Продолжительность : 42 м. 12 с.
Битрейт : 99 бит/сек
Частота кадров : 0,277 кадр/сек
Count of elements : 701
Размер потока : 30,7 Кбайт (0%)
Заголовок : Russian @ SRT
Язык : Russian
Default : Нет
Forced : Нет

Текст #2
Идентификатор : 6
Формат : UTF-8
Идентификатор кодека : S_TEXT/UTF8
Идентификатор кодека/Информация : UTF-8 Plain Text
Продолжительность : 42 м. 13 с.
Битрейт : 64 бит/сек
Частота кадров : 0,247 кадр/сек
Count of elements : 626
Размер потока : 19,8 Кбайт (0%)
Заголовок : English @ SRT
Язык : English
Default : Нет
Forced : Нет

Меню
00:00:00.000 : en:Chapter 1
00:05:47.472 : en:Chapter 2
00:21:26.285 : en:Chapter 3
00:34:27.482 : en:Chapter 4
Загрузка...Cкриншот1 Гримм / Grimm (2015-2016) [5 сезон] BDRip 1080p [HEVC] 10 bit от OldGamerЗагрузка...Cкриншот2 Гримм / Grimm (2015-2016) [5 сезон] BDRip 1080p [HEVC] 10 bit от OldGamerЗагрузка...Cкриншот3 Гримм / Grimm (2015-2016) [5 сезон] BDRip 1080p [HEVC] 10 bit от OldGamerЗагрузка...Cкриншот4 Гримм / Grimm (2015-2016) [5 сезон] BDRip 1080p [HEVC] 10 bit от OldGamer
Сэмпл
6. Гримм / Grimm (2017) [6 сезон] BDRip 1080p [HEVC] 10 bit от OldGamer
HEVC
10 bit
Обложка Гримм / Grimm (2017) [6 сезон] BDRip 1080p [HEVC] 10 bit от OldGamer Год: 2017
Страна: США
Студия: GK Productions, Hazy Mills Productions, Universal TV
Жанр: Фэнтези, Ужасы, Драма, Детектив
Продолжительность: ~00:43:00 серия

Режиссер: Норберто Барба, Терренс О’Хара, Эрик Ланёвилль
В ролях: Дэвид Джунтоли, Битси Таллок, Сайлас Уэйр Митчелл, Расселл Хорнсби, Саша Ройз, Регги Ли, Клэр Коффи, Бри Тёрнер, Роберт Бланш, Дэмиен Пакер

Описание: Действие происходит в современном Портленде, где детектив из отдела убийств узнаёт, что он является потомком группы охотников, известных как «Гриммы», которые сражаются, чтобы сохранить человечество в безопасности от сверхъестественных существ. Узнав о своей судьбе, и том, что он является последним из своего рода, он должен защитить каждую живую душу от зловещих персонажей сборника сказок, которые проникли в реальный мир.


Исходник: Blu-Ray Remux 1080p
Видео: 1920x1080, ~5521 Kbps
Аудио1: AC3, 6 ch, 384 Kbps - РусскийРусский, MVO (LostFilm)
Аудио2: AC3, 2 ch, 192 Kbps - РусскийРусский, MVO (SDI Media)
Аудио3: AC3, 6 ch, 640 Kbps - АнглийскийАнглийский
Субтитры: русские, английские

Как за пару секунд удалить ненужные аудиодорожки и субтитры (Внимание! После удаления вы не сможете поддержать раздачу)

Лог (x265 info)
x265 [info]: frame I: 268, Avg QP:18.26 kb/s: 15642.66
x265 [info]: frame P: 10206, Avg QP:19.28 kb/s: 11501.53
x265 [info]: frame B: 51557, Avg QP:21.23 kb/s: 4282.89
x265 [info]: Weighted P-Frames: Y:7.0% UV:6.1%
x265 [info]: Weighted B-Frames: Y:5.2% UV:4.3%
x265 [info]: encoded 62031 frames in 46259.17s (1.34 fps), 5519.66 kb/s, Avg QP:20.89
Медиаинфо
Общее
Уникальный идентификатор : 319881846459021509385059483813013406152 (0xF0A700AF6206F57637A115FC8710C1C8)
Полное имя : \\.\Grimm.S06E06.Breakfast.in.Bed.mkv
Формат : Matroska
Версия формата : Version 4
Размер файла : 2,03 Гбайт
Продолжительность : 43 м. 7 с.
Общий поток : 6 741 Кбит/сек
Частота кадров : 23,976 кадра/сек
Название фильма : Grimm.S06E06.Breakfast.in.Bed / Завтрак в постель
Трек/Положение : 6
Кодирование произвёл : OldGamer
Тип содержимого : TV Show
Описание : Ник, Хэнк и Ву отправляются в отель в котором произошло ужасное убийство. Один из постояльцев утверждает, что и его преследовало нечто невероятно страшное. Монро, Розали и Ева все ближе к разгадке происхождения символов на ткани.
Дата выпуска : 2017-02-10
Дата записи : 2017-02-10
Программа кодирования : mkvmerge v83.0 ('Circle Of Friends') 64-bit
Библиотека кодирования : libebml v1.4.5 + libmatroska v1.7.1 / xvid4psp5
Обложка : Yes
Attachments : cover.jpg
ACTOR : David Giuntoli, Silas Weir Mitchell, Russell Hornsby, Sasha Roiz, Reggie Lee, Bree Turner, Claire Coffee, Elizabeth Tulloch, Damien Puckler, Charles Baker, Heath Koerschgen, William Russ, Carlos Gómez, Alissa Jessup, Anna Campbell, Chris Franklin, Ja...
ARTIST : David Giuntoli, Silas Weir Mitchell, Russell Hornsby, Sasha Roiz, Reggie Lee, Bree Turner, Claire Coffee, Elizabeth Tulloch, Damien Puckler, Charles Baker, Heath Koerschgen, William Russ, Carlos Gómez, Alissa Jessup, Anna Campbell, Chris Franklin, Ja...
DIRECTOR : Julie Herlocker
EPISODE.PART_NUM : 6
GENRE : драма, детектив, НФ и Фэнтези
LAW_RATING : TV-14
RATING : TV-14
SCREENPLAY_BY : Kyle McVey
SEASON.PART_NUM : 6
SUMMARY : Ник, Хэнк и Ву отправляются в отель в котором произошло ужасное убийство. Один из постояльцев утверждает, что и его преследовало нечто невероятно страшное. Монро, Розали и Ева все ближе к разгадке происхождения символов на ткани.
SYNOPSIS : Ник, Хэнк и Ву отправляются в отель в котором произошло ужасное убийство. Один из постояльцев утверждает, что и его преследовало нечто невероятно страшное. Монро, Розали и Ева все ближе к разгадке происхождения символов на ткани.
WRITTEN_BY : Kyle McVey

Видео
Идентификатор : 1
Формат : HEVC
Формат/Информация : High Efficiency Video Coding
Профиль формата : Main 10@L4.1@High
Идентификатор кодека : V_MPEGH/ISO/HEVC
Продолжительность : 43 м. 7 с.
Битрейт : 5 521 Кбит/сек
Ширина : 1 920 пикселей
Высота : 1 080 пикселей
Соотношение сторон : 16:9
Режим частоты кадров : Постоянный
Частота кадров : 23,976 (24000/1001) кадра/сек
Цветовое пространство : YUV
Субдискретизация насыщенности : 4:2:0
Битовая глубина : 10 бит
Бит/(Пиксели*Кадры) : 0.111
Размер потока : 1,66 Гбайт (82%)
Заголовок : Grimm S06E06 / Rip by OldGamer
Библиотека кодирования : x265 3.5+110-8ee01d45b:[Windows][GCC 13.2.0][64 bit] 10bit
Настройки программы : cpuid=1111039 / frame-threads=4 / numa-pools=16 / wpp / no-pmode / no-pme / no-psnr / no-ssim / log-level=2 / input-csp=1 / input-res=1920x1080 / interlace=0 / total-frames=62031 / level-idc=41 / high-tier=1 / uhd-bd=0 / ref=5 / no-allow-non-conformance / no-repeat-headers / annexb / no-aud / no-eob / no-eos / no-hrd / info / hash=0 / temporal-layers=0 / open-gop / min-keyint=23 / keyint=240 / gop-lookahead=0 / bframes=16 / b-adapt=2 / b-pyramid / bframe-bias=0 / rc-lookahead=40 / lookahead-slices=0 / scenecut=40 / no-hist-scenecut / radl=0 / no-splice / no-intra-refresh / ctu=32 / min-cu-size=8 / rect / amp / max-tu-size=32 / tu-inter-depth=4 / tu-intra-depth=4 / limit-tu=1 / rdoq-level=2 / dynamic-rd=0.00 / no-ssim-rd / signhide / no-tskip / nr-intra=0 / nr-inter=0 / no-constrained-intra / no-strong-intra-smoothing / max-merge=5 / limit-refs=3 / no-limit-modes / me=3 / subme=7 / merange=57 / temporal-mvp / no-frame-dup / no-hme / weightp / weightb / no-analyze-src-pics / deblock=-2:-2 / no-sao / no-sao-non-deblock / rd=6 / selective-sao=0 / no-early-skip / no-rskip / no-fast-intra / no-tskip-fast / no-cu-lossless / b-intra / no-splitrd-skip / rdpenalty=0 / psy-rd=2.00 / psy-rdoq=1.00 / no-rd-refine / no-lossless / cbqpoffs=0 / crqpoffs=0 / rc=crf / crf=22.0 / qcomp=0.60 / qpstep=4 / stats-write=0 / stats-read=0 / vbv-maxrate=50000 / vbv-bufsize=50000 / vbv-init=0.9 / min-vbv-fullness=50.0 / max-vbv-fullness=80.0 / crf-max=0.0 / crf-min=0.0 / ipratio=1.40 / pbratio=1.30 / aq-mode=1 / aq-strength=1.00 / no-cutree / zone-count=1 / zones: / start-frame=60971 / end-frame=62031 / qp=36 / no-strict-cbr / qg-size=32 / no-rc-grain / qpmax=69 / qpmin=0 / no-const-vbv / sar=1 / overscan=0 / videoformat=5 / range=0 / colorprim=2 / transfer=2 / colormatrix=2 / chromaloc=0 / display-window=0 / cll=0,0 / min-luma=0 / max-luma=1023 / log2-max-poc-lsb=8 / vui-timing-info / vui-hrd-info / slices=1 / no-opt-qp-pps / no-opt-ref-list-length-pps / no-multi-pass-opt-rps / scenecut-bias=0.00 / no-opt-cu-delta-qp / no-aq-motion / no-hdr10 / no-hdr10-opt / no-dhdr10-opt / no-idr-recovery-sei / analysis-reuse-level=0 / analysis-save-reuse-level=0 / analysis-load-reuse-level=0 / scale-factor=0 / refine-intra=0 / refine-inter=0 / refine-mv=1 / refine-ctu-distortion=0 / no-limit-sao / ctu-info=0 / no-lowpass-dct / refine-analysis-type=0 / copy-pic=1 / max-ausize-factor=1.0 / no-dynamic-refine / no-single-sei / no-hevc-aq / no-svt / no-field / qp-adaptation-range=1.00 / scenecut-aware-qp=0conformance-window-offsets / right=0 / bottom=0 / decoder-max-rate=0 / no-vbv-live-multi-pass / no-mcstf / no-sbrc
Язык : English
Default : Да
Forced : Нет

Аудио #1
Идентификатор : 2
Формат : AC-3
Формат/Информация : Audio Coding 3
Коммерческое название : Dolby Digital
Идентификатор кодека : A_AC3
Продолжительность : 43 м. 7 с.
Вид битрейта : Постоянный
Битрейт : 384 Кбит/сек
Каналы : 6 каналов
Channel layout : L R C LFE Ls Rs
Частота : 48,0 КГц
Частота кадров : 31,250 кадров/сек (1536 SPF)
Метод сжатия : С потерями
Размер потока : 118 Мбайт (6%)
Заголовок : MVO (LostFilm)
Язык : Russian
Service kind : Complete Main
Default : Да
Forced : Нет

Аудио #2
Идентификатор : 3
Формат : AC-3
Формат/Информация : Audio Coding 3
Коммерческое название : Dolby Digital
Идентификатор кодека : A_AC3
Продолжительность : 43 м. 7 с.
Вид битрейта : Постоянный
Битрейт : 192 Кбит/сек
Каналы : 2 канала
Channel layout : L R
Частота : 48,0 КГц
Частота кадров : 31,250 кадров/сек (1536 SPF)
Метод сжатия : С потерями
Размер потока : 59,2 Мбайт (3%)
Заголовок : MVO (SDI Media)
Язык : Russian
Service kind : Complete Main
Default : Нет
Forced : Нет

Аудио #3
Идентификатор : 4
Формат : AC-3
Формат/Информация : Audio Coding 3
Коммерческое название : Dolby Digital
Идентификатор кодека : A_AC3
Продолжительность : 43 м. 7 с.
Вид битрейта : Постоянный
Битрейт : 640 Кбит/сек
Каналы : 6 каналов
Channel layout : L R C LFE Ls Rs
Частота : 48,0 КГц
Частота кадров : 31,250 кадров/сек (1536 SPF)
Метод сжатия : С потерями
Размер потока : 197 Мбайт (9%)
Язык : English
Service kind : Complete Main
Default : Нет
Forced : Нет

Текст #1
Идентификатор : 5
Формат : UTF-8
Идентификатор кодека : S_TEXT/UTF8
Идентификатор кодека/Информация : UTF-8 Plain Text
Продолжительность : 42 м. 17 с.
Битрейт : 108 бит/сек
Частота кадров : 0,264 кадр/сек
Count of elements : 669
Размер потока : 33,7 Кбайт (0%)
Заголовок : Russian @ SRT
Язык : Russian
Default : Нет
Forced : Нет

Текст #2
Идентификатор : 6
Формат : UTF-8
Идентификатор кодека : S_TEXT/UTF8
Идентификатор кодека/Информация : UTF-8 Plain Text
Продолжительность : 42 м. 17 с.
Битрейт : 71 бит/сек
Частота кадров : 0,265 кадр/сек
Count of elements : 672
Размер потока : 22,1 Кбайт (0%)
Заголовок : English @ SRT
Язык : English
Default : Нет
Forced : Нет

Меню
00:00:00.000 : en:Chapter 1
00:06:33.184 : en:Chapter 2
00:20:07.998 : en:Chapter 3
00:35:20.368 : en:Chapter 4
Загрузка...Cкриншот1 Гримм / Grimm (2017) [6 сезон] BDRip 1080p [HEVC] 10 bit от OldGamerЗагрузка...Cкриншот2 Гримм / Grimm (2017) [6 сезон] BDRip 1080p [HEVC] 10 bit от OldGamerЗагрузка...Cкриншот3 Гримм / Grimm (2017) [6 сезон] BDRip 1080p [HEVC] 10 bit от OldGamerЗагрузка...Cкриншот4 Гримм / Grimm (2017) [6 сезон] BDRip 1080p [HEVC] 10 bit от OldGamer
Сэмпл
Релиз-группа: RIPS CLUB
Торрент🧲 Магнет

Рейтинги КП и IMDB, кнопки "Позвать в чате" и "Спасибо", а также мультитрекерная статистика доступны только зарегистрированным/авторизованным пользователям!

Файлы: 122
  • Grimm
    • Grimm.S01.BDRip-HEVC.1080p
      • Grimm.S01E01.Pilot.mkv   2.74 ГБ
      • Grimm.S01E02.Bears.Will.Be.Bears.mkv   2.06 ГБ
      • Grimm.S01E03.Beeware.mkv   2.14 ГБ
      • Grimm.S01E04.Lonelyhearts.mkv   2.32 ГБ
      • Grimm.S01E05.Danse.Macabre.mkv   2.6 ГБ
      • Grimm.S01E06.The.Three.Bad.Wolves.mkv   2.38 ГБ
      • Grimm.S01E07.Let.Your.Hair.Down.mkv   3.18 ГБ
      • Grimm.S01E08.Game.Ogre.mkv   2.41 ГБ
      • Grimm.S01E09.Of.Mouse.and.Man.mkv   2.77 ГБ
      • Grimm.S01E10.Organ.Grinder.mkv   2.64 ГБ
      • Grimm.S01E11.Tarantella.mkv   2.53 ГБ
      • Grimm.S01E12.Last.Grimm.Standing.mkv   2.92 ГБ
      • Grimm.S01E13.Three.Coins.in.a.Fuchsbau.mkv   2.63 ГБ
      • Grimm.S01E14.Plumed.Serpent.mkv   2.82 ГБ
      • Grimm.S01E15.Island.of.Dreams.mkv   2.74 ГБ
      • Grimm.S01E16.The.Thing.with.Feathers.mkv   3.54 ГБ
      • Grimm.S01E17.Love.Sick.mkv   3.72 ГБ
      • Grimm.S01E18.Cat.and.Mouse.mkv   3.67 ГБ
      • Grimm.S01E19.Leave.It.to.Beavers.mkv   3.36 ГБ
      • Grimm.S01E20.Happily.Ever.Aftermath.mkv   3.16 ГБ
      • Grimm.S01E21.Big.Feet.mkv   4.14 ГБ
      • Grimm.S01E22.Woman.in.Black.mkv   4.07 ГБ
    • Grimm.S02.BDRip-HEVC.1080p
      • Grimm.S02E01.Bad.Teeth.mkv   2.3 ГБ
      • Grimm.S02E02.The.Kiss.mkv   2.06 ГБ
      • Grimm.S02E03.Bad.Moon.Rising.mkv   2.16 ГБ
      • Grimm.S02E04.Quill.mkv   2.29 ГБ
      • Grimm.S02E05.The.Good.Shepherd.mkv   2.57 ГБ
      • Grimm.S02E06.Over.My.Dead.Body.mkv   2.07 ГБ
      • Grimm.S02E07.The.Bottle.Imp.mkv   2.29 ГБ
      • Grimm.S02E08.The.Other.Side.mkv   2.1 ГБ
      • Grimm.S02E09.La.Llorona.mkv   2.63 ГБ
      • Grimm.S02E10.The.Hour.of.Death.mkv   2.13 ГБ
      • Grimm.S02E11.To.Protect.and.Serve.Man.mkv   2.61 ГБ
      • Grimm.S02E12.Season.of.the.Hexenbiest.mkv   1.98 ГБ
      • Grimm.S02E13.Face.Off.mkv   2.47 ГБ
      • Grimm.S02E14.Natural.Born.Wesen.mkv   2.42 ГБ
      • Grimm.S02E15.Mr.Sandman.mkv   2.76 ГБ
      • Grimm.S02E16.Nameless.mkv   2.13 ГБ
      • Grimm.S02E17.One.Angry.Fuchsbau.mkv   2.33 ГБ
      • Grimm.S02E18.Volcanalis.mkv   2.05 ГБ
      • Grimm.S02E19.Endangered.mkv   2.41 ГБ
      • Grimm.S02E20.Kiss.of.the.Muse.mkv   2.04 ГБ
      • Grimm.S02E21.The.Waking.Dead.mkv   2.53 ГБ
      • Grimm.S02E22.Goodnight.Sweet.Grimm.mkv   3.16 ГБ
    • Grimm.S03.BDRip-HEVC.1080p
      • Grimm.S03E01.The.Ungrateful.Dead.mkv   3.33 ГБ
      • Grimm.S03E02.PTZD.mkv   2.81 ГБ
      • Grimm.S03E03.A.Dish.Best.Served.Cold.mkv   3.3 ГБ
      • Grimm.S03E04.One.Night.Stand.mkv   2.45 ГБ
      • Grimm.S03E05.El.Cucuy.mkv   2.76 ГБ
      • Grimm.S03E06.Stories.We.Tell.Our.Young.mkv   2.27 ГБ
      • Grimm.S03E07.Cold.Blooded.mkv   2.26 ГБ
      • Grimm.S03E08.Twelve.Days.of.Krampus.mkv   2.98 ГБ
      • Grimm.S03E09.Red.Menace.mkv   2.96 ГБ
      • Grimm.S03E10.Eyes.of.the.Beholder.mkv   2.74 ГБ
      • Grimm.S03E11.The.Good.Soldier.mkv   2.55 ГБ
      • Grimm.S03E12.The.Wild.Hunt.mkv   3.17 ГБ
      • Grimm.S03E13.Revelation.mkv   2.87 ГБ
      • Grimm.S03E14.Mommy.Dearest.mkv   2.83 ГБ
      • Grimm.S03E15.Once.We.Were.Gods.mkv   2.94 ГБ
      • Grimm.S03E16.The.Show.Must.Go.On.mkv   3.18 ГБ
      • Grimm.S03E17.Synchronicity.mkv   3.3 ГБ
      • Grimm.S03E18.The.Law.of.Sacrifice.mkv   3.04 ГБ
      • Grimm.S03E19.Nobody.Knows.the.Trubel.Ive.Seen.mkv   3.21 ГБ
      • Grimm.S03E20.My.Fair.Wesen.mkv   3.16 ГБ
      • Grimm.S03E21.The.Inheritance.mkv   3.25 ГБ
      • Grimm.S03E22.Blonde.Ambition.mkv   3.14 ГБ
    • Grimm.S04.BDRip-HEVC.1080p
      • Grimm.S04E01.Thanks.for.the.Memories.mkv   2.32 ГБ
      • Grimm.S04E02.Octopus.Head.mkv   2.37 ГБ
      • Grimm.S04E03.The.Last.Fight.mkv   2.27 ГБ
      • Grimm.S04E04.Dyin.on.a.Prayer.mkv   2.22 ГБ
      • Grimm.S04E05.Cry.Luison.mkv   2.32 ГБ
      • Grimm.S04E06.Highway.of.Tears.mkv   2.27 ГБ
      • Grimm.S04E07.The.Grimm.Who.Stole.Christmas.mkv   2.16 ГБ
      • Grimm.S04E08.Chupacabra.mkv   2.09 ГБ
      • Grimm.S04E09.Wesenrein.mkv   2.02 ГБ
      • Grimm.S04E10.Tribunal.mkv   1.85 ГБ
      • Grimm.S04E11.Death.Do.Us.Part.mkv   1.76 ГБ
      • Grimm.S04E12.Marechaussee.mkv   1.78 ГБ
      • Grimm.S04E13.Trial.by.Fire.mkv   1.93 ГБ
      • Grimm.S04E14.Bad.Luck.mkv   2.09 ГБ
      • Grimm.S04E15.Double.Date.mkv   2.08 ГБ
      • Grimm.S04E16.Heartbreaker.mkv   1.86 ГБ
      • Grimm.S04E17.Hibernaculum.mkv   2.07 ГБ
      • Grimm.S04E18.Mishipeshu.mkv   1.84 ГБ
      • Grimm.S04E19.Iron.Hans.mkv   1.95 ГБ
      • Grimm.S04E20.You.Dont.Know.Jack.mkv   2.13 ГБ
      • Grimm.S04E21.Headache.mkv   1.74 ГБ
      • Grimm.S04E22.Cry.Havoc.mkv   2.01 ГБ
    • Grimm.S05.BDRip-HEVC.1080p
      • Grimm.S05E01.The.Grimm.Identity.mkv   1.9 ГБ
      • Grimm.S05E02.Clear.and.Wesen.Danger.mkv   1.91 ГБ
      • Grimm.S05E03.Lost.Boys.mkv   1.94 ГБ
      • Grimm.S05E04.Maiden.Quest.mkv   1.99 ГБ
      • Grimm.S05E05.Rat.King.mkv   2.2 ГБ
      • Grimm.S05E06.Wesen.Nacht.mkv   1.74 ГБ
      • Grimm.S05E07.Eve.of.Destruction.mkv   1.73 ГБ
      • Grimm.S05E08.A.Reptile.Dysfunction.mkv   1.97 ГБ
      • Grimm.S05E09.Star-Crossed.mkv   1.95 ГБ
      • Grimm.S05E10.Map.of.the.Seven.Knights.mkv   1.6 ГБ
      • Grimm.S05E11.Key.Move.mkv   2.22 ГБ
      • Grimm.S05E12.Into.the.Schwarzwald.mkv   1.72 ГБ
      • Grimm.S05E13.Silence.of.the.Slams.mkv   1.77 ГБ
      • Grimm.S05E14.Lycanthropia.mkv   2.02 ГБ
      • Grimm.S05E15.Skin.Deep.mkv   1.75 ГБ
      • Grimm.S05E16.The.Believer.mkv   1.76 ГБ
      • Grimm.S05E17.Inugami.mkv   1.67 ГБ
      • Grimm.S05E18.Good.to.the.Bone.mkv   1.71 ГБ
      • Grimm.S05E19.The.Taming.of.the.Wu.mkv   1.68 ГБ
      • Grimm.S05E20.Bad.Night.mkv   1.53 ГБ
      • Grimm.S05E21-E22.Beginning.of.the.End.mkv   3.1 ГБ
    • Grimm.S06.BDRip-HEVC.1080p
      • Grimm.S06E01.Fugitive.mkv   1.86 ГБ
      • Grimm.S06E02.Trust.Me.Knot.mkv   1.72 ГБ
      • Grimm.S06E03.Oh.Captain.My.Captain.mkv   1.9 ГБ
      • Grimm.S06E04.El.Cuegle.mkv   1.57 ГБ
      • Grimm.S06E05.The.Seven.Year.Itch.mkv   1.84 ГБ
      • Grimm.S06E06.Breakfast.in.Bed.mkv   2.03 ГБ
      • Grimm.S06E07.Blind.Love.mkv   2.15 ГБ
      • Grimm.S06E08.The.Son.Also.Rises.mkv   2.1 ГБ
      • Grimm.S06E09.Tree.People.mkv   2.68 ГБ
      • Grimm.S06E10.Blood.Magic.mkv   1.76 ГБ
      • Grimm.S06E11.Where.the.Wild.Things.Were.mkv   2.17 ГБ
      • Grimm.S06E12.Zerstorer.Shrugged.mkv   1.84 ГБ
      • Grimm.S06E13.The.End.mkv   2.21 ГБ
Поблагодарили: 10
A1eksandr1, Alex302, Art1967, bit, Brooklyn, donadar, Kiran, SergKote, stickstoff, vserginbox
OldGamer
039726 (122)  291.33 ГБ

Добавление нового комментария

Добавление комментариев доступно только зарегистрированным/авторизованным пользователям.