💬 Мини-чат

Для тех, кому интересен процесс переделки сайта - https://rips.club/changelog.html (обновлен 20.04.2024)
Отправка сообщений доступна только зарегистрированным/авторизованным пользователям.
Онлайн (за 10 мин.): 0

Lovebites - Daughters Of The Dawn (2019) BDRip 1080p [HEVC] 10 bit от OldGamer (RG RIPS CLUB)

HEVC
10 bit
Обложка Lovebites - Daughters Of The Dawn (2019) BDRip 1080p [HEVC] 10 bit от OldGamer (RG RIPS CLUB) Год: 2019
Страна: Япония
Жанр: Музыка
Продолжительность: 01:47:01

Состав:
Asami: Singer, Lead Vocals. Watanabe Miyako: Guitar, Piano, Backing Vocals. Tatematsu Midori: Guitar, Backing Vocals. Haruna: Drums, Backing Vocals. Miho: Bass, Backing Vocals.

Описание: Live at Mynavi Blitz Akasaka, Tokyo, Japan January 27, 2019.

Треклист
1 Clockwork Immortality (Intro)
2 Addicted
3 Bravehearted
4 The Crusade
5 Pledge Of The Saviour
6 Rising
7 Scream For Me
8 Break The Wall
9 Shadowmaker
10 Above The Black Sea
11 Empty Daydream
12 M.D.O.
13 Journey To The Otherside
14 Edge Of The World
15 We The United
16 Epilogue
17 Don't Bite The Dust
18 Under The Red Sky
19 The Everlasting (Outro)

Исходник: Blu-Ray Remux 1080p (rutracker)
Видео: 1920x1080, 13.6 Mbps
Аудио: PCM, 2 ch, 2304 Kbps - АнглийскийАнглийский
Субтитры: Отсутствуют

Лог (x265 info)
x265 [info]: frame I: 646, Avg QP:16.98 kb/s: 23851.93
x265 [info]: frame P: 31559, Avg QP:18.21 kb/s: 20410.84
x265 [info]: frame B: 121755, Avg QP:20.50 kb/s: 11761.37
x265 [info]: Weighted P-Frames: Y:24.7% UV:22.5%
x265 [info]: Weighted B-Frames: Y:28.9% UV:24.1%
x265 [info]: encoded 153960 frames in 140919.07s (1.09 fps), 13585.08 kb/s, Avg QP:20.02
Медиаинфо
Общее
Уникальный идентификатор : 334711167976554265688915465950636974181 (0xFBCF06AF52317F8502C93DFC820EA065)
Полное имя : D:\Lovebites.Daughters.Of.The.Dawn.Live.In.Tokyo.2019.mkv
Формат : Matroska
Версия формата : Version 4
Размер файла : 11,9 Гбайт
Продолжительность : 1 ч. 47 мин.
Общий битрейт : 15,9 Мбит/сек
Частота кадров : 23,976 кадра/сек
Название фильма : Lovebites.Daughters.Of.The.Dawn.Live.In.Tokyo.2019 / Lovebites.Daughters.Of.The.Dawn.Live.In.Tokyo.2019
Кодирование выполнил : OldGamer
Тип содержимого : Music Video
Программа кодирования : mkvmerge v83.0 ('Circle Of Friends') 64-bit
Библиотека кодирования : libebml v1.4.5 + libmatroska v1.7.1 / xvid4psp5
Обложка : Yes
Attachments : cover.jpg

Видео
Идентификатор : 1
Формат : HEVC
Формат/Информация : High Efficiency Video Coding
Профиль формата : Main 10@L4.1@High
Идентификатор кодека : V_MPEGH/ISO/HEVC
Продолжительность : 1 ч. 47 мин.
Битрейт : 13,6 Мбит/сек
Ширина : 1 920 пикселей
Высота : 1 080 пикселей
Соотношение сторон дисплея : 16:9
Режим частоты кадров : Постоянный
Частота кадров : 23,976 (24000/1001) кадра/сек
Цветовое пространство : YUV
Цветовая субдискретизация : 4:2:0
Битовая глубина : 10 бит
Бит/(Пиксели*Кадры) : 0.273
Размер потока : 10,2 Гбайт (85%)
Заголовок : Lovebites - Daughters Of The Dawn / Rip by OldGamer
Библиотека кодирования : x265 3.5+110-8ee01d45b:[Windows][GCC 13.2.0][64 bit] 10bit
Параметры библиотеки кодирования : cpuid=1111039 / frame-threads=4 / numa-pools=16 / wpp / no-pmode / no-pme / no-psnr / no-ssim / log-level=2 / input-csp=1 / input-res=1920x1080 / interlace=0 / total-frames=153960 / level-idc=41 / high-tier=1 / uhd-bd=0 / ref=5 / no-allow-non-conformance / no-repeat-headers / annexb / no-aud / no-eob / no-eos / no-hrd / info / hash=0 / temporal-layers=0 / open-gop / min-keyint=23 / keyint=240 / gop-lookahead=0 / bframes=16 / b-adapt=2 / b-pyramid / bframe-bias=0 / rc-lookahead=40 / lookahead-slices=0 / scenecut=40 / no-hist-scenecut / radl=0 / no-splice / no-intra-refresh / ctu=32 / min-cu-size=8 / rect / amp / max-tu-size=32 / tu-inter-depth=4 / tu-intra-depth=4 / limit-tu=1 / rdoq-level=2 / dynamic-rd=0.00 / no-ssim-rd / signhide / no-tskip / nr-intra=0 / nr-inter=0 / no-constrained-intra / no-strong-intra-smoothing / max-merge=5 / limit-refs=3 / no-limit-modes / me=3 / subme=7 / merange=57 / temporal-mvp / no-frame-dup / no-hme / weightp / weightb / no-analyze-src-pics / deblock=-2:-2 / no-sao / no-sao-non-deblock / rd=6 / selective-sao=0 / no-early-skip / no-rskip / no-fast-intra / no-tskip-fast / no-cu-lossless / b-intra / no-splitrd-skip / rdpenalty=0 / psy-rd=2.00 / psy-rdoq=1.00 / no-rd-refine / no-lossless / cbqpoffs=0 / crqpoffs=0 / rc=crf / crf=21.8 / qcomp=0.75 / qpstep=4 / stats-write=0 / stats-read=0 / vbv-maxrate=50000 / vbv-bufsize=50000 / vbv-init=0.9 / min-vbv-fullness=50.0 / max-vbv-fullness=80.0 / crf-max=0.0 / crf-min=0.0 / ipratio=1.40 / pbratio=1.30 / aq-mode=3 / aq-strength=1.00 / no-cutree / zone-count=0 / no-strict-cbr / qg-size=32 / no-rc-grain / qpmax=69 / qpmin=0 / no-const-vbv / sar=1 / overscan=0 / videoformat=5 / range=0 / colorprim=2 / transfer=2 / colormatrix=2 / chromaloc=0 / display-window=0 / cll=0,0 / min-luma=0 / max-luma=1023 / log2-max-poc-lsb=8 / vui-timing-info / vui-hrd-info / slices=1 / no-opt-qp-pps / no-opt-ref-list-length-pps / no-multi-pass-opt-rps / scenecut-bias=0.00 / no-opt-cu-delta-qp / no-aq-motion / no-hdr10 / no-hdr10-opt / no-dhdr10-opt / no-idr-recovery-sei / analysis-reuse-level=0 / analysis-save-reuse-level=0 / analysis-load-reuse-level=0 / scale-factor=0 / refine-intra=0 / refine-inter=0 / refine-mv=1 / refine-ctu-distortion=0 / no-limit-sao / ctu-info=0 / no-lowpass-dct / refine-analysis-type=0 / copy-pic=1 / max-ausize-factor=1.0 / no-dynamic-refine / no-single-sei / no-hevc-aq / no-svt / no-field / qp-adaptation-range=1.00 / scenecut-aware-qp=0conformance-window-offsets / right=0 / bottom=0 / decoder-max-rate=0 / no-vbv-live-multi-pass / no-mcstf / no-sbrc
Язык : Японский
По умолчанию : Да
Принудительно : Нет

Аудио
Идентификатор : 2
Идентификатор в исходном носителе информ : 4352 (0x1100)
Формат : PCM
Настройки формата : Little / Signed
Идентификатор кодека : A_PCM/INT/LIT
Продолжительность : 1 ч. 47 мин.
Вид битрейта : Постоянный
Битрейт : 2 304 Кбит/сек
Канал(-ы) : 2 канала
Частота дискретизации : 48,0 КГц
Частота кадров : 30,000 кадров/сек (1600 SPF)
Битовая глубина : 24 бита
Размер потока : 1,72 Гбайт (14%)
Язык : Английский
По умолчанию : Да
Принудительно : Нет
Носитель оригинала : Blu-ray

Меню
00:00:00.000 : en:Clockwork Immortality (Intro)
00:01:03.063 : en:Addicted
00:06:26.969 : en:Bravehearted
00:13:34.814 : en:The Crusade
00:18:37.116 : en:Pledge Of The Saviour
00:23:23.693 : en:Rising
00:30:14.896 : en:Scream For Me
00:36:56.297 : en:Break The Wall
00:42:40.808 : en:Shadowmaker
00:48:36.914 : en:Above The Black Sea
00:55:07.679 : en:Empty Daydream
01:02:34.500 : en:M.D.O.
01:06:48.838 : en:Journey To The Otherside
01:11:53.809 : en:Edge Of The World
01:19:06.575 : en:We The United
01:26:12.167 : en:Epilogue
01:34:14.649 : en:Don't Bite The Dust
01:38:24.148 : en:Under The Red Sky
01:44:55.289 : en:The Everlasting (Outro)
Загрузка...Cкриншот1 Lovebites - Daughters Of The Dawn (2019) BDRip 1080p [HEVC] 10 bit от OldGamer (RG RIPS CLUB)Загрузка...Cкриншот2 Lovebites - Daughters Of The Dawn (2019) BDRip 1080p [HEVC] 10 bit от OldGamer (RG RIPS CLUB)Загрузка...Cкриншот3 Lovebites - Daughters Of The Dawn (2019) BDRip 1080p [HEVC] 10 bit от OldGamer (RG RIPS CLUB)Загрузка...Cкриншот4 Lovebites - Daughters Of The Dawn (2019) BDRip 1080p [HEVC] 10 bit от OldGamer (RG RIPS CLUB)
Релиз-группа: RIPS CLUB
Сэмпл Торрент🧲 Магнет

Рейтинги КП и IMDB, кнопки "Позвать в чате" и "Спасибо", а также мультитрекерная статистика доступны только зарегистрированным/авторизованным пользователям!

Файлы: 1
  • Lovebites.Daughters.Of.The.Dawn.Live.In.Tokyo.2019.mkv   11.88 ГБ
Поблагодарили: 2
InSpector, Kilop77
OldGamer
0153111.88 ГБ

Добавление нового комментария

Добавление комментариев доступно только зарегистрированным/авторизованным пользователям.