Чат

⚫︎
Список изменений сайта - https://rips.club/changelog.html (обновлен 24.05.2024)
  • arwis
  • ExoticDeer
  • kisa1980
Онлайн (за 10 мин.): 3
  • Tastod: Раздайте, пожалуйста, Загадочная история Бенджамина Баттона / The Curious Case of Benjamin Button (2008) BDRip 1080p [HEVC] 10 bit от Spartanec1308
  • Гл. Админ: Исправил баг, когда после анонса коллекции все анонсы показывались в спойлере, даже если не являлись коллекцией.
  • Гл. Админ: Исправил баг, когда в ЛС не возможно было удалить сообщение.
  • bronsonw200: Гл. Админ, Как по мне, так смотрится приятнее.
  • Гл. Админ: В светлой теме задний фон сделал чуть потемнее, чтобы было не слишком ярко. В темной теме поисковую строку сделал черной (как в светлой теме), чтобы выделялась. Убрал рамки вокруг элементов форм. Прокрутку страницы в начало сделал плавной. ( отредактировано: )
  • Гл. Админ: В ближайшие дни по вечерам начну подправлять дизайн.
  • Гл. Админ: Готово.
  • Гл. Админ: Управление релизами закончил, но не буду выкладывать на ночь глядя. Утром протестирую на локальном компе, и днем выложу.
  • Гл. Админ: Фон баннера релиз-группы сделал прозрачным и перезалил на внешнем хостинге.
  • OldGamer: было бы неплохо
  • Гл. Админ: Управление релизами наверно сегодня закончу.
  • HANNIBAL: Сообщение удалено (удалил: HANNIBAL)
  • HANNIBAL: Гл. Админ, не привычно
  • Гл. Админ: HANNIBAL, хорошего или плохого?
  • HANNIBAL: эт чей-то вы тут натворили с сайтом ;)
  • Гл. Админ: ExoticDeer, просто в будущем будет несколько новостных строчек и они будут автоматически переключаться по кругу, поэтому не хочется статичную. Могу ещё уменьшить частоту, если всё равно будет отвлекать. ( отредактировано: )
  • Гл. Админ: ExoticDeer, уменьшил частоту мигания с 5 сек. до 10 сек.
  • ExoticDeer: Гл. Админ, про мигание, скорее отвлекает, особенно на тёмной теме. статичная хорошо смотрелась
  • Гл. Админ: Winsent, Исправил. Теперь, при просмотре комментариев конкретного пользователя, эта галочка не играет роли. Спасибо, что сообщили.
  • Гл. Админ: Winsent, сначала не поверил своим глазам. Это было оооочень странно. Но кажется теперь понял в чем проблема. Ошибка появляется, если в настройках не установлена галочка "Получать уведомления о всех комментариях". Причем у разных пользователей проявляется по разному - у кого-то ничего не показывается, а у кого-то показывается часть комментариев. Поэтому мне долго не удавалось воспроизвести ошибку. Сейчас исправлю.
Отправка сообщений доступна только зарегистрированным/авторизованным пользователям.

🎤︎Rammstein: Paris (2017) BDRip 1080p [HEVC] 10 bit от OldGamer (RG RIPS CLUB)


Обложка Rammstein: Paris (2017) BDRip 1080p [HEVC] 10 bit от OldGamer (RG RIPS CLUB)
HEVC
10 bit
✂︎Сэмпл⤓︎Торрент🧲︎Магнет$Пожертвования

При перезаливке на другие сайты просьба указать автора и релиз-группу.


Год: 2017
Страна: Германия
Студия: Universal Music
Жанр: Музыка
Длительность: 02:08:09

Режиссер: Jonas Åkerlund
Состав:
Flake Lorenz, Till Lindemann, Christoph Schneider

Описание: With 22 songs from the band’s whole repertoire, the resulting film isn’t just the most spectacular concert film to date about the band that is currently the most successful German rock band – it’s a masterpiece of music cinema! A total tapestry of ever-changing images awaits the viewer. Åkerlund is notorious for his radical, pioneering videos, which are ablaze with all kinds of unique, idiosyncratic details, shifting perspectives, shocking contrasts, and moments that leave the viewer dizzy with delight – in “RAMMSTEIN: PARIS” he celebrates this from the very first minute. Rammstein performs 22 songs (128 min.) in the film, ranging from “Wollt ihr das Bett in Flammen sehen?,” which is the first song from their very first record, to “Frühling in Paris” from their latest studio album, Liebe ist für alle da.


Треклист1. Intro
2. Sonne
3. Wollt Ihr Das Bett In Flammen Sehen
4. Keine Lust
5. Sehnsucht
6. Asche Zu Asche
7. Feuer Frei!
8. Mutter
9. Mein Teil
10. Du Riechst So gut
11. Links 2-3-4
12. Du Hast
13. Haifisch
14. Bück Dich
15. Mann Gegen Mann
16. Ohne Dich
17. Mein Herz Brennt
18. Amerika
19. Ich Will
20. Engel
21. Pussy
22. Frühling In Paris


Релиз-группа: RIPS CLUB
Исходник: Blu-Ray Remux 1080p (rutracker)
Видео: 1920x1080, ~10.2 Mbps
Аудио1: DTS-HD Master Audio, 6 ch, 4763 Kbps - НемецкийНемецкий
Аудио2: LPCM, 2 ch, 2304 Kbps - НемецкийНемецкий
Субтитры: Отсутствуют

Как за несколько секунд удалить ненужные аудиодорожки и субтитры (Внимание! После удаления вы не сможете поддержать раздачу)


Лог (x265 info)x265 [info]: frame I: 803, Avg QP:16.14 kb/s: 22377.13
x265 [info]: frame P: 48016, Avg QP:17.96 kb/s: 17179.69
x265 [info]: frame B: 143422, Avg QP:20.55 kb/s: 7849.66
x265 [info]: Weighted P-Frames: Y:19.0% UV:15.4%
x265 [info]: Weighted B-Frames: Y:33.2% UV:23.8%
x265 [info]: encoded 192241 frames in 207446.26s (0.93 fps), 10240.70 kb/s, Avg QP:19.88
МедиаинфоОбщее
Уникальный идентификатор : 50005539138859244447143765909390804735 (0x259EB76DF035FD666FA2ED55BB28C6FF)
Полное имя : \\.\Rammstein.Paris.2007.BDRip-HEVC.1080p.mkv
Формат : Matroska
Версия формата : Version 4
Размер файла : 15,5 Гбайт
Продолжительность : 2 ч. 8 мин.
Режим общего битрейта : Переменный
Общий битрейт : 17,3 Мбит/сек
Частота кадров : 25,000 кадров/сек
Название фильма : Rammstein.Paris.2007.BDRip-HEVC. / Rammstein.Paris.2007.BDRip-HEVC.
Кодирование выполнил : OldGamer
Тип содержимого : Music Video
Программа кодирования : mkvmerge v83.0 ('Circle Of Friends') 64-bit
Библиотека кодирования : libebml v1.4.5 + libmatroska v1.7.1 / xvid4psp5
Обложка : Yes
Attachments : cover.jpg

Видео
Идентификатор : 1
Формат : HEVC
Формат/Информация : High Efficiency Video Coding
Профиль формата : Main 10@L4.1@High
Идентификатор кодека : V_MPEGH/ISO/HEVC
Продолжительность : 2 ч. 8 мин.
Битрейт : 10,2 Мбит/сек
Ширина : 1 920 пикселей
Высота : 1 080 пикселей
Соотношение сторон дисплея : 16:9
Режим частоты кадров : Постоянный
Частота кадров : 25,000 кадров/сек
Цветовое пространство : YUV
Цветовая субдискретизация : 4:2:0
Битовая глубина : 10 бит
Бит/(Пиксели*Кадры) : 0.198
Размер потока : 9,17 Гбайт (59%)
Заголовок : Rammstein - Paris / Rip by OldGamer
Библиотека кодирования : x265 3.5+110-8ee01d45b:[Windows][GCC 13.2.0][64 bit] 10bit
Параметры библиотеки кодирования : cpuid=1111039 / frame-threads=4 / numa-pools=16 / wpp / no-pmode / no-pme / no-psnr / no-ssim / log-level=2 / input-csp=1 / input-res=1920x1080 / interlace=0 / total-frames=192241 / level-idc=41 / high-tier=1 / uhd-bd=0 / ref=5 / no-allow-non-conformance / no-repeat-headers / annexb / no-aud / no-eob / no-eos / no-hrd / info / hash=0 / temporal-layers=0 / open-gop / min-keyint=23 / keyint=240 / gop-lookahead=0 / bframes=16 / b-adapt=2 / b-pyramid / bframe-bias=0 / rc-lookahead=40 / lookahead-slices=0 / scenecut=40 / no-hist-scenecut / radl=0 / no-splice / no-intra-refresh / ctu=32 / min-cu-size=8 / rect / amp / max-tu-size=32 / tu-inter-depth=4 / tu-intra-depth=4 / limit-tu=1 / rdoq-level=2 / dynamic-rd=0.00 / no-ssim-rd / signhide / no-tskip / nr-intra=0 / nr-inter=0 / no-constrained-intra / no-strong-intra-smoothing / max-merge=5 / limit-refs=3 / no-limit-modes / me=3 / subme=7 / merange=57 / temporal-mvp / no-frame-dup / no-hme / weightp / weightb / no-analyze-src-pics / deblock=-2:-2 / no-sao / no-sao-non-deblock / rd=6 / selective-sao=0 / no-early-skip / no-rskip / no-fast-intra / no-tskip-fast / no-cu-lossless / b-intra / no-splitrd-skip / rdpenalty=0 / psy-rd=2.00 / psy-rdoq=1.00 / no-rd-refine / no-lossless / cbqpoffs=0 / crqpoffs=0 / rc=crf / crf=19.8 / qcomp=0.70 / qpstep=4 / stats-write=0 / stats-read=0 / vbv-maxrate=50000 / vbv-bufsize=50000 / vbv-init=0.9 / min-vbv-fullness=50.0 / max-vbv-fullness=80.0 / crf-max=0.0 / crf-min=0.0 / ipratio=1.40 / pbratio=1.30 / aq-mode=1 / aq-strength=1.00 / no-cutree / zone-count=0 / no-strict-cbr / qg-size=32 / no-rc-grain / qpmax=69 / qpmin=0 / no-const-vbv / sar=1 / overscan=0 / videoformat=5 / range=0 / colorprim=2 / transfer=2 / colormatrix=2 / chromaloc=0 / display-window=0 / cll=0,0 / min-luma=0 / max-luma=1023 / log2-max-poc-lsb=8 / vui-timing-info / vui-hrd-info / slices=1 / no-opt-qp-pps / no-opt-ref-list-length-pps / no-multi-pass-opt-rps / scenecut-bias=0.00 / no-opt-cu-delta-qp / no-aq-motion / no-hdr10 / no-hdr10-opt / no-dhdr10-opt / no-idr-recovery-sei / analysis-reuse-level=0 / analysis-save-reuse-level=0 / analysis-load-reuse-level=0 / scale-factor=0 / refine-intra=0 / refine-inter=0 / refine-mv=1 / refine-ctu-distortion=0 / no-limit-sao / ctu-info=0 / no-lowpass-dct / refine-analysis-type=0 / copy-pic=1 / max-ausize-factor=1.0 / no-dynamic-refine / no-single-sei / no-hevc-aq / no-svt / no-field / qp-adaptation-range=1.00 / scenecut-aware-qp=0conformance-window-offsets / right=0 / bottom=0 / decoder-max-rate=0 / no-vbv-live-multi-pass / no-mcstf / no-sbrc
Язык : Английский
По умолчанию : Да
Принудительно : Нет

Аудио #1
Идентификатор : 2
Идентификатор в исходном носителе информ : 4352 (0x1100)
Формат : DTS XLL
Формат/Информация : Digital Theater Systems
Коммерческое название : DTS-HD Master Audio
Идентификатор кодека : A_DTS
Продолжительность : 2 ч. 8 мин.
Вид битрейта : Переменный
Битрейт : 4 763 Кбит/сек
Канал(-ы) : 6 каналов
Расположение каналов : C L R Ls Rs LFE
Частота дискретизации : 48,0 КГц
Частота кадров : 93,750 кадра/сек (512 SPF)
Битовая глубина : 24 бита
Метод сжатия : Без потерь
Размер потока : 4,26 Гбайт (28%)
Заголовок : DTS-HD Master Audio / 5.1 / 48 kHz / 4763 kbps / 24-bit
Язык : Немецкий
По умолчанию : Да
Принудительно : Нет
Носитель оригинала : Blu-ray

Аудио #2
Идентификатор : 3
Идентификатор в исходном носителе информ : 4353 (0x1101)
Формат : PCM
Настройки формата : Little / Signed
Идентификатор кодека : A_PCM/INT/LIT
Продолжительность : 2 ч. 8 мин.
Вид битрейта : Постоянный
Битрейт : 2 304 Кбит/сек
Канал(-ы) : 2 канала
Частота дискретизации : 48,0 КГц
Частота кадров : 30,000 кадров/сек (1600 SPF)
Битовая глубина : 24 бита
Размер потока : 2,06 Гбайт (13%)
Заголовок : LPCM Audio / 2.0 / 48 kHz / 2304 kbps / 24-bit
Язык : Немецкий
По умолчанию : Нет
Принудительно : Нет
Носитель оригинала : Blu-ray

Меню
00:00:00.000 : en:Intro
00:05:45.040 : en:Sonne
00:10:46.400 : en:Wollt Ihr Das Bett In Flammen Sehen
00:15:47.560 : en:Keine Lust
00:19:57.000 : en:Sehnsucht
00:24:21.960 : en:Asche Zu Asche
00:28:29.360 : en:Feuer Frei!
00:32:02.840 : en:Mutter
00:37:26.080 : en:Mein Teil
00:45:10.000 : en:Du Riechst So gut
00:50:38.480 : en:Links 2-3-4
00:55:41.520 : en:Du Hast
00:59:59.960 : en:Haifisch
01:06:57.560 : en:Bück Dich
01:14:52.400 : en:Mann Gegen Mann
01:19:07.840 : en:Ohne Dich
01:27:21.120 : en:Mein Herz Brennt
01:32:27.600 : en:Amerika
01:37:21.920 : en:Ich Will
01:41:26.160 : en:Engel
01:46:42.120 : en:Pussy
02:01:47.600 : en:Frühling In Paris
Загрузка...Cкриншот1 Rammstein: Paris (2017) BDRip 1080p [HEVC] 10 bit от OldGamer (RG RIPS CLUB)Загрузка...Cкриншот2 Rammstein: Paris (2017) BDRip 1080p [HEVC] 10 bit от OldGamer (RG RIPS CLUB)Загрузка...Cкриншот3 Rammstein: Paris (2017) BDRip 1080p [HEVC] 10 bit от OldGamer (RG RIPS CLUB)Загрузка...Cкриншот4 Rammstein: Paris (2017) BDRip 1080p [HEVC] 10 bit от OldGamer (RG RIPS CLUB)
Поблагодарили: 5han-nik, InSpector, Kiran, MIGRANT, Miss Exclusive 888
Файлы: 1
  • Rammstein.Paris.2007.BDRip-HEVC.1080p.mkv

Рейтинги КП и IMDB, кнопки "Раздайте, пожалуйста" и "Спасибо", а также мультитрекерная статистика доступны только зарегистрированным/авторизованным пользователям!

OldGamer
18079015.5 ГБ

💬︎ Комментарии

Добавление комментариев доступно только зарегистрированным/авторизованным пользователям.