Чат

⚫︎
Список изменений сайта - https://rips.club/changelog.html (обновлен 24.05.2024)
  • arwis
  • kisa1980
Онлайн (за 10 мин.): 2
  • Tastod: Раздайте, пожалуйста, Загадочная история Бенджамина Баттона / The Curious Case of Benjamin Button (2008) BDRip 1080p [HEVC] 10 bit от Spartanec1308
  • Гл. Админ: Исправил баг, когда после анонса коллекции все анонсы показывались в спойлере, даже если не являлись коллекцией.
  • Гл. Админ: Исправил баг, когда в ЛС не возможно было удалить сообщение.
  • bronsonw200: Гл. Админ, Как по мне, так смотрится приятнее.
  • Гл. Админ: В светлой теме задний фон сделал чуть потемнее, чтобы было не слишком ярко. В темной теме поисковую строку сделал черной (как в светлой теме), чтобы выделялась. Убрал рамки вокруг элементов форм. Прокрутку страницы в начало сделал плавной. ( отредактировано: )
  • Гл. Админ: В ближайшие дни по вечерам начну подправлять дизайн.
  • Гл. Админ: Готово.
  • Гл. Админ: Управление релизами закончил, но не буду выкладывать на ночь глядя. Утром протестирую на локальном компе, и днем выложу.
  • Гл. Админ: Фон баннера релиз-группы сделал прозрачным и перезалил на внешнем хостинге.
  • OldGamer: было бы неплохо
  • Гл. Админ: Управление релизами наверно сегодня закончу.
  • HANNIBAL: Сообщение удалено (удалил: HANNIBAL)
  • HANNIBAL: Гл. Админ, не привычно
  • Гл. Админ: HANNIBAL, хорошего или плохого?
  • HANNIBAL: эт чей-то вы тут натворили с сайтом ;)
  • Гл. Админ: ExoticDeer, просто в будущем будет несколько новостных строчек и они будут автоматически переключаться по кругу, поэтому не хочется статичную. Могу ещё уменьшить частоту, если всё равно будет отвлекать. ( отредактировано: )
  • Гл. Админ: ExoticDeer, уменьшил частоту мигания с 5 сек. до 10 сек.
  • ExoticDeer: Гл. Админ, про мигание, скорее отвлекает, особенно на тёмной теме. статичная хорошо смотрелась
  • Гл. Админ: Winsent, Исправил. Теперь, при просмотре комментариев конкретного пользователя, эта галочка не играет роли. Спасибо, что сообщили.
  • Гл. Админ: Winsent, сначала не поверил своим глазам. Это было оооочень странно. Но кажется теперь понял в чем проблема. Ошибка появляется, если в настройках не установлена галочка "Получать уведомления о всех комментариях". Причем у разных пользователей проявляется по разному - у кого-то ничего не показывается, а у кого-то показывается часть комментариев. Поэтому мне долго не удавалось воспроизвести ошибку. Сейчас исправлю.
Отправка сообщений доступна только зарегистрированным/авторизованным пользователям.

🎤︎Lovebites: Five Of A Kind (2020) [Live In Tokyo] BDRip 1080p [HEVC] 10 bit от OldGamer (RG RIPS CLUB)


Обложка Lovebites: Five Of A Kind (2020) [Live In Tokyo] BDRip 1080p [HEVC] 10 bit от OldGamer (RG RIPS CLUB)
HEVC
10 bit
✂︎Сэмпл⤓︎Торрент🧲︎Магнет$Пожертвования

При перезаливке на другие сайты просьба указать автора и релиз-группу.


Год: 2020
Страна: Япония
Жанр: Музыка
Длительность: 01:46:53

Состав:
Asami: Singer, Lead Vocals. Watanabe Miyako: Guitar, Piano, Backing Vocals. Tatematsu Midori: Guitar, Backing Vocals. Haruna: Drums, Backing Vocals. Miho: Bass, Backing Vocals.

Описание: Live at Zepp DiverCity Tokyo, Japan February 21, 2020


Треклист1 Thunder Vengeance
2 Holy War
3 Don't Bite The Dust
4 Rising
5 Raise Some Hell
6 Break The Wall
7 Shadowmaker
8 Piano Solo (Etude Op.10, No.12)
9 Swan Song
10 Addicted
11 Dancing With The Devil
12 Signs Of Deliverance
13 M.D.O.
14 Golden Destination
15 When Destinies Align
16 The Awakening
17 The Hammer Of Wrath
18 Edge Of The World
19 We The United


Релиз-группа: RIPS CLUB
Исходник: Blu-Ray Remux 1080p (rutracker)
Видео: 1920x1080, ~9473 Kbps
Аудио: PCM, 2 ch, 2304 Kbps - АнглийскийАнглийский
Субтитры: Отсутствуют

Лог (x265 info)x265 [info]: frame I: 646, Avg QP:17.07 kb/s: 19535.94
x265 [info]: frame P: 37618, Avg QP:18.50 kb/s: 15530.82
x265 [info]: frame B: 115504, Avg QP:20.82 kb/s: 7442.08
x265 [info]: Weighted P-Frames: Y:23.9% UV:21.8%
x265 [info]: Weighted B-Frames: Y:33.3% UV:28.3%
x265 [info]: encoded 153768 frames in 128472.25s (1.20 fps), 9471.73 kb/s, Avg QP:20.23
МедиаинфоОбщее
Уникальный идентификатор : 16529376114690903094458906980224056810 (0xC6F7129AC5567E5EF875CB6944BBDEA)
Полное имя : \\.\Lovebites.Five.Of.A.Kind.Live.In.Tokyo.BDRip-HEVC.1080p.mkv
Формат : Matroska
Версия формата : Version 4
Размер файла : 8,80 Гбайт
Продолжительность : 1 ч. 46 мин.
Общий битрейт : 11,8 Мбит/сек
Частота кадров : 23,976 кадра/сек
Название фильма : Lovebites.Five.Of.A.Kind.Live.In.Tokyo.BDRip-HEVC. / Lovebites.Five.Of.A.Kind.Live.In.Tokyo.BDRip-HEVC.
Кодирование выполнил : OldGamer
Тип содержимого : Music Video
Программа кодирования : mkvmerge v83.0 ('Circle Of Friends') 64-bit
Библиотека кодирования : libebml v1.4.5 + libmatroska v1.7.1 / xvid4psp5
Обложка : Yes
Attachments : cover.jpg

Видео
Идентификатор : 1
Формат : HEVC
Формат/Информация : High Efficiency Video Coding
Профиль формата : Main 10@L4.1@High
Идентификатор кодека : V_MPEGH/ISO/HEVC
Продолжительность : 1 ч. 46 мин.
Битрейт : 9 473 Кбит/сек
Ширина : 1 920 пикселей
Высота : 1 080 пикселей
Соотношение сторон дисплея : 16:9
Режим частоты кадров : Постоянный
Частота кадров : 23,976 (24000/1001) кадра/сек
Цветовое пространство : YUV
Цветовая субдискретизация : 4:2:0
Битовая глубина : 10 бит
Бит/(Пиксели*Кадры) : 0.191
Размер потока : 7,07 Гбайт (80%)
Заголовок : Lovebites - Five Of A Kind: Live In Tokyo / Rip by OldGamer
Библиотека кодирования : x265 3.5+110-8ee01d45b:[Windows][GCC 13.2.0][64 bit] 10bit
Параметры библиотеки кодирования : cpuid=1111039 / frame-threads=4 / numa-pools=16 / wpp / no-pmode / no-pme / no-psnr / no-ssim / log-level=2 / input-csp=1 / input-res=1920x1080 / interlace=0 / total-frames=153768 / level-idc=41 / high-tier=1 / uhd-bd=0 / ref=5 / no-allow-non-conformance / no-repeat-headers / annexb / no-aud / no-eob / no-eos / no-hrd / info / hash=0 / temporal-layers=0 / open-gop / min-keyint=23 / keyint=240 / gop-lookahead=0 / bframes=16 / b-adapt=2 / b-pyramid / bframe-bias=0 / rc-lookahead=40 / lookahead-slices=0 / scenecut=40 / no-hist-scenecut / radl=0 / no-splice / no-intra-refresh / ctu=32 / min-cu-size=8 / rect / amp / max-tu-size=32 / tu-inter-depth=4 / tu-intra-depth=4 / limit-tu=1 / rdoq-level=2 / dynamic-rd=0.00 / no-ssim-rd / signhide / no-tskip / nr-intra=0 / nr-inter=0 / no-constrained-intra / no-strong-intra-smoothing / max-merge=5 / limit-refs=3 / no-limit-modes / me=3 / subme=7 / merange=57 / temporal-mvp / no-frame-dup / no-hme / weightp / weightb / no-analyze-src-pics / deblock=-2:-2 / no-sao / no-sao-non-deblock / rd=6 / selective-sao=0 / no-early-skip / no-rskip / no-fast-intra / no-tskip-fast / no-cu-lossless / b-intra / no-splitrd-skip / rdpenalty=0 / psy-rd=2.00 / psy-rdoq=1.00 / no-rd-refine / no-lossless / cbqpoffs=0 / crqpoffs=0 / rc=crf / crf=21.7 / qcomp=0.75 / qpstep=4 / stats-write=0 / stats-read=0 / vbv-maxrate=50000 / vbv-bufsize=50000 / vbv-init=0.9 / min-vbv-fullness=50.0 / max-vbv-fullness=80.0 / crf-max=0.0 / crf-min=0.0 / ipratio=1.40 / pbratio=1.30 / aq-mode=3 / aq-strength=1.00 / no-cutree / zone-count=0 / no-strict-cbr / qg-size=32 / no-rc-grain / qpmax=69 / qpmin=0 / no-const-vbv / sar=1 / overscan=0 / videoformat=5 / range=0 / colorprim=2 / transfer=2 / colormatrix=2 / chromaloc=0 / display-window=0 / cll=0,0 / min-luma=0 / max-luma=1023 / log2-max-poc-lsb=8 / vui-timing-info / vui-hrd-info / slices=1 / no-opt-qp-pps / no-opt-ref-list-length-pps / no-multi-pass-opt-rps / scenecut-bias=0.00 / no-opt-cu-delta-qp / no-aq-motion / no-hdr10 / no-hdr10-opt / no-dhdr10-opt / no-idr-recovery-sei / analysis-reuse-level=0 / analysis-save-reuse-level=0 / analysis-load-reuse-level=0 / scale-factor=0 / refine-intra=0 / refine-inter=0 / refine-mv=1 / refine-ctu-distortion=0 / no-limit-sao / ctu-info=0 / no-lowpass-dct / refine-analysis-type=0 / copy-pic=1 / max-ausize-factor=1.0 / no-dynamic-refine / no-single-sei / no-hevc-aq / no-svt / no-field / qp-adaptation-range=1.00 / scenecut-aware-qp=0conformance-window-offsets / right=0 / bottom=0 / decoder-max-rate=0 / no-vbv-live-multi-pass / no-mcstf / no-sbrc
Язык : Японский
По умолчанию : Да
Принудительно : Нет

Аудио
Идентификатор : 2
Идентификатор в исходном носителе информ : 4352 (0x1100)
Формат : PCM
Настройки формата : Little / Signed
Идентификатор кодека : A_PCM/INT/LIT
Продолжительность : 1 ч. 46 мин.
Вид битрейта : Постоянный
Битрейт : 2 304 Кбит/сек
Канал(-ы) : 2 канала
Частота дискретизации : 48,0 КГц
Частота кадров : 30,000 кадров/сек (1600 SPF)
Битовая глубина : 24 бита
Размер потока : 1,72 Гбайт (20%)
Язык : Английский
По умолчанию : Да
Принудительно : Нет
Носитель оригинала : Blu-ray

Меню
00:00:00.000 : en:Thunder Vengeance
00:06:50.284 : en:Holy War
00:12:45.514 : en:Don't Bite The Dust
00:16:57.516 : en:Rising
00:23:44.256 : en:Raise Some Hell
00:29:10.123 : en:Break The Wall
00:34:50.505 : en:Shadowmaker
00:41:07.673 : en:Piano Solo (Etude Op.10, No.12)
00:42:36.971 : en:Swan Song
00:49:12.574 : en:Addicted
00:54:45.907 : en:Dancing With The Devil
01:00:01.014 : en:Signs Of Deliverance
01:06:12.677 : en:M.D.O.
01:10:33.020 : en:Golden Destination
01:17:04.286 : en:When Destinies Align
01:24:16.259 : en:The Awakening
01:26:26.806 : en:The Hammer Of Wrath
01:31:29.233 : en:Edge Of The World
01:38:54.053 : en:We The United
Загрузка...Cкриншот1 Lovebites: Five Of A Kind (2020) [Live In Tokyo] BDRip 1080p [HEVC] 10 bit от OldGamer (RG RIPS CLUB)Загрузка...Cкриншот2 Lovebites: Five Of A Kind (2020) [Live In Tokyo] BDRip 1080p [HEVC] 10 bit от OldGamer (RG RIPS CLUB)Загрузка...Cкриншот3 Lovebites: Five Of A Kind (2020) [Live In Tokyo] BDRip 1080p [HEVC] 10 bit от OldGamer (RG RIPS CLUB)Загрузка...Cкриншот4 Lovebites: Five Of A Kind (2020) [Live In Tokyo] BDRip 1080p [HEVC] 10 bit от OldGamer (RG RIPS CLUB)
Поблагодарили: 2InSpector, Miss Exclusive 888
Файлы: 1
  • Lovebites.Five.Of.A.Kind.Live.In.Tokyo.2020.BDRip-HEVC.1080p.mkv

Рейтинги КП и IMDB, кнопки "Раздайте, пожалуйста" и "Спасибо", а также мультитрекерная статистика доступны только зарегистрированным/авторизованным пользователям!

OldGamer
301908.8 ГБ

💬︎ Комментарии

Добавление комментариев доступно только зарегистрированным/авторизованным пользователям.