Чат

⚫︎
Список изменений сайта - https://rips.club/changelog.html (обновлен 24.05.2024)
  • arwis
  • Slava307
  • z1M4p9i0
Онлайн (за 10 мин.): 3
  • Tastod: Раздайте, пожалуйста, Загадочная история Бенджамина Баттона / The Curious Case of Benjamin Button (2008) BDRip 1080p [HEVC] 10 bit от Spartanec1308
  • Гл. Админ: Исправил баг, когда после анонса коллекции все анонсы показывались в спойлере, даже если не являлись коллекцией.
  • Гл. Админ: Исправил баг, когда в ЛС не возможно было удалить сообщение.
  • bronsonw200: Гл. Админ, Как по мне, так смотрится приятнее.
  • Гл. Админ: В светлой теме задний фон сделал чуть потемнее, чтобы было не слишком ярко. В темной теме поисковую строку сделал черной (как в светлой теме), чтобы выделялась. Убрал рамки вокруг элементов форм. Прокрутку страницы в начало сделал плавной. ( отредактировано: )
  • Гл. Админ: В ближайшие дни по вечерам начну подправлять дизайн.
  • Гл. Админ: Готово.
  • Гл. Админ: Управление релизами закончил, но не буду выкладывать на ночь глядя. Утром протестирую на локальном компе, и днем выложу.
  • Гл. Админ: Фон баннера релиз-группы сделал прозрачным и перезалил на внешнем хостинге.
  • OldGamer: было бы неплохо
  • Гл. Админ: Управление релизами наверно сегодня закончу.
  • HANNIBAL: Сообщение удалено (удалил: HANNIBAL)
  • HANNIBAL: Гл. Админ, не привычно
  • Гл. Админ: HANNIBAL, хорошего или плохого?
  • HANNIBAL: эт чей-то вы тут натворили с сайтом ;)
  • Гл. Админ: ExoticDeer, просто в будущем будет несколько новостных строчек и они будут автоматически переключаться по кругу, поэтому не хочется статичную. Могу ещё уменьшить частоту, если всё равно будет отвлекать. ( отредактировано: )
  • Гл. Админ: ExoticDeer, уменьшил частоту мигания с 5 сек. до 10 сек.
  • ExoticDeer: Гл. Админ, про мигание, скорее отвлекает, особенно на тёмной теме. статичная хорошо смотрелась
  • Гл. Админ: Winsent, Исправил. Теперь, при просмотре комментариев конкретного пользователя, эта галочка не играет роли. Спасибо, что сообщили.
  • Гл. Админ: Winsent, сначала не поверил своим глазам. Это было оооочень странно. Но кажется теперь понял в чем проблема. Ошибка появляется, если в настройках не установлена галочка "Получать уведомления о всех комментариях". Причем у разных пользователей проявляется по разному - у кого-то ничего не показывается, а у кого-то показывается часть комментариев. Поэтому мне долго не удавалось воспроизвести ошибку. Сейчас исправлю.
Отправка сообщений доступна только зарегистрированным/авторизованным пользователям.

🎥︎Бешеный бык / Raging Bull (1980) [30th Anniversary Edition] BDRip 1080p [HEVC] 10 bit от OldGamer (RG RIPS CLUB)


Обложка Бешеный бык / Raging Bull (1980) [30th Anniversary Edition] BDRip 1080p [HEVC] 10 bit от OldGamer (RG RIPS CLUB)
HEVC
10 bit
✂︎Сэмпл⤓︎Торрент🧲︎Магнет$Пожертвования

При перезаливке на другие сайты просьба указать автора и релиз-группу.


Год: 1980
Страна: США
Студия: Chartoff-Winkler Productions
Жанр: Драма, Биография, Спорт
Длительность: 02:09:02

Режиссер: Мартин Скорсезе
В ролях: Роберт Де Ниро, Кэти Мориарти, Джо Пеши, Фрэнк Винсент, Николас Коласанто, Тереса Сальдана, Марио Галло, Фрэнк Адонис, Джозеф Боно, Фрэнк Топхэм

Описание: Джейк ЛаМотта, получивший прозвище Бронксский Бык, - боксёр. И все его психологические и сексуальные комплексы яростно извергаются на боксёрском ринге. Под горячую руку ему попадается родной брат, ставший жертвой навязчивой паранойи и ревности Джейка, а также пятнадцатилетняя девочка, которой суждено было стать самой главной наградой Джейка... и преследующим его наваждением.


Релиз-группа: RIPS CLUB
Исходник: Blu-Ray Remux 1080p (rutracker)
Видео: 1920x1040, ~8478 Kbps
Аудио1: AC3, 6 ch, 640 Kbps - РусскийРусский, MVO
Аудио2: AC3, 2 ch, 192 Kbps - РусскийРусский, DVO (SDI Media)
Аудио3: AC3, 2 ch, 192 Kbps - РусскийРусский, DVO (НТВ+)
Аудио4: AC3, 2 ch, 192 Kbps - РусскийРусский, DVO (Союз)
Аудио5: AC3, 6 ch, 448 Kbps - РусскийРусский, AVO (Юрий Сербин)
Аудио6: AC3, 6 ch, 448 Kbps - РусскийРусский, AVO (Сергей Визгунов)
Аудио7: AC3, 2 ch, 192 Kbps - РусскийРусский, AVO (Михаил Иванов)
Аудио8: AC3, 6 ch, 448 Kbps - РусскийРусский, VO (Михаил Чадов)
Аудио9: AC3, 6 ch, 640 Kbps - АнглийскийАнглийский
Субтитры: русские, украинские, английские

Как за несколько секунд удалить ненужные аудиодорожки и субтитры (Внимание! После удаления вы не сможете поддержать раздачу)


Лог (x265 info)x265 [info]: frame I: 786, Avg QP:18.37 kb/s: 19925.48
x265 [info]: frame P: 33697, Avg QP:19.35 kb/s: 16639.04
x265 [info]: frame B: 151158, Avg QP:21.85 kb/s: 6597.91
x265 [info]: Weighted P-Frames: Y:11.3% UV:0.2%
x265 [info]: Weighted B-Frames: Y:5.1% UV:0.2%
x265 [info]: encoded 185641 frames in 170016.50s (1.09 fps), 8476.98 kb/s, Avg QP:21.38
МедиаинфоОбщее
Уникальный идентификатор : 208098880978666574152224657839177710163 (0x9C8E62F9FD2D041B56B138650451BA53)
Полное имя : \\.\Бешеный.бык.Raging.Bull.1980.30th.Anniversary.Edition.BDRip-HEVC.1080p.mkv
Формат : Matroska
Версия формата : Version 4
Размер файла : 10,7 Гбайт
Продолжительность : 2 ч. 9 мин.
Общий битрейт : 11,9 Мбит/сек
Частота кадров : 23,976 кадра/сек
Название фильма : Бешеный бык / Бешеный бык
Кодирование выполнил : OldGamer
Тип содержимого : Movie
Дата выпуска : 1980-11-14
Дата записи : 1980-11-14
Программа кодирования : mkvmerge v83.0 ('Circle Of Friends') 64-bit
Библиотека кодирования : libebml v1.4.5 + libmatroska v1.7.1 / xvid4psp5
Обложка : Yes
Attachments : cover.jpg
ACTOR : Robert De Niro, Cathy Moriarty, Joe Pesci, Frank Vincent, Nicholas Colasanto, Theresa Saldana, Mario Gallo, Frank Adonis, Joseph Bono, Frank Topham, Lori Anne Flax, Charles Scorsese, Don Dunphy, Bill Hanrahan, Rita Bennett, James V. Christy, Bernie A...
ARTIST : Robert De Niro, Cathy Moriarty, Joe Pesci, Frank Vincent, Nicholas Colasanto, Theresa Saldana, Mario Gallo, Frank Adonis, Joseph Bono, Frank Topham, Lori Anne Flax, Charles Scorsese, Don Dunphy, Bill Hanrahan, Rita Bennett, James V. Christy, Bernie A...
DIRECTOR : Martin Scorsese
GENRE : драма
LAW_RATING : R
PRODUCER : Robert Chartoff, Irwin Winkler
PRODUCTION_STUDIO : Chartoff-Winkler Productions
RATING : R
SCREENPLAY_BY : Paul Schrader, Mardik Martin
SYNOPSIS : Джейк ЛаМотта, получивший прозвище Бронксский Бык, — боксер. И все его психологические и сексуальные комплексы яростно извергаются на боксерском ринге. Под горячую руку ему попадается родной брат, ставший жертвой навязчивой паранойи и ревности Джейка, а также пятнадцатилетняя девочка, которой суждено было стать самой главной наградой Джейка… и преследующим его наваждением.
WRITTEN_BY : Paul Schrader, Mardik Martin

Видео
Идентификатор : 1
Формат : HEVC
Формат/Информация : High Efficiency Video Coding
Профиль формата : Main 10@L4.1@High
Идентификатор кодека : V_MPEGH/ISO/HEVC
Продолжительность : 2 ч. 9 мин.
Битрейт : 8 478 Кбит/сек
Ширина : 1 920 пикселей
Высота : 1 040 пикселей
Соотношение сторон дисплея : 1,85:1
Режим частоты кадров : Постоянный
Частота кадров : 23,976 (24000/1001) кадра/сек
Цветовое пространство : YUV
Цветовая субдискретизация : 4:2:0
Битовая глубина : 10 бит
Бит/(Пиксели*Кадры) : 0.177
Размер потока : 7,64 Гбайт (71%)
Заголовок : Raging Bull / Rip by OldGamer
Библиотека кодирования : x265 3.5+110-8ee01d45b:[Windows][GCC 13.2.0][64 bit] 10bit
Параметры библиотеки кодирования : cpuid=1111039 / frame-threads=3 / numa-pools=8 / wpp / no-pmode / no-pme / no-psnr / no-ssim / log-level=2 / input-csp=1 / input-res=1920x1040 / interlace=0 / total-frames=185641 / level-idc=41 / high-tier=1 / uhd-bd=0 / ref=5 / no-allow-non-conformance / no-repeat-headers / annexb / no-aud / no-eob / no-eos / no-hrd / info / hash=0 / temporal-layers=0 / open-gop / min-keyint=23 / keyint=240 / gop-lookahead=0 / bframes=16 / b-adapt=2 / b-pyramid / bframe-bias=0 / rc-lookahead=60 / lookahead-slices=0 / scenecut=40 / no-hist-scenecut / radl=0 / no-splice / no-intra-refresh / ctu=32 / min-cu-size=8 / rect / amp / max-tu-size=32 / tu-inter-depth=4 / tu-intra-depth=4 / limit-tu=1 / rdoq-level=2 / dynamic-rd=0.00 / no-ssim-rd / signhide / no-tskip / nr-intra=0 / nr-inter=0 / no-constrained-intra / no-strong-intra-smoothing / max-merge=5 / limit-refs=3 / no-limit-modes / me=3 / subme=7 / merange=57 / temporal-mvp / no-frame-dup / no-hme / weightp / weightb / no-analyze-src-pics / deblock=-2:-2 / no-sao / no-sao-non-deblock / rd=6 / selective-sao=0 / no-early-skip / no-rskip / no-fast-intra / no-tskip-fast / no-cu-lossless / b-intra / no-splitrd-skip / rdpenalty=0 / psy-rd=2.00 / psy-rdoq=1.00 / no-rd-refine / no-lossless / cbqpoffs=0 / crqpoffs=0 / rc=crf / crf=19.7 / qcomp=0.60 / qpstep=4 / stats-write=0 / stats-read=0 / vbv-maxrate=50000 / vbv-bufsize=50000 / vbv-init=0.9 / min-vbv-fullness=50.0 / max-vbv-fullness=80.0 / crf-max=0.0 / crf-min=0.0 / ipratio=1.40 / pbratio=1.30 / aq-mode=2 / aq-strength=1.00 / no-cutree / zone-count=1 / zones: / start-frame=178201 / end-frame=185641 / qp=36 / no-strict-cbr / qg-size=32 / no-rc-grain / qpmax=69 / qpmin=0 / no-const-vbv / sar=1 / overscan=0 / videoformat=5 / range=0 / colorprim=2 / transfer=2 / colormatrix=2 / chromaloc=0 / display-window=0 / cll=0,0 / min-luma=0 / max-luma=1023 / log2-max-poc-lsb=8 / vui-timing-info / vui-hrd-info / slices=1 / no-opt-qp-pps / no-opt-ref-list-length-pps / no-multi-pass-opt-rps / scenecut-bias=0.00 / no-opt-cu-delta-qp / no-aq-motion / no-hdr10 / no-hdr10-opt / no-dhdr10-opt / no-idr-recovery-sei / analysis-reuse-level=0 / analysis-save-reuse-level=0 / analysis-load-reuse-level=0 / scale-factor=0 / refine-intra=0 / refine-inter=0 / refine-mv=1 / refine-ctu-distortion=0 / no-limit-sao / ctu-info=0 / no-lowpass-dct / refine-analysis-type=0 / copy-pic=1 / max-ausize-factor=1.0 / no-dynamic-refine / no-single-sei / no-hevc-aq / no-svt / no-field / qp-adaptation-range=1.00 / scenecut-aware-qp=0conformance-window-offsets / right=0 / bottom=0 / decoder-max-rate=0 / no-vbv-live-multi-pass / no-mcstf / no-sbrc
Язык : Английский
По умолчанию : Да
Принудительно : Нет

Аудио #1
Идентификатор : 2
Формат : AC-3
Формат/Информация : Audio Coding 3
Коммерческое название : Dolby Digital
Идентификатор кодека : A_AC3
Продолжительность : 2 ч. 9 мин.
Вид битрейта : Постоянный
Битрейт : 640 Кбит/сек
Канал(-ы) : 6 каналов
Расположение каналов : L R C LFE Ls Rs
Частота дискретизации : 48,0 КГц
Частота кадров : 31,250 кадров/сек (1536 SPF)
Метод сжатия : С потерями
Размер потока : 591 Мбайт (5%)
Заголовок : MVO
Язык : Русский
Вид сервиса : Complete Main
По умолчанию : Да
Принудительно : Нет
AC3_metadata cmixlev : -3.0 dB
surmixlev : -3 dB

Аудио #2
Идентификатор : 3
Формат : AC-3
Формат/Информация : Audio Coding 3
Коммерческое название : Dolby Digital
Идентификатор кодека : A_AC3
Продолжительность : 2 ч. 9 мин.
Вид битрейта : Постоянный
Битрейт : 192 Кбит/сек
Канал(-ы) : 2 канала
Расположение каналов : L R
Частота дискретизации : 48,0 КГц
Частота кадров : 31,250 кадров/сек (1536 SPF)
Метод сжатия : С потерями
Размер потока : 177 Мбайт (2%)
Заголовок : DVO (SDI Media)
Язык : Русский
Вид сервиса : Complete Main
По умолчанию : Нет
Принудительно : Нет

Аудио #3
Идентификатор : 4
Формат : AC-3
Формат/Информация : Audio Coding 3
Коммерческое название : Dolby Digital
Идентификатор кодека : A_AC3
Продолжительность : 2 ч. 9 мин.
Вид битрейта : Постоянный
Битрейт : 192 Кбит/сек
Канал(-ы) : 2 канала
Расположение каналов : L R
Частота дискретизации : 48,0 КГц
Частота кадров : 31,250 кадров/сек (1536 SPF)
Метод сжатия : С потерями
Размер потока : 177 Мбайт (2%)
Заголовок : DVO (НТВ+)
Язык : Русский
Вид сервиса : Complete Main
По умолчанию : Нет
Принудительно : Нет

Аудио #4
Идентификатор : 5
Формат : AC-3
Формат/Информация : Audio Coding 3
Коммерческое название : Dolby Digital
Идентификатор кодека : A_AC3
Продолжительность : 2 ч. 9 мин.
Вид битрейта : Постоянный
Битрейт : 192 Кбит/сек
Канал(-ы) : 2 канала
Расположение каналов : L R
Частота дискретизации : 48,0 КГц
Частота кадров : 31,250 кадров/сек (1536 SPF)
Метод сжатия : С потерями
Размер потока : 177 Мбайт (2%)
Заголовок : DVO (Союз)
Язык : Русский
Вид сервиса : Complete Main
По умолчанию : Нет
Принудительно : Нет

Аудио #5
Идентификатор : 6
Формат : AC-3
Формат/Информация : Audio Coding 3
Коммерческое название : Dolby Digital
Идентификатор кодека : A_AC3
Продолжительность : 2 ч. 9 мин.
Вид битрейта : Постоянный
Битрейт : 448 Кбит/сек
Канал(-ы) : 6 каналов
Расположение каналов : L R C LFE Ls Rs
Частота дискретизации : 48,0 КГц
Частота кадров : 31,250 кадров/сек (1536 SPF)
Метод сжатия : С потерями
Размер потока : 414 Мбайт (4%)
Заголовок : AVO (Юрий Сербин)
Язык : Русский
Вид сервиса : Complete Main
По умолчанию : Нет
Принудительно : Нет
AC3_metadata cmixlev : -3.0 dB
surmixlev : -3 dB

Аудио #6
Идентификатор : 7
Формат : AC-3
Формат/Информация : Audio Coding 3
Коммерческое название : Dolby Digital
Идентификатор кодека : A_AC3
Продолжительность : 2 ч. 9 мин.
Вид битрейта : Постоянный
Битрейт : 448 Кбит/сек
Канал(-ы) : 6 каналов
Расположение каналов : L R C LFE Ls Rs
Частота дискретизации : 48,0 КГц
Частота кадров : 31,250 кадров/сек (1536 SPF)
Метод сжатия : С потерями
Размер потока : 414 Мбайт (4%)
Заголовок : AVO (Сергей Визгунов)
Язык : Русский
Вид сервиса : Complete Main
По умолчанию : Нет
Принудительно : Нет
AC3_metadata cmixlev : -3.0 dB
surmixlev : -3 dB

Аудио #7
Идентификатор : 8
Формат : AC-3
Формат/Информация : Audio Coding 3
Коммерческое название : Dolby Digital
Идентификатор кодека : A_AC3
Продолжительность : 2 ч. 7 мин.
Вид битрейта : Постоянный
Битрейт : 192 Кбит/сек
Канал(-ы) : 2 канала
Расположение каналов : L R
Частота дискретизации : 48,0 КГц
Частота кадров : 31,250 кадров/сек (1536 SPF)
Метод сжатия : С потерями
Размер потока : 175 Мбайт (2%)
Заголовок : AVO (Михаил Иванов)
Язык : Русский
Вид сервиса : Complete Main
По умолчанию : Нет
Принудительно : Нет

Аудио #8
Идентификатор : 9
Формат : AC-3
Формат/Информация : Audio Coding 3
Коммерческое название : Dolby Digital
Идентификатор кодека : A_AC3
Продолжительность : 2 ч. 9 мин.
Вид битрейта : Постоянный
Битрейт : 448 Кбит/сек
Канал(-ы) : 6 каналов
Расположение каналов : L R C LFE Ls Rs
Частота дискретизации : 48,0 КГц
Частота кадров : 31,250 кадров/сек (1536 SPF)
Метод сжатия : С потерями
Размер потока : 414 Мбайт (4%)
Заголовок : VO (Михаил Чадов)
Язык : Русский
Вид сервиса : Complete Main
По умолчанию : Нет
Принудительно : Нет
AC3_metadata cmixlev : -3.0 dB
surmixlev : -3 dB

Аудио #9
Идентификатор : 10
Формат : AC-3
Формат/Информация : Audio Coding 3
Коммерческое название : Dolby Digital
Идентификатор кодека : A_AC3
Продолжительность : 2 ч. 9 мин.
Вид битрейта : Постоянный
Битрейт : 640 Кбит/сек
Канал(-ы) : 6 каналов
Расположение каналов : L R C LFE Ls Rs
Частота дискретизации : 48,0 КГц
Частота кадров : 31,250 кадров/сек (1536 SPF)
Метод сжатия : С потерями
Размер потока : 591 Мбайт (5%)
Язык : Английский
Вид сервиса : Complete Main
По умолчанию : Нет
Принудительно : Нет
AC3_metadata cmixlev : -3.0 dB
surmixlev : -3 dB

Текст #1
Идентификатор : 11
Формат : UTF-8
Идентификатор кодека : S_TEXT/UTF8
Идентификатор кодека/Информация : UTF-8 Plain Text
Продолжительность : 2 ч. 4 мин.
Битрейт : 73 бит/сек
Частота кадров : 0,170 кадр/сек
Число элементов : 1272
Размер потока : 66,8 КиБ (0%)
Язык : Русский
По умолчанию : Нет
Принудительно : Нет

Текст #2
Идентификатор : 12
Формат : UTF-8
Идентификатор кодека : S_TEXT/UTF8
Идентификатор кодека/Информация : UTF-8 Plain Text
Продолжительность : 2 ч. 4 мин.
Битрейт : 71 бит/сек
Частота кадров : 0,170 кадр/сек
Число элементов : 1271
Размер потока : 65,6 КиБ (0%)
Язык : Украинский
По умолчанию : Нет
Принудительно : Нет

Текст #3
Идентификатор : 13
Формат : UTF-8
Идентификатор кодека : S_TEXT/UTF8
Идентификатор кодека/Информация : UTF-8 Plain Text
Продолжительность : 2 ч. 0 мин.
Битрейт : 80 бит/сек
Частота кадров : 0,252 кадр/сек
Число элементов : 1828
Размер потока : 71,5 КиБ (0%)
Язык : Английский
По умолчанию : Нет
Принудительно : Нет

Меню
00:00:00.000 : en:Main Title
00:02:51.629 : en:1964: That's Entertainment
00:04:04.285 : en:1941: Pounding Reeves
00:07:39.959 : en:A Talk with the Animal
00:11:25.518 : en:"Hit Me in the Face"
00:15:03.152 : en:Unwelcome Spectators
00:17:13.240 : en:Vickie By the Pool
00:24:05.569 : en:A Date with the Champ
00:26:53.737 : en:Sitting a Little Closer
00:31:22.714 : en:1943: Sugar Ray Robinson
00:33:18.454 : en:Kissing It Better
00:38:02.863 : en:1943: Robinson for the 3
00:41:15.723 : en:Fights and Home Movies
00:43:50.210 : en:1947: A Win-Win Plan
00:49:28.215 : en:Watchful Eye on Vickie
00:57:00.375 : en:Janiro - Pretty No More
00:59:02.580 : en:"Nothing Goin; on?"
01:03:00.485 : en:A Lack of Respect
01:06:26.190 : en:"I Just Wanna Catch Her"
01:09:13.566 : en:1947: Going Down for Fox
01:13:39.415 : en:1949: Slapped in the Face
01:18:20.654 : en:Attack on Cerdan
01:22:04.836 : en:1950: A Crazy Question
01:28:29.387 : en:Fat Pig Selfish Fool
01:33:52.585 : en:Dauthuille: The Comeback
01:37:06.278 : en:Last Time with Sugar Ray
01:41:33.045 : en:1956: Happy and Retired
01:42:51.415 : en:Raging Entertainer
01:48:16.990 : en:"I'm Leaving You, Jake"
01:50:30.749 : en:Not a 14-Year-Old
01:52:07.804 : en:$10,000 From the Belt
01:53:57.622 : en:1957: Fist on Concrete
01:57:05.852 : en:1958: A Joke for a Drink
01:58:56.754 : en:No Friend in Joey
02:01:01.629 : en:Coulda Been a Contender
02:03:56.429 : en:"Now I Can See""/Credits
Загрузка...Cкриншот1 Бешеный бык / Raging Bull (1980) [30th Anniversary Edition] BDRip 1080p [HEVC] 10 bit от OldGamer (RG RIPS CLUB)Загрузка...Cкриншот2 Бешеный бык / Raging Bull (1980) [30th Anniversary Edition] BDRip 1080p [HEVC] 10 bit от OldGamer (RG RIPS CLUB)Загрузка...Cкриншот3 Бешеный бык / Raging Bull (1980) [30th Anniversary Edition] BDRip 1080p [HEVC] 10 bit от OldGamer (RG RIPS CLUB)Загрузка...Cкриншот4 Бешеный бык / Raging Bull (1980) [30th Anniversary Edition] BDRip 1080p [HEVC] 10 bit от OldGamer (RG RIPS CLUB)
Поблагодарили: 5and50, AndresUA, Miss Exclusive 888, Niflung, sharkey71
Файлы: 1
  • Бешеный.бык.Raging.Bull.1980.30th.Anniversary.Edition.BDRip-HEVC.1080p.mkv

Рейтинги КП и IMDB, кнопки "Раздайте, пожалуйста" и "Спасибо", а также мультитрекерная статистика доступны только зарегистрированным/авторизованным пользователям!

OldGamer
103106410.7 ГБ

💬︎ Комментарии

Добавление комментариев доступно только зарегистрированным/авторизованным пользователям.

Всего: 4
Аватар OldGamer
OldGamer
Niflung писал(а):
Все, теперь семпл с русскими дорожками. Видимо, перезалили.
Нет, ничего не делал
Аватар не указан
Niflung
Все, теперь семпл с русскими дорожками. Видимо, перезалили.
Аватар OldGamer
OldGamer
Niflung писал(а):
У вас семпл без русских дорожек...
ой ли?
Аватар не указан
Niflung
У вас семпл без русских дорожек...