Чат

⚫︎
Список изменений сайта - https://rips.club/changelog.html (обновлен 24.05.2024)
  • arwis
  • Roman1312
  • Slava307
  • z1M4p9i0
Онлайн (за 10 мин.): 4
  • Tastod: Раздайте, пожалуйста, Загадочная история Бенджамина Баттона / The Curious Case of Benjamin Button (2008) BDRip 1080p [HEVC] 10 bit от Spartanec1308
  • Гл. Админ: Исправил баг, когда после анонса коллекции все анонсы показывались в спойлере, даже если не являлись коллекцией.
  • Гл. Админ: Исправил баг, когда в ЛС не возможно было удалить сообщение.
  • bronsonw200: Гл. Админ, Как по мне, так смотрится приятнее.
  • Гл. Админ: В светлой теме задний фон сделал чуть потемнее, чтобы было не слишком ярко. В темной теме поисковую строку сделал черной (как в светлой теме), чтобы выделялась. Убрал рамки вокруг элементов форм. Прокрутку страницы в начало сделал плавной. ( отредактировано: )
  • Гл. Админ: В ближайшие дни по вечерам начну подправлять дизайн.
  • Гл. Админ: Готово.
  • Гл. Админ: Управление релизами закончил, но не буду выкладывать на ночь глядя. Утром протестирую на локальном компе, и днем выложу.
  • Гл. Админ: Фон баннера релиз-группы сделал прозрачным и перезалил на внешнем хостинге.
  • OldGamer: было бы неплохо
  • Гл. Админ: Управление релизами наверно сегодня закончу.
  • HANNIBAL: Сообщение удалено (удалил: HANNIBAL)
  • HANNIBAL: Гл. Админ, не привычно
  • Гл. Админ: HANNIBAL, хорошего или плохого?
  • HANNIBAL: эт чей-то вы тут натворили с сайтом ;)
  • Гл. Админ: ExoticDeer, просто в будущем будет несколько новостных строчек и они будут автоматически переключаться по кругу, поэтому не хочется статичную. Могу ещё уменьшить частоту, если всё равно будет отвлекать. ( отредактировано: )
  • Гл. Админ: ExoticDeer, уменьшил частоту мигания с 5 сек. до 10 сек.
  • ExoticDeer: Гл. Админ, про мигание, скорее отвлекает, особенно на тёмной теме. статичная хорошо смотрелась
  • Гл. Админ: Winsent, Исправил. Теперь, при просмотре комментариев конкретного пользователя, эта галочка не играет роли. Спасибо, что сообщили.
  • Гл. Админ: Winsent, сначала не поверил своим глазам. Это было оооочень странно. Но кажется теперь понял в чем проблема. Ошибка появляется, если в настройках не установлена галочка "Получать уведомления о всех комментариях". Причем у разных пользователей проявляется по разному - у кого-то ничего не показывается, а у кого-то показывается часть комментариев. Поэтому мне долго не удавалось воспроизвести ошибку. Сейчас исправлю.
Отправка сообщений доступна только зарегистрированным/авторизованным пользователям.

🎥︎Правдивая ложь / True Lies (1994) [Remastered | CAN Transfer] BDRip 1080p [HEVC] 10 bit от OldGamer (RG RIPS CLUB)


Обложка Правдивая ложь / True Lies (1994) [Remastered | CAN Transfer] BDRip 1080p [HEVC] 10 bit от OldGamer (RG RIPS CLUB)
HEVC
10 bit
✂︎Сэмпл⤓︎Торрент🧲︎Магнет$Пожертвования

При перезаливке на другие сайты просьба указать автора и релиз-группу.


Год: 1994
Страна: США
Студия: 20th Century Fox Film Corporation, Lightstorm Entertainment
Жанр: Боевик, Триллер, Комедия
Длительность: 02:20:48

Режиссер: Джеймс Кэмерон
В ролях: Арнольд Шварценеггер, Джейми Ли Кёртис, Том Арнольд, Арт Малик, Билл Пэкстон, Тиа Каррере, Элиза Душку, Грант Хеслов, Чарлтон Хестон, Маршалл Манеш

Описание: Для своей семьи Гарри Таскер - любящий муж и отец, человек скромный и рассеянный, обыкновенный продавец компьютеров, «не вылезающий» с работы ни днём, ни ночью. Но лишь немногие знают, что на самом деле Гарри - специальный агент тайной правительственной службы, специализирующийся на особо опасных заданиях, владеющий кучей языков, всеми видами оружия и всеми возможными способами «отправки» злодеев на тот свет. Агент Таскер и дальше продолжал бы вести двойную жизнь, если бы зловещие арабские террористы не похитили Гарри, а вместе с ним и его ничего не подозревающую жену Хэлен. Но бандиты, к своему несчастью, даже не подозревали, с кем связались. И Хэлен узнала, что муж её совсем не компьютерщик, и что она пятнадцать лет прожила с человеком, рядом с которым мускулистый Рэмбо выглядит ребенком…


Релиз-группа: RIPS CLUB
Исходник: True.Lies.1994.Ultimate.Collectors.Edition.1080p.CAN.Blu-ray.AVC.DTS-HD.MA.5.1-TMT
Видео: 1920x804, ~11.5 Mbps
Аудио1: AC3, 2 ch, 256 Kbps - РусскийРусский, DUB (Ист-Вест)
Аудио2: AC3, 6 ch, 640 Kbps - РусскийРусский, MVO (TVShows)
Аудио3: AC3, 6 ch, 640 Kbps - РусскийРусский, MVO (Jaskier)
Аудио4: AC3, 6 ch, 448 Kbps - РусскийРусский, MVO (FDV / Киномания / Супербит)
Аудио5: AC3, 6 ch, 384 Kbps - РусскийРусский, MVO (Lizard Cinema Trade / 20 век Фокс СНГ)
Аудио6: AC3, 6 ch, 384 Kbps - РусскийРусский, MVO (Карусель)
Аудио7: AC3, 2 ch, 256 Kbps - РусскийРусский, MVO (ТК Россия)
Аудио8: AC3, 2 ch, 256 Kbps - РусскийРусский, MVO (СТС)
Аудио9: AC3, 6 ch, 448 Kbps - РусскийРусский, DVO (НТВ+)
Аудио10: AC3, 2 ch, 256 Kbps - РусскийРусский, DVO (Премьер Мультимедиа)
Аудио11: E-AC3, 6 ch, 1024 Kbps - РусскийРусский, AVO ("Диктор компании C.D.V.")
Аудио12: AC3, 6 ch, 640 Kbps - РусскийРусский, AVO (Андрей Гаврилов)
Аудио13: AC3, 6 ch, 640 Kbps - РусскийРусский, AVO (Василий Горчаков)
Аудио14: AC3, 6 ch, 640 Kbps - РусскийРусский, AVO (Юрий Живов)
Аудио15: AC3, 6 ch, 640 Kbps - РусскийРусский, AVO (Юрий Сербин)
Аудио16: AC3, 2 ch, 256 Kbps - РусскийРусский, AVO (Максим Латышев / Егор Хрусталёв)
Аудио17: AC3, 2 ch, 256 Kbps - РусскийРусский, AVO (Антон Пронин / "Мямля")
Аудио18: E-AC3, 6 ch, 1024 Kbps - РусскийРусский, VO (Сергей Охотников / "Pr0peLLer")
Аудио19: AC3, 6 ch, 640 Kbps - РусскийРусский, VO (Владимир Завгородний)
Аудио20: E-AC3, 2 ch, 1024 Kbps - РусскийРусский, VO (Неизвестный #1)
Аудио21: E-AC3, 2 ch, 768 Kbps - РусскийРусский, VO (Неизвестный #2)
Аудио22: AC3, 2 ch, 192 Kbps - УкраинскийУкраинский, MVO (Канал "Україна")
Аудио23: AC3, 2 ch, 192 Kbps - УкраинскийУкраинский, MVO (Новий канал)
Аудио24: AC3, 2 ch, 192 Kbps - УкраинскийУкраинский, DVO (2+2 / 1+1)
Аудио25: AC3, 6 ch, 640 Kbps - АнглийскийАнглийский
Субтитры: русские (full, SDH), украинские, английские (forced, full, SDH)

Как за несколько секунд удалить ненужные аудиодорожки и субтитры (Внимание! После удаления вы не сможете поддержать раздачу)


Лог (x265 info)x265 [info]: frame I: 852, Avg QP:17.40 kb/s: 22497.39
x265 [info]: frame P: 40690, Avg QP:18.61 kb/s: 16955.92
x265 [info]: frame B: 161030, Avg QP:20.68 kb/s: 10103.45
x265 [info]: Weighted P-Frames: Y:7.2% UV:5.9%
x265 [info]: Weighted B-Frames: Y:10.3% UV:7.3%
x265 [info]: encoded 202572 frames in 162312.64s (1.25 fps), 11532.01 kb/s, Avg QP:20.25
МедиаинфоОбщее
Уникальный идентификатор : 48040006650930491317124151977199740786 (0x24242B3222B835154A974C7E78DB2772)
Полное имя : \\.\Правдивая.ложь.True.Lies.1994.Remastered.CAN.Transfer.BDRip-HEVC.1080p.mkv
Формат : Matroska
Версия формата : Version 4
Размер файла : 23,9 Гбайт
Продолжительность : 2 ч. 20 мин.
Общий битрейт : 24,3 Мбит/сек
Частота кадров : 23,976 кадра/сек
Название фильма : Правдивая ложь
Кодирование выполнил : OldGamer
Тип содержимого : Movie
Описание : Когда он сказал, что я знаю, он никогда не говорил, что он сделал.
Дата выпуска : 1994-07-15
Дата записи : 1994-07-15
Дата кодирования : 2024-04-09 14:07:24 UTC
Программа кодирования : mkvmerge v83.0 ('Circle Of Friends') 64-bit
Библиотека кодирования : libebml v1.4.5 + libmatroska v1.7.1 / xvid4psp5
Обложка : Yes
Attachments : cover.jpg
ACTOR : Arnold Schwarzenegger, Jamie Lee Curtis, Tom Arnold, Bill Paxton, Tia Carrere, Art Malik, Eliza Dushku, Grant Heslov, Charlton Heston, Marshall Manesh, James Allen, Dieter Rauter, Jane Morris, Katsy Chappell, Crystina Wyler, Ofer Samra, Paul Barselou...
ARTIST : Arnold Schwarzenegger, Jamie Lee Curtis, Tom Arnold, Bill Paxton, Tia Carrere, Art Malik, Eliza Dushku, Grant Heslov, Charlton Heston, Marshall Manesh, James Allen, Dieter Rauter, Jane Morris, Katsy Chappell, Crystina Wyler, Ofer Samra, Paul Barselou...
DIRECTOR : James Cameron
GENRE : боевик, триллер
LAW_RATING : R
PRODUCER : Stephanie Austin, James Cameron
PRODUCTION_STUDIO : Lightstorm Entertainment
RATING : R
SCREENPLAY_BY : James Cameron, Didier Kaminka, Simon Michaël, Claude Zidi
SUMMARY : Когда он сказал, что я знаю, он никогда не говорил, что он сделал.
SYNOPSIS : Для своей семьи Гарри Таскер — любящий муж и отец, человек скромный и рассеянный, обыкновенный продавец компьютеров, «не вылезающий» с работы ни днем, ни ночью. Но лишь немногие знают, что на самом деле Гарри — специальный агент тайной правительственной службы, специализирующийся на особо опасных заданиях, владеющий кучей языков, всеми видами оружия и всеми возможными способами «отправки» злодеев на тот свет.
WRITTEN_BY : James Cameron, Didier Kaminka, Simon Michaël, Claude Zidi

Видео
Идентификатор : 1
Формат : HEVC
Формат/Информация : High Efficiency Video Coding
Профиль формата : Main 10@L4.1@High
Идентификатор кодека : V_MPEGH/ISO/HEVC
Продолжительность : 2 ч. 20 мин.
Битрейт : 11,5 Мбит/сек
Ширина : 1 920 пикселей
Высота : 804 пикселя
Соотношение сторон дисплея : 2,39:1
Режим частоты кадров : Постоянный
Частота кадров : 23,976 (24000/1001) кадра/сек
Цветовое пространство : YUV
Цветовая субдискретизация : 4:2:0
Битовая глубина : 10 бит
Бит/(Пиксели*Кадры) : 0.312
Размер потока : 11,3 Гбайт (48%)
Заголовок : True Lies / Rip by OldGamer
Библиотека кодирования : x265 3.5+110-8ee01d45b:[Windows][GCC 13.2.0][64 bit] 10bit
Параметры библиотеки кодирования : cpuid=1111039 / frame-threads=3 / numa-pools=8 / wpp / no-pmode / no-pme / no-psnr / no-ssim / log-level=2 / input-csp=1 / input-res=1920x804 / interlace=0 / total-frames=202572 / level-idc=41 / high-tier=1 / uhd-bd=0 / ref=5 / no-allow-non-conformance / no-repeat-headers / annexb / no-aud / no-eob / no-eos / no-hrd / info / hash=0 / temporal-layers=0 / open-gop / min-keyint=23 / keyint=240 / gop-lookahead=0 / bframes=16 / b-adapt=2 / b-pyramid / bframe-bias=0 / rc-lookahead=60 / lookahead-slices=0 / scenecut=40 / no-hist-scenecut / radl=0 / no-splice / no-intra-refresh / ctu=32 / min-cu-size=8 / rect / amp / max-tu-size=32 / tu-inter-depth=4 / tu-intra-depth=4 / limit-tu=1 / rdoq-level=2 / dynamic-rd=0.00 / no-ssim-rd / signhide / no-tskip / nr-intra=0 / nr-inter=0 / no-constrained-intra / no-strong-intra-smoothing / max-merge=5 / limit-refs=3 / no-limit-modes / me=3 / subme=7 / merange=57 / temporal-mvp / no-frame-dup / no-hme / weightp / weightb / no-analyze-src-pics / deblock=-2:-2 / no-sao / no-sao-non-deblock / rd=6 / selective-sao=0 / no-early-skip / no-rskip / no-fast-intra / no-tskip-fast / no-cu-lossless / b-intra / no-splitrd-skip / rdpenalty=0 / psy-rd=2.00 / psy-rdoq=1.00 / no-rd-refine / no-lossless / cbqpoffs=0 / crqpoffs=0 / rc=crf / crf=19.5 / qcomp=0.75 / qpstep=4 / stats-write=0 / stats-read=0 / vbv-maxrate=50000 / vbv-bufsize=50000 / vbv-init=0.9 / min-vbv-fullness=50.0 / max-vbv-fullness=80.0 / crf-max=0.0 / crf-min=0.0 / ipratio=1.40 / pbratio=1.30 / aq-mode=1 / aq-strength=1.00 / no-cutree / zone-count=1 / zones: / start-frame=198179 / end-frame=202572 / qp=36 / no-strict-cbr / qg-size=32 / no-rc-grain / qpmax=69 / qpmin=0 / no-const-vbv / sar=1 / overscan=0 / videoformat=5 / range=0 / colorprim=2 / transfer=2 / colormatrix=2 / chromaloc=0 / display-window=0 / cll=0,0 / min-luma=0 / max-luma=1023 / log2-max-poc-lsb=8 / vui-timing-info / vui-hrd-info / slices=1 / no-opt-qp-pps / no-opt-ref-list-length-pps / no-multi-pass-opt-rps / scenecut-bias=0.00 / no-opt-cu-delta-qp / no-aq-motion / no-hdr10 / no-hdr10-opt / no-dhdr10-opt / no-idr-recovery-sei / analysis-reuse-level=0 / analysis-save-reuse-level=0 / analysis-load-reuse-level=0 / scale-factor=0 / refine-intra=0 / refine-inter=0 / refine-mv=1 / refine-ctu-distortion=0 / no-limit-sao / ctu-info=0 / no-lowpass-dct / refine-analysis-type=0 / copy-pic=1 / max-ausize-factor=1.0 / no-dynamic-refine / no-single-sei / no-hevc-aq / no-svt / no-field / qp-adaptation-range=1.00 / scenecut-aware-qp=0conformance-window-offsets / right=0 / bottom=0 / decoder-max-rate=0 / no-vbv-live-multi-pass / no-mcstf / no-sbrc
Язык : Английский
По умолчанию : Да
Принудительно : Нет

Аудио #1
Идентификатор : 2
Формат : AC-3
Формат/Информация : Audio Coding 3
Коммерческое название : Dolby Digital
Идентификатор кодека : A_AC3
Продолжительность : 2 ч. 20 мин.
Вид битрейта : Постоянный
Битрейт : 256 Кбит/сек
Канал(-ы) : 2 канала
Расположение каналов : L R
Частота дискретизации : 48,0 КГц
Частота кадров : 31,250 кадров/сек (1536 SPF)
Метод сжатия : С потерями
Размер потока : 258 Мбайт (1%)
Заголовок : DUB (Ист-Вест)
Язык : Русский
Вид сервиса : Complete Main
По умолчанию : Да
Принудительно : Нет

Аудио #2
Идентификатор : 3
Формат : AC-3
Формат/Информация : Audio Coding 3
Коммерческое название : Dolby Digital
Идентификатор кодека : A_AC3
Продолжительность : 2 ч. 20 мин.
Вид битрейта : Постоянный
Битрейт : 640 Кбит/сек
Канал(-ы) : 6 каналов
Расположение каналов : L R C LFE Ls Rs
Частота дискретизации : 48,0 КГц
Частота кадров : 31,250 кадров/сек (1536 SPF)
Метод сжатия : С потерями
Размер потока : 645 Мбайт (3%)
Заголовок : MVO (TVShows)
Язык : Русский
Вид сервиса : Complete Main
По умолчанию : Нет
Принудительно : Нет
AC3_metadata cmixlev : -3.0 dB
surmixlev : -3 dB

Аудио #3
Идентификатор : 4
Формат : AC-3
Формат/Информация : Audio Coding 3
Коммерческое название : Dolby Digital
Идентификатор кодека : A_AC3
Продолжительность : 2 ч. 20 мин.
Вид битрейта : Постоянный
Битрейт : 640 Кбит/сек
Канал(-ы) : 6 каналов
Расположение каналов : L R C LFE Ls Rs
Частота дискретизации : 48,0 КГц
Частота кадров : 31,250 кадров/сек (1536 SPF)
Метод сжатия : С потерями
Размер потока : 645 Мбайт (3%)
Заголовок : MVO (Jaskier)
Язык : Русский
Вид сервиса : Complete Main
По умолчанию : Нет
Принудительно : Нет
AC3_metadata cmixlev : -3.0 dB
surmixlev : -3 dB

Аудио #4
Идентификатор : 5
Формат : AC-3
Формат/Информация : Audio Coding 3
Коммерческое название : Dolby Digital
Идентификатор кодека : A_AC3
Продолжительность : 2 ч. 20 мин.
Вид битрейта : Постоянный
Битрейт : 448 Кбит/сек
Канал(-ы) : 6 каналов
Расположение каналов : L R C LFE Ls Rs
Частота дискретизации : 48,0 КГц
Частота кадров : 31,250 кадров/сек (1536 SPF)
Метод сжатия : С потерями
Размер потока : 451 Мбайт (2%)
Заголовок : MVO (FDV / Киномания / Супербит)
Язык : Русский
Вид сервиса : Complete Main
По умолчанию : Нет
Принудительно : Нет
AC3_metadata cmixlev : -3.0 dB
surmixlev : -3 dB

Аудио #5
Идентификатор : 6
Формат : AC-3
Формат/Информация : Audio Coding 3
Коммерческое название : Dolby Digital
Идентификатор кодека : A_AC3
Продолжительность : 2 ч. 20 мин.
Вид битрейта : Постоянный
Битрейт : 384 Кбит/сек
Канал(-ы) : 6 каналов
Расположение каналов : L R C LFE Ls Rs
Частота дискретизации : 48,0 КГц
Частота кадров : 31,250 кадров/сек (1536 SPF)
Метод сжатия : С потерями
Размер потока : 387 Мбайт (2%)
Заголовок : MVO (Lizard Cinema Trade / 20 век Фокс СНГ)
Язык : Русский
Вид сервиса : Complete Main
По умолчанию : Нет
Принудительно : Нет
AC3_metadata cmixlev : -3.0 dB
surmixlev : -3 dB

Аудио #6
Идентификатор : 7
Формат : AC-3
Формат/Информация : Audio Coding 3
Коммерческое название : Dolby Digital
Идентификатор кодека : A_AC3
Продолжительность : 2 ч. 20 мин.
Вид битрейта : Постоянный
Битрейт : 384 Кбит/сек
Канал(-ы) : 6 каналов
Расположение каналов : L R C LFE Ls Rs
Частота дискретизации : 48,0 КГц
Частота кадров : 31,250 кадров/сек (1536 SPF)
Метод сжатия : С потерями
Размер потока : 387 Мбайт (2%)
Заголовок : MVO (Карусель)
Язык : Русский
Вид сервиса : Complete Main
По умолчанию : Нет
Принудительно : Нет
AC3_metadata cmixlev : -3.0 dB
surmixlev : -3 dB

Аудио #7
Идентификатор : 8
Формат : AC-3
Формат/Информация : Audio Coding 3
Коммерческое название : Dolby Digital
Идентификатор кодека : A_AC3
Продолжительность : 2 ч. 20 мин.
Вид битрейта : Постоянный
Битрейт : 256 Кбит/сек
Канал(-ы) : 2 канала
Расположение каналов : L R
Частота дискретизации : 48,0 КГц
Частота кадров : 31,250 кадров/сек (1536 SPF)
Метод сжатия : С потерями
Размер потока : 258 Мбайт (1%)
Заголовок : MVO (ТК Россия)
Язык : Русский
Вид сервиса : Complete Main
По умолчанию : Нет
Принудительно : Нет

Аудио #8
Идентификатор : 9
Формат : AC-3
Формат/Информация : Audio Coding 3
Коммерческое название : Dolby Digital
Идентификатор кодека : A_AC3
Продолжительность : 2 ч. 20 мин.
Вид битрейта : Постоянный
Битрейт : 256 Кбит/сек
Канал(-ы) : 2 канала
Расположение каналов : L R
Частота дискретизации : 48,0 КГц
Частота кадров : 31,250 кадров/сек (1536 SPF)
Метод сжатия : С потерями
Размер потока : 258 Мбайт (1%)
Заголовок : MVO (СТС)
Язык : Русский
Вид сервиса : Complete Main
По умолчанию : Нет
Принудительно : Нет

Аудио #9
Идентификатор : 10
Формат : AC-3
Формат/Информация : Audio Coding 3
Коммерческое название : Dolby Digital
Идентификатор кодека : A_AC3
Продолжительность : 2 ч. 20 мин.
Вид битрейта : Постоянный
Битрейт : 448 Кбит/сек
Канал(-ы) : 6 каналов
Расположение каналов : L R C LFE Ls Rs
Частота дискретизации : 48,0 КГц
Частота кадров : 31,250 кадров/сек (1536 SPF)
Метод сжатия : С потерями
Размер потока : 451 Мбайт (2%)
Заголовок : DVO (НТВ+)
Язык : Русский
Вид сервиса : Complete Main
По умолчанию : Нет
Принудительно : Нет
AC3_metadata cmixlev : -3.0 dB
surmixlev : -3 dB

Аудио #10
Идентификатор : 11
Формат : AC-3
Формат/Информация : Audio Coding 3
Коммерческое название : Dolby Digital
Идентификатор кодека : A_AC3
Продолжительность : 2 ч. 20 мин.
Вид битрейта : Постоянный
Битрейт : 256 Кбит/сек
Канал(-ы) : 2 канала
Расположение каналов : L R
Частота дискретизации : 48,0 КГц
Частота кадров : 31,250 кадров/сек (1536 SPF)
Метод сжатия : С потерями
Размер потока : 258 Мбайт (1%)
Заголовок : DVO (Премьер Мультимедиа)
Язык : Русский
Вид сервиса : Complete Main
По умолчанию : Нет
Принудительно : Нет

Аудио #11
Идентификатор : 12
Формат : E-AC-3
Формат/Информация : Enhanced AC-3
Коммерческое название : Dolby Digital Plus
Идентификатор кодека : A_EAC3
Продолжительность : 2 ч. 20 мин.
Вид битрейта : Постоянный
Битрейт : 1 024 Кбит/сек
Канал(-ы) : 6 каналов
Расположение каналов : L R C LFE Ls Rs
Частота дискретизации : 48,0 КГц
Частота кадров : 31,250 кадров/сек (1536 SPF)
Метод сжатия : С потерями
Размер потока : 1,01 Гбайт (4%)
Заголовок : AVO ("Диктор компании C.D.V.")
Язык : Русский
Вид сервиса : Complete Main
По умолчанию : Нет
Принудительно : Нет

Аудио #12
Идентификатор : 13
Формат : AC-3
Формат/Информация : Audio Coding 3
Коммерческое название : Dolby Digital
Идентификатор кодека : A_AC3
Продолжительность : 2 ч. 20 мин.
Вид битрейта : Постоянный
Битрейт : 640 Кбит/сек
Канал(-ы) : 6 каналов
Расположение каналов : L R C LFE Ls Rs
Частота дискретизации : 48,0 КГц
Частота кадров : 31,250 кадров/сек (1536 SPF)
Метод сжатия : С потерями
Размер потока : 645 Мбайт (3%)
Заголовок : AVO (Андрей Гаврилов)
Язык : Русский
Вид сервиса : Complete Main
По умолчанию : Нет
Принудительно : Нет
AC3_metadata cmixlev : -3.0 dB
surmixlev : -3 dB

Аудио #13
Идентификатор : 14
Формат : AC-3
Формат/Информация : Audio Coding 3
Коммерческое название : Dolby Digital
Идентификатор кодека : A_AC3
Продолжительность : 2 ч. 20 мин.
Вид битрейта : Постоянный
Битрейт : 640 Кбит/сек
Канал(-ы) : 6 каналов
Расположение каналов : L R C LFE Ls Rs
Частота дискретизации : 48,0 КГц
Частота кадров : 31,250 кадров/сек (1536 SPF)
Метод сжатия : С потерями
Размер потока : 645 Мбайт (3%)
Заголовок : AVO (Василий Горчаков)
Язык : Русский
Вид сервиса : Complete Main
По умолчанию : Нет
Принудительно : Нет
AC3_metadata cmixlev : -3.0 dB
surmixlev : -3 dB

Аудио #14
Идентификатор : 15
Формат : AC-3
Формат/Информация : Audio Coding 3
Коммерческое название : Dolby Digital
Идентификатор кодека : A_AC3
Продолжительность : 2 ч. 20 мин.
Вид битрейта : Постоянный
Битрейт : 640 Кбит/сек
Канал(-ы) : 6 каналов
Расположение каналов : L R C LFE Ls Rs
Частота дискретизации : 48,0 КГц
Частота кадров : 31,250 кадров/сек (1536 SPF)
Метод сжатия : С потерями
Размер потока : 645 Мбайт (3%)
Заголовок : AVO (Юрий Живов)
Язык : Русский
Вид сервиса : Complete Main
По умолчанию : Нет
Принудительно : Нет
AC3_metadata cmixlev : -3.0 dB
surmixlev : -3 dB

Аудио #15
Идентификатор : 16
Формат : AC-3
Формат/Информация : Audio Coding 3
Коммерческое название : Dolby Digital
Идентификатор кодека : A_AC3
Продолжительность : 2 ч. 20 мин.
Вид битрейта : Постоянный
Битрейт : 640 Кбит/сек
Канал(-ы) : 6 каналов
Расположение каналов : L R C LFE Ls Rs
Частота дискретизации : 48,0 КГц
Частота кадров : 31,250 кадров/сек (1536 SPF)
Метод сжатия : С потерями
Размер потока : 645 Мбайт (3%)
Заголовок : AVO (Юрий Сербин)
Язык : Русский
Вид сервиса : Complete Main
По умолчанию : Нет
Принудительно : Нет
AC3_metadata cmixlev : -3.0 dB
surmixlev : -3 dB

Аудио #16
Идентификатор : 17
Формат : AC-3
Формат/Информация : Audio Coding 3
Коммерческое название : Dolby Digital
Идентификатор кодека : A_AC3
Продолжительность : 2 ч. 20 мин.
Вид битрейта : Постоянный
Битрейт : 256 Кбит/сек
Канал(-ы) : 2 канала
Расположение каналов : L R
Частота дискретизации : 48,0 КГц
Частота кадров : 31,250 кадров/сек (1536 SPF)
Метод сжатия : С потерями
Размер потока : 258 Мбайт (1%)
Заголовок : AVO (Максим Латышев / Егор Хрусталёв)
Язык : Русский
Вид сервиса : Complete Main
По умолчанию : Нет
Принудительно : Нет

Аудио #17
Идентификатор : 18
Формат : AC-3
Формат/Информация : Audio Coding 3
Коммерческое название : Dolby Digital
Идентификатор кодека : A_AC3
Продолжительность : 2 ч. 20 мин.
Вид битрейта : Постоянный
Битрейт : 256 Кбит/сек
Канал(-ы) : 2 канала
Расположение каналов : L R
Частота дискретизации : 48,0 КГц
Частота кадров : 31,250 кадров/сек (1536 SPF)
Метод сжатия : С потерями
Размер потока : 258 Мбайт (1%)
Заголовок : AVO (Антон Пронин / "Мямля")
Язык : Русский
Вид сервиса : Complete Main
По умолчанию : Нет
Принудительно : Нет

Аудио #18
Идентификатор : 19
Формат : E-AC-3
Формат/Информация : Enhanced AC-3
Коммерческое название : Dolby Digital Plus
Идентификатор кодека : A_EAC3
Продолжительность : 2 ч. 20 мин.
Вид битрейта : Постоянный
Битрейт : 1 024 Кбит/сек
Канал(-ы) : 6 каналов
Расположение каналов : L R C LFE Ls Rs
Частота дискретизации : 48,0 КГц
Частота кадров : 31,250 кадров/сек (1536 SPF)
Метод сжатия : С потерями
Размер потока : 1,01 Гбайт (4%)
Заголовок : VO (Сергей Охотников / "Pr0peLLer")
Язык : Русский
Вид сервиса : Complete Main
По умолчанию : Нет
Принудительно : Нет

Аудио #19
Идентификатор : 20
Формат : AC-3
Формат/Информация : Audio Coding 3
Коммерческое название : Dolby Digital
Идентификатор кодека : A_AC3
Продолжительность : 2 ч. 20 мин.
Вид битрейта : Постоянный
Битрейт : 640 Кбит/сек
Канал(-ы) : 6 каналов
Расположение каналов : L R C LFE Ls Rs
Частота дискретизации : 48,0 КГц
Частота кадров : 31,250 кадров/сек (1536 SPF)
Метод сжатия : С потерями
Размер потока : 645 Мбайт (3%)
Заголовок : VO (Владимир Завгородний)
Язык : Русский
Вид сервиса : Complete Main
По умолчанию : Нет
Принудительно : Нет
AC3_metadata cmixlev : -3.0 dB
surmixlev : -3 dB

Аудио #20
Идентификатор : 21
Формат : E-AC-3
Формат/Информация : Enhanced AC-3
Коммерческое название : Dolby Digital Plus
Идентификатор кодека : A_EAC3
Продолжительность : 2 ч. 20 мин.
Вид битрейта : Постоянный
Битрейт : 1 024 Кбит/сек
Канал(-ы) : 2 канала
Расположение каналов : L R
Частота дискретизации : 48,0 КГц
Частота кадров : 31,250 кадров/сек (1536 SPF)
Метод сжатия : С потерями
Размер потока : 1,01 Гбайт (4%)
Заголовок : VO (Неизвестный #1)
Язык : Русский
Вид сервиса : Complete Main
По умолчанию : Нет
Принудительно : Нет

Аудио #21
Идентификатор : 22
Формат : E-AC-3
Формат/Информация : Enhanced AC-3
Коммерческое название : Dolby Digital Plus
Идентификатор кодека : A_EAC3
Продолжительность : 2 ч. 20 мин.
Вид битрейта : Постоянный
Битрейт : 768 Кбит/сек
Канал(-ы) : 2 канала
Расположение каналов : L R
Частота дискретизации : 48,0 КГц
Частота кадров : 31,250 кадров/сек (1536 SPF)
Метод сжатия : С потерями
Размер потока : 773 Мбайт (3%)
Заголовок : VO (Неизвестный #2)
Язык : Русский
Вид сервиса : Complete Main
По умолчанию : Нет
Принудительно : Нет

Аудио #22
Идентификатор : 23
Формат : AC-3
Формат/Информация : Audio Coding 3
Коммерческое название : Dolby Digital
Идентификатор кодека : A_AC3
Продолжительность : 2 ч. 20 мин.
Вид битрейта : Постоянный
Битрейт : 192 Кбит/сек
Канал(-ы) : 2 канала
Расположение каналов : L R
Частота дискретизации : 48,0 КГц
Частота кадров : 31,250 кадров/сек (1536 SPF)
Метод сжатия : С потерями
Размер потока : 193 Мбайт (1%)
Заголовок : MVO (Канал "Україна")
Язык : Украинский
Вид сервиса : Complete Main
По умолчанию : Нет
Принудительно : Нет

Аудио #23
Идентификатор : 24
Формат : AC-3
Формат/Информация : Audio Coding 3
Коммерческое название : Dolby Digital
Идентификатор кодека : A_AC3
Продолжительность : 2 ч. 20 мин.
Вид битрейта : Постоянный
Битрейт : 192 Кбит/сек
Канал(-ы) : 2 канала
Расположение каналов : L R
Частота дискретизации : 48,0 КГц
Частота кадров : 31,250 кадров/сек (1536 SPF)
Метод сжатия : С потерями
Размер потока : 193 Мбайт (1%)
Заголовок : MVO (Новий канал)
Язык : Украинский
Вид сервиса : Complete Main
По умолчанию : Нет
Принудительно : Нет

Аудио #24
Идентификатор : 25
Формат : AC-3
Формат/Информация : Audio Coding 3
Коммерческое название : Dolby Digital
Идентификатор кодека : A_AC3
Продолжительность : 2 ч. 20 мин.
Вид битрейта : Постоянный
Битрейт : 192 Кбит/сек
Канал(-ы) : 2 канала
Расположение каналов : L R
Частота дискретизации : 48,0 КГц
Частота кадров : 31,250 кадров/сек (1536 SPF)
Метод сжатия : С потерями
Размер потока : 193 Мбайт (1%)
Заголовок : DVO (2+2 / 1+1)
Язык : Украинский
Вид сервиса : Complete Main
По умолчанию : Нет
Принудительно : Нет

Аудио #25
Идентификатор : 26
Формат : AC-3
Формат/Информация : Audio Coding 3
Коммерческое название : Dolby Digital
Идентификатор кодека : A_AC3
Продолжительность : 2 ч. 20 мин.
Вид битрейта : Постоянный
Битрейт : 640 Кбит/сек
Канал(-ы) : 6 каналов
Расположение каналов : L R C LFE Ls Rs
Частота дискретизации : 48,0 КГц
Частота кадров : 31,250 кадров/сек (1536 SPF)
Метод сжатия : С потерями
Размер потока : 645 Мбайт (3%)
Язык : Английский
Вид сервиса : Complete Main
По умолчанию : Нет
Принудительно : Нет
AC3_metadata cmixlev : -3.0 dB
surmixlev : -3 dB

Текст #1
Идентификатор : 27
Формат : UTF-8
Идентификатор кодека : S_TEXT/UTF8
Идентификатор кодека/Информация : UTF-8 Plain Text
Продолжительность : 2 ч. 17 мин.
Битрейт : 69 бит/сек
Частота кадров : 0,139 кадр/сек
Число элементов : 1142
Размер потока : 69,5 КиБ (0%)
Заголовок : Full, Lizard
Язык : Русский
По умолчанию : Нет
Принудительно : Нет

Текст #2
Идентификатор : 28
Формат : UTF-8
Идентификатор кодека : S_TEXT/UTF8
Идентификатор кодека/Информация : UTF-8 Plain Text
Продолжительность : 2 ч. 19 мин.
Битрейт : 76 бит/сек
Частота кадров : 0,159 кадр/сек
Число элементов : 1333
Размер потока : 78,0 КиБ (0%)
Заголовок : Full, 20th Century Fox
Язык : Русский
По умолчанию : Нет
Принудительно : Нет

Текст #3
Идентификатор : 29
Формат : UTF-8
Идентификатор кодека : S_TEXT/UTF8
Идентификатор кодека/Информация : UTF-8 Plain Text
Продолжительность : 2 ч. 19 мин.
Битрейт : 82 бит/сек
Частота кадров : 0,212 кадр/сек
Число элементов : 1776
Размер потока : 84,6 КиБ (0%)
Заголовок : SDH, Киномания
Язык : Русский
По умолчанию : Нет
Принудительно : Нет

Текст #4
Идентификатор : 30
Формат : UTF-8
Идентификатор кодека : S_TEXT/UTF8
Идентификатор кодека/Информация : UTF-8 Plain Text
Продолжительность : 2 ч. 17 мин.
Битрейт : 67 бит/сек
Частота кадров : 0,139 кадр/сек
Число элементов : 1142
Размер потока : 68,2 КиБ (0%)
Заголовок : Full
Язык : Украинский
По умолчанию : Нет
Принудительно : Нет

Текст #5
Идентификатор : 31
Формат : UTF-8
Идентификатор кодека : S_TEXT/UTF8
Идентификатор кодека/Информация : UTF-8 Plain Text
Продолжительность : 1 ч. 27 мин.
Битрейт : 0 бит/сек
Частота кадров : 0,002 кадр/сек
Число элементов : 12
Размер потока : 275 байт (0%)
Заголовок : Forced
Язык : Английский
По умолчанию : Нет
Принудительно : Нет

Текст #6
Идентификатор : 32
Формат : UTF-8
Идентификатор кодека : S_TEXT/UTF8
Идентификатор кодека/Информация : UTF-8 Plain Text
Продолжительность : 2 ч. 16 мин.
Битрейт : 48 бит/сек
Частота кадров : 0,166 кадр/сек
Число элементов : 1356
Размер потока : 48,0 КиБ (0%)
Заголовок : Full
Язык : Английский
По умолчанию : Нет
Принудительно : Нет

Текст #7
Идентификатор : 33
Формат : UTF-8
Идентификатор кодека : S_TEXT/UTF8
Идентификатор кодека/Информация : UTF-8 Plain Text
Продолжительность : 2 ч. 20 мин.
Битрейт : 52 бит/сек
Частота кадров : 0,245 кадр/сек
Число элементов : 2070
Размер потока : 54,0 КиБ (0%)
Заголовок : SDH
Язык : Английский
По умолчанию : Нет
Принудительно : Нет

Меню
00:00:00.000 : en:Main Titles
00:01:13.782 : en:Lake Chapeau
00:09:02.625 : en:Tango
00:11:23.850 : en:Here's My Invitation
00:14:29.786 : en:That's it for Mr. Renquist
00:16:17.393 : en:The Tasker Family
00:18:59.764 : en:Not Just a River in Egypt
00:20:26.934 : en:Omega Sector/You Know Harry
00:23:30.117 : en:The Renquist Front
00:27:10.462 : en:The Problem with Terrorists
00:29:35.399 : en:Bathroom Fight
00:32:02.170 : en:My Horse is Getting Tired
00:40:47.820 : en:A Great Birthday
00:42:38.389 : en:Welcome to the Club
00:45:51.832 : en:A Little Excitement
00:50:07.213 : en:Simon's "Op"
00:52:38.864 : en:One Born Every Minute
00:56:44.192 : en:Seek Help, Harry
00:58:51.403 : en:A Misappropriation of Sector Resources
01:00:20.659 : en:Safe House
01:05:01.314 : en:Helen in the Looking Glass
01:13:14.682 : en:The End of Carlos the Jackal
01:15:09.296 : en:An Envelope Marked Doris
01:19:10.955 : en:The Suite at the Marquis
01:27:11.017 : en:Tasker, Not Renquist
01:29:00.168 : en:The Four Horsemen
01:35:02.572 : en:Truth Agent
01:40:22.808 : en:I Married Rambo
01:42:17.048 : en:Uh-Oh
01:44:22.715 : en:Just Us
01:50:21.698 : en:I Thought This Looked Like Your Work
01:51:27.055 : en:Bright Boy Alert
01:53:52.451 : en:Time to Kick Ass
01:55:15.408 : en:Limo Rescue
01:59:42.634 : en:Nuclear Kiss
02:01:02.630 : en:Borrowing a Harrier
02:03:26.316 : en:Dana the Hostage/A Man Inside
02:04:41.599 : en:Who's Taken the Key?
02:06:33.961 : en:On the Crane
02:07:27.640 : en:A Crimson Jihad
02:08:11.601 : en:Dad?!
02:11:18.162 : en:Fired
02:14:03.994 : en:Boris and Doris
02:16:45.656 : en:End Titles
Загрузка...Cкриншот1 Правдивая ложь / True Lies (1994) [Remastered | CAN Transfer] BDRip 1080p [HEVC] 10 bit от OldGamer (RG RIPS CLUB)Загрузка...Cкриншот2 Правдивая ложь / True Lies (1994) [Remastered | CAN Transfer] BDRip 1080p [HEVC] 10 bit от OldGamer (RG RIPS CLUB)Загрузка...Cкриншот3 Правдивая ложь / True Lies (1994) [Remastered | CAN Transfer] BDRip 1080p [HEVC] 10 bit от OldGamer (RG RIPS CLUB)Загрузка...Cкриншот4 Правдивая ложь / True Lies (1994) [Remastered | CAN Transfer] BDRip 1080p [HEVC] 10 bit от OldGamer (RG RIPS CLUB)
Поблагодарили: 14A1eksandr1, alexyak, anderb, arwis, Brooklyn, InSpector, Kiran, MIGRANT, Miss Exclusive 888, Niflung, SergKote, sharkey71, z_artem, Странник
Файлы: 1
  • Правдивая.ложь.True.Lies.1994.Remastered.CAN.Transfer.BDRip-HEVC.1080p.mkv

Рейтинги КП и IMDB, кнопки "Раздайте, пожалуйста" и "Спасибо", а также мультитрекерная статистика доступны только зарегистрированным/авторизованным пользователям!

OldGamer
131160023.88 ГБ

💬︎ Комментарии

Добавление комментариев доступно только зарегистрированным/авторизованным пользователям.