Чат

⚫︎
Список изменений сайта - https://rips.club/changelog.html (обновлен 24.05.2024)
  • AlexStallone
  • arwis
Онлайн (за 10 мин.): 2
  • Tastod: Раздайте, пожалуйста, Загадочная история Бенджамина Баттона / The Curious Case of Benjamin Button (2008) BDRip 1080p [HEVC] 10 bit от Spartanec1308
  • Гл. Админ: Исправил баг, когда после анонса коллекции все анонсы показывались в спойлере, даже если не являлись коллекцией.
  • Гл. Админ: Исправил баг, когда в ЛС не возможно было удалить сообщение.
  • bronsonw200: Гл. Админ, Как по мне, так смотрится приятнее.
  • Гл. Админ: В светлой теме задний фон сделал чуть потемнее, чтобы было не слишком ярко. В темной теме поисковую строку сделал черной (как в светлой теме), чтобы выделялась. Убрал рамки вокруг элементов форм. Прокрутку страницы в начало сделал плавной. ( отредактировано: )
  • Гл. Админ: В ближайшие дни по вечерам начну подправлять дизайн.
  • Гл. Админ: Готово.
  • Гл. Админ: Управление релизами закончил, но не буду выкладывать на ночь глядя. Утром протестирую на локальном компе, и днем выложу.
  • Гл. Админ: Фон баннера релиз-группы сделал прозрачным и перезалил на внешнем хостинге.
  • OldGamer: было бы неплохо
  • Гл. Админ: Управление релизами наверно сегодня закончу.
  • HANNIBAL: Сообщение удалено (удалил: HANNIBAL)
  • HANNIBAL: Гл. Админ, не привычно
  • Гл. Админ: HANNIBAL, хорошего или плохого?
  • HANNIBAL: эт чей-то вы тут натворили с сайтом ;)
  • Гл. Админ: ExoticDeer, просто в будущем будет несколько новостных строчек и они будут автоматически переключаться по кругу, поэтому не хочется статичную. Могу ещё уменьшить частоту, если всё равно будет отвлекать. ( отредактировано: )
  • Гл. Админ: ExoticDeer, уменьшил частоту мигания с 5 сек. до 10 сек.
  • ExoticDeer: Гл. Админ, про мигание, скорее отвлекает, особенно на тёмной теме. статичная хорошо смотрелась
  • Гл. Админ: Winsent, Исправил. Теперь, при просмотре комментариев конкретного пользователя, эта галочка не играет роли. Спасибо, что сообщили.
  • Гл. Админ: Winsent, сначала не поверил своим глазам. Это было оооочень странно. Но кажется теперь понял в чем проблема. Ошибка появляется, если в настройках не установлена галочка "Получать уведомления о всех комментариях". Причем у разных пользователей проявляется по разному - у кого-то ничего не показывается, а у кого-то показывается часть комментариев. Поэтому мне долго не удавалось воспроизвести ошибку. Сейчас исправлю.
Отправка сообщений доступна только зарегистрированным/авторизованным пользователям.

🎥︎Драйв / Drive (1997) [Director's Cut] BDRip 1080p [HEVC] 10 bit от OldGamer (RG RIPS CLUB)


Обложка Драйв / Drive (1997) [Director's Cut] BDRip 1080p [HEVC] 10 bit от OldGamer (RG RIPS CLUB)
HEVC
10 bit
✂︎Сэмпл⤓︎Торрент🧲︎Магнет$Пожертвования

При перезаливке на другие сайты просьба указать автора и релиз-группу.


Год: 1997
Страна: США
Студия: NEO Motion Pictures, Overseas FilmGroup
Жанр: Фантастика, Боевик, Комедия, Приключения
Длительность: 01:57:14

Режиссер: Стив Ван
В ролях: Марк Дакаскос, Кадим Хардисон, Джон Пайпер-Фергюсон, Бриттани Мерфи, Трейси Уолтер, Джеймс Сигэта, Масая Като, Дом Магуили, Рон Юань, Клайв Розенгрен

Описание: Сан-Франциско. Недалёкое будущее. Грузовое судно возвращается из Гонконга с загадочным пассажиром по имени Тоби Уонг. Он сбежал от подпольной корпорации Леунга в поисках свободы на Западе. Однако Тоби попадает в лапы банды хладнокровного Вика Мэдисона. Вырвавшись из банды Мэдисона, он берёт в заложники пьяницу Малика Броунди и едет в Лос-Анджелес. В дороге они становятся приятелями, и Тоби даже обучает Малика боевым искусствам. Однажды Малик узнаёт, что у Тоби имплантирован биомодуль, дающий ему силу и скорость. Это сделал мистер Лау, глава корпорации Леунг, который хочет вернуть беглеца во что бы то ни стало. Сбежавшую парочку преследует и банда Вика Мэдисона и новая жертва мистера Лау с более совершенным биомодулем…


Релиз-группа: RIPS CLUB
Исходник: Blu-Ray Remux 1080p (rutracker)
Видео: 1920x820, 9373 Kbps
Аудио1: AC3, 2 ch, 224 Kbps - РусскийРусский, MVO (ОРТ)
Аудио2: AC3, 6 ch, 448 Kbps - РусскийРусский, DVO (Twister)
Аудио3: AC3, 6 ch, 640 Kbps - РусскийРусский, AVO (Юрий Живов)
Аудио4: AC3, 2 ch, 224 Kbps - РусскийРусский, AVO (Василий Горчаков)
Аудио5: AC3, 6 ch, 448 Kbps - РусскийРусский, VO (Вячеслав Котов)
Аудио6: AC3, 6 ch, 448 Kbps - АнглийскийАнглийский (DVD)
Субтитры: русские, английские (forced)

Как за несколько секунд удалить ненужные аудиодорожки и субтитры (Внимание! После удаления вы не сможете поддержать раздачу)


Лог (x265 info)x265 [info]: frame I: 728, Avg QP:18.46 kb/s: 20192.31
x265 [info]: frame P: 31477, Avg QP:19.54 kb/s: 16476.86
x265 [info]: frame B: 136620, Avg QP:21.91 kb/s: 7677.84
x265 [info]: Weighted P-Frames: Y:7.8% UV:6.4%
x265 [info]: Weighted B-Frames: Y:6.1% UV:4.4%
x265 [info]: encoded 168825 frames in 124812.79s (1.35 fps), 9372.36 kb/s, Avg QP:21.46
МедиаинфоОбщее
Уникальный идентификатор : 280172768504705298128455529398904379908 (0xD2C74FFC7E8FBF8465D9B5051FB15A04)
Полное имя : \\.\Драйв.Drive.1997.Director's.Cut.BDRip-HEVC.1080p.mkv
Формат : Matroska
Версия формата : Version 4
Размер файла : 9,67 Гбайт
Продолжительность : 1 ч. 57 мин.
Общий битрейт : 11,8 Мбит/сек
Частота кадров : 24,000 кадра/сек
Название фильма : Драйв / Драйв
Кодирование выполнил : OldGamer
Тип содержимого : Movie
Дата выпуска : 1997-08-06
Дата записи : 1997-08-06
Программа кодирования : mkvmerge v83.0 ('Circle Of Friends') 64-bit
Библиотека кодирования : libebml v1.4.5 + libmatroska v1.7.1 / xvid4psp5
Обложка : Yes
Attachments : cover.jpg
ACTOR : Mark Dacascos, Kadeem Hardison, Brittany Murphy, John Pyper-Ferguson, Tracey Walter, Masaya Kato, Dom Magwili, Ron Yuan, Clive Rosengren, Christopher Michael, Cece Tsou, Sanaa Lathan, Joe Unger, Johnny Martin, Chuck Borden, Chris DeRose, David Hayter...
ARTIST : Mark Dacascos, Kadeem Hardison, Brittany Murphy, John Pyper-Ferguson, Tracey Walter, Masaya Kato, Dom Magwili, Ron Yuan, Clive Rosengren, Christopher Michael, Cece Tsou, Sanaa Lathan, Joe Unger, Johnny Martin, Chuck Borden, Chris DeRose, David Hayter...
DIRECTOR : Steve Wang
GENRE : боевик, приключения, фантастика, комедия
LAW_RATING : R
PRODUCER : Mitsuru Kurosawa, Michael Leahy
PRODUCTION_STUDIO : Overseas FilmGroup
RATING : R
SYNOPSIS : Сан-Франциско. Недалекое будущее. Грузовое судно возвращается из Гонконга с загадочным пассажиром по имени Тоби Уонг. Он сбежал от подпольной корпорации Леунга в поисках свободы на Западе. Однако Тоби попадает в лапы банды хладнокровного Вика Мэдисона. Вырвавшись из банды Мэдисона, он берет в заложники пьяницу Малика Броунди и едет в Лос-Анджелес. В дороге они становятся приятелями, и Тоби даже обучает Малика боевым искусствам. Однажды Малик узнает, что у Тоби имплантирован биомодуль, дающий ему силу и скорость.

Видео
Идентификатор : 1
Формат : HEVC
Формат/Информация : High Efficiency Video Coding
Профиль формата : Main 10@L4.1@High
Идентификатор кодека : V_MPEGH/ISO/HEVC
Продолжительность : 1 ч. 57 мин.
Битрейт : 9 373 Кбит/сек
Ширина : 1 920 пикселей
Высота : 820 пикселей
Соотношение сторон дисплея : 2,35:1
Режим частоты кадров : Постоянный
Частота кадров : 24,000 кадра/сек
Цветовое пространство : YUV
Цветовая субдискретизация : 4:2:0
Битовая глубина : 10 бит
Бит/(Пиксели*Кадры) : 0.248
Размер потока : 7,68 Гбайт (79%)
Заголовок : Drive / Rip by OldGamer
Библиотека кодирования : x265 3.5+110-8ee01d45b:[Windows][GCC 13.2.0][64 bit] 10bit
Параметры библиотеки кодирования : cpuid=1111039 / frame-threads=3 / numa-pools=8 / wpp / no-pmode / no-pme / no-psnr / no-ssim / log-level=2 / input-csp=1 / input-res=1920x820 / interlace=0 / total-frames=168825 / level-idc=41 / high-tier=1 / uhd-bd=0 / ref=5 / no-allow-non-conformance / no-repeat-headers / annexb / no-aud / no-eob / no-eos / no-hrd / info / hash=0 / temporal-layers=0 / open-gop / min-keyint=23 / keyint=240 / gop-lookahead=0 / bframes=16 / b-adapt=2 / b-pyramid / bframe-bias=0 / rc-lookahead=60 / lookahead-slices=0 / scenecut=40 / no-hist-scenecut / radl=0 / no-splice / no-intra-refresh / ctu=32 / min-cu-size=8 / rect / amp / max-tu-size=32 / tu-inter-depth=4 / tu-intra-depth=4 / limit-tu=1 / rdoq-level=2 / dynamic-rd=0.00 / no-ssim-rd / signhide / no-tskip / nr-intra=0 / nr-inter=0 / no-constrained-intra / no-strong-intra-smoothing / max-merge=5 / limit-refs=3 / no-limit-modes / me=3 / subme=7 / merange=57 / temporal-mvp / no-frame-dup / no-hme / weightp / weightb / no-analyze-src-pics / deblock=-2:-2 / no-sao / no-sao-non-deblock / rd=6 / selective-sao=0 / no-early-skip / no-rskip / no-fast-intra / no-tskip-fast / no-cu-lossless / b-intra / no-splitrd-skip / rdpenalty=0 / psy-rd=2.00 / psy-rdoq=1.00 / no-rd-refine / no-lossless / cbqpoffs=0 / crqpoffs=0 / rc=crf / crf=20.2 / qcomp=0.60 / qpstep=4 / stats-write=0 / stats-read=0 / vbv-maxrate=50000 / vbv-bufsize=50000 / vbv-init=0.9 / min-vbv-fullness=50.0 / max-vbv-fullness=80.0 / crf-max=0.0 / crf-min=0.0 / ipratio=1.40 / pbratio=1.30 / aq-mode=1 / aq-strength=1.00 / no-cutree / zone-count=1 / zones: / start-frame=160082 / end-frame=168825 / qp=36 / no-strict-cbr / qg-size=32 / no-rc-grain / qpmax=69 / qpmin=0 / no-const-vbv / sar=1 / overscan=0 / videoformat=5 / range=0 / colorprim=2 / transfer=2 / colormatrix=2 / chromaloc=0 / display-window=0 / cll=0,0 / min-luma=0 / max-luma=1023 / log2-max-poc-lsb=8 / vui-timing-info / vui-hrd-info / slices=1 / no-opt-qp-pps / no-opt-ref-list-length-pps / no-multi-pass-opt-rps / scenecut-bias=0.00 / no-opt-cu-delta-qp / no-aq-motion / no-hdr10 / no-hdr10-opt / no-dhdr10-opt / no-idr-recovery-sei / analysis-reuse-level=0 / analysis-save-reuse-level=0 / analysis-load-reuse-level=0 / scale-factor=0 / refine-intra=0 / refine-inter=0 / refine-mv=1 / refine-ctu-distortion=0 / no-limit-sao / ctu-info=0 / no-lowpass-dct / refine-analysis-type=0 / copy-pic=1 / max-ausize-factor=1.0 / no-dynamic-refine / no-single-sei / no-hevc-aq / no-svt / no-field / qp-adaptation-range=1.00 / scenecut-aware-qp=0conformance-window-offsets / right=0 / bottom=0 / decoder-max-rate=0 / no-vbv-live-multi-pass / no-mcstf / no-sbrc
Язык : Английский
По умолчанию : Да
Принудительно : Нет

Аудио #1
Идентификатор : 2
Формат : AC-3
Формат/Информация : Audio Coding 3
Коммерческое название : Dolby Digital
Идентификатор кодека : A_AC3
Продолжительность : 1 ч. 57 мин.
Вид битрейта : Постоянный
Битрейт : 224 Кбит/сек
Канал(-ы) : 2 канала
Расположение каналов : L R
Частота дискретизации : 48,0 КГц
Частота кадров : 31,250 кадров/сек (1536 SPF)
Метод сжатия : С потерями
Размер потока : 188 Мбайт (2%)
Заголовок : MVO (ОРТ)
Язык : Русский
Вид сервиса : Complete Main
По умолчанию : Да
Принудительно : Нет

Аудио #2
Идентификатор : 3
Формат : AC-3
Формат/Информация : Audio Coding 3
Коммерческое название : Dolby Digital
Идентификатор кодека : A_AC3
Продолжительность : 1 ч. 57 мин.
Вид битрейта : Постоянный
Битрейт : 448 Кбит/сек
Канал(-ы) : 6 каналов
Расположение каналов : L R C LFE Ls Rs
Частота дискретизации : 48,0 КГц
Частота кадров : 31,250 кадров/сек (1536 SPF)
Метод сжатия : С потерями
Размер потока : 376 Мбайт (4%)
Заголовок : DVO (Twister)
Язык : Русский
Вид сервиса : Complete Main
По умолчанию : Нет
Принудительно : Нет
AC3_metadata cmixlev : -3.0 dB
surmixlev : -3 dB

Аудио #3
Идентификатор : 4
Формат : AC-3
Формат/Информация : Audio Coding 3
Коммерческое название : Dolby Digital
Идентификатор кодека : A_AC3
Продолжительность : 1 ч. 57 мин.
Вид битрейта : Постоянный
Битрейт : 640 Кбит/сек
Канал(-ы) : 6 каналов
Расположение каналов : L R C LFE Ls Rs
Частота дискретизации : 48,0 КГц
Частота кадров : 31,250 кадров/сек (1536 SPF)
Метод сжатия : С потерями
Размер потока : 537 Мбайт (5%)
Заголовок : AVO (Юрий Живов)
Язык : Русский
Вид сервиса : Complete Main
По умолчанию : Нет
Принудительно : Нет
AC3_metadata cmixlev : -3.0 dB
surmixlev : -3 dB

Аудио #4
Идентификатор : 5
Формат : AC-3
Формат/Информация : Audio Coding 3
Коммерческое название : Dolby Digital
Идентификатор кодека : A_AC3
Продолжительность : 1 ч. 57 мин.
Вид битрейта : Постоянный
Битрейт : 224 Кбит/сек
Канал(-ы) : 2 канала
Расположение каналов : L R
Частота дискретизации : 48,0 КГц
Частота кадров : 31,250 кадров/сек (1536 SPF)
Метод сжатия : С потерями
Размер потока : 188 Мбайт (2%)
Заголовок : AVO (Василий Горчаков)
Язык : Русский
Вид сервиса : Complete Main
По умолчанию : Нет
Принудительно : Нет

Аудио #5
Идентификатор : 6
Формат : AC-3
Формат/Информация : Audio Coding 3
Коммерческое название : Dolby Digital
Идентификатор кодека : A_AC3
Продолжительность : 1 ч. 57 мин.
Вид битрейта : Постоянный
Битрейт : 448 Кбит/сек
Канал(-ы) : 6 каналов
Расположение каналов : L R C LFE Ls Rs
Частота дискретизации : 48,0 КГц
Частота кадров : 31,250 кадров/сек (1536 SPF)
Метод сжатия : С потерями
Размер потока : 376 Мбайт (4%)
Заголовок : VO (Вячеслав Котов)
Язык : Русский
Вид сервиса : Complete Main
По умолчанию : Нет
Принудительно : Нет
AC3_metadata cmixlev : -3.0 dB
surmixlev : -3 dB

Аудио #6
Идентификатор : 7
Формат : AC-3
Формат/Информация : Audio Coding 3
Коммерческое название : Dolby Digital
Идентификатор кодека : A_AC3
Продолжительность : 1 ч. 57 мин.
Вид битрейта : Постоянный
Битрейт : 448 Кбит/сек
Канал(-ы) : 6 каналов
Расположение каналов : L R C LFE Ls Rs
Частота дискретизации : 48,0 КГц
Частота кадров : 31,250 кадров/сек (1536 SPF)
Метод сжатия : С потерями
Размер потока : 376 Мбайт (4%)
Заголовок : DVD
Язык : Английский
Вид сервиса : Complete Main
По умолчанию : Нет
Принудительно : Нет
AC3_metadata cmixlev : -3.0 dB
surmixlev : -3 dB

Текст #1
Идентификатор : 8
Формат : UTF-8
Идентификатор кодека : S_TEXT/UTF8
Идентификатор кодека/Информация : UTF-8 Plain Text
Продолжительность : 1 ч. 51 мин.
Битрейт : 63 бит/сек
Частота кадров : 0,122 кадр/сек
Число элементов : 815
Размер потока : 51,4 КиБ (0%)
Язык : Русский
По умолчанию : Нет
Принудительно : Нет

Текст #2
Идентификатор : 9
Формат : UTF-8
Идентификатор кодека : S_TEXT/UTF8
Идентификатор кодека/Информация : UTF-8 Plain Text
Продолжительность : 2 мин. 12 с.
Битрейт : 10 бит/сек
Частота кадров : 0,045 кадр/сек
Число элементов : 6
Размер потока : 179 байт (0%)
Заголовок : Forced
Язык : Английский
По умолчанию : Нет
Принудительно : Нет

Меню
00:00:00.000 : en:Chapter 01
00:05:55.707 : en:Chapter 02
00:11:13.957 : en:Chapter 03
00:27:34.790 : en:Chapter 04
00:35:00.166 : en:Chapter 05
00:42:41.708 : en:Chapter 06
00:54:49.375 : en:Chapter 07
01:14:04.457 : en:Chapter 08
01:22:36.291 : en:Chapter 09
01:35:59.457 : en:Chapter 10
01:43:34.082 : en:Chapter 11
01:51:10.250 : en:Chapter 12
Загрузка...Cкриншот1 Драйв / Drive (1997) [Director's Cut] BDRip 1080p [HEVC] 10 bit от OldGamer (RG RIPS CLUB)Загрузка...Cкриншот2 Драйв / Drive (1997) [Director's Cut] BDRip 1080p [HEVC] 10 bit от OldGamer (RG RIPS CLUB)Загрузка...Cкриншот3 Драйв / Drive (1997) [Director's Cut] BDRip 1080p [HEVC] 10 bit от OldGamer (RG RIPS CLUB)Загрузка...Cкриншот4 Драйв / Drive (1997) [Director's Cut] BDRip 1080p [HEVC] 10 bit от OldGamer (RG RIPS CLUB)
Поблагодарили: 7and50, han-nik, Kiran, MIGRANT, Miss Exclusive 888, Redman, sharkey71
Файлы: 1
  • Драйв.Drive.1997.Director's.Cut.BDRip-HEVC.1080p.mkv

Рейтинги КП и IMDB, кнопки "Раздайте, пожалуйста" и "Спасибо", а также мультитрекерная статистика доступны только зарегистрированным/авторизованным пользователям!

OldGamer
21415809.67 ГБ

💬︎ Комментарии

Добавление комментариев доступно только зарегистрированным/авторизованным пользователям.