Чат

⚫︎
Список изменений сайта - https://rips.club/changelog.html (обновлен 24.05.2024)
  • AlexStallone
  • arwis
  • ko1ob
Онлайн (за 10 мин.): 3
  • Tastod: Раздайте, пожалуйста, Загадочная история Бенджамина Баттона / The Curious Case of Benjamin Button (2008) BDRip 1080p [HEVC] 10 bit от Spartanec1308
  • Гл. Админ: Исправил баг, когда после анонса коллекции все анонсы показывались в спойлере, даже если не являлись коллекцией.
  • Гл. Админ: Исправил баг, когда в ЛС не возможно было удалить сообщение.
  • bronsonw200: Гл. Админ, Как по мне, так смотрится приятнее.
  • Гл. Админ: В светлой теме задний фон сделал чуть потемнее, чтобы было не слишком ярко. В темной теме поисковую строку сделал черной (как в светлой теме), чтобы выделялась. Убрал рамки вокруг элементов форм. Прокрутку страницы в начало сделал плавной. ( отредактировано: )
  • Гл. Админ: В ближайшие дни по вечерам начну подправлять дизайн.
  • Гл. Админ: Готово.
  • Гл. Админ: Управление релизами закончил, но не буду выкладывать на ночь глядя. Утром протестирую на локальном компе, и днем выложу.
  • Гл. Админ: Фон баннера релиз-группы сделал прозрачным и перезалил на внешнем хостинге.
  • OldGamer: было бы неплохо
  • Гл. Админ: Управление релизами наверно сегодня закончу.
  • HANNIBAL: Сообщение удалено (удалил: HANNIBAL)
  • HANNIBAL: Гл. Админ, не привычно
  • Гл. Админ: HANNIBAL, хорошего или плохого?
  • HANNIBAL: эт чей-то вы тут натворили с сайтом ;)
  • Гл. Админ: ExoticDeer, просто в будущем будет несколько новостных строчек и они будут автоматически переключаться по кругу, поэтому не хочется статичную. Могу ещё уменьшить частоту, если всё равно будет отвлекать. ( отредактировано: )
  • Гл. Админ: ExoticDeer, уменьшил частоту мигания с 5 сек. до 10 сек.
  • ExoticDeer: Гл. Админ, про мигание, скорее отвлекает, особенно на тёмной теме. статичная хорошо смотрелась
  • Гл. Админ: Winsent, Исправил. Теперь, при просмотре комментариев конкретного пользователя, эта галочка не играет роли. Спасибо, что сообщили.
  • Гл. Админ: Winsent, сначала не поверил своим глазам. Это было оооочень странно. Но кажется теперь понял в чем проблема. Ошибка появляется, если в настройках не установлена галочка "Получать уведомления о всех комментариях". Причем у разных пользователей проявляется по разному - у кого-то ничего не показывается, а у кого-то показывается часть комментариев. Поэтому мне долго не удавалось воспроизвести ошибку. Сейчас исправлю.
Отправка сообщений доступна только зарегистрированным/авторизованным пользователям.

🎥︎Соучастник / Collateral (2004) BDRip 1080p [HEVC] 10 bit от OldGamer (RG RIPS CLUB)


Обложка Соучастник / Collateral (2004) BDRip 1080p [HEVC] 10 bit от OldGamer (RG RIPS CLUB)
HEVC
10 bit
✂︎Сэмпл⤓︎Торрент🧲︎Магнет$Пожертвования

При перезаливке на другие сайты просьба указать автора и релиз-группу.


Год: 2004
Страна: США
Студия: DreamWorks SKG, Edge City, Paramount Pictures, Parkes/MacDonald Productions
Жанр: Боевик, Триллер, Драма, Криминал
Длительность: 01:59:56

Режиссер: Майкл Манн
В ролях: Том Круз, Джейми Фокс, Джада Пинкетт Смит, Марк Руффало, Брюс Макгилл, Питер Берг, Бэрри Шебака Хенли, Ирма П. Холл, Хавьер Бардем, Эмилио Ривера

Описание: Водитель такси оказывается в положении заложника, когда к нему в машину садится наёмный убийца, заставляющий его наматывать километры по ночному Лос-Анджелесу от одной жертвы к другой. Нужно спасать - себя и последнюю намеченную убийцей цель…


Релиз-группа: RIPS CLUB
Исходник: Blu-Ray Remux 1080p (rutracker)
Видео: 1920x800, 11.8 Mbps
Аудио1: AC3, 6 ch, 448 Kbps - РусскийРусский, DUB
Аудио2: AC3, 6 ch, 448 Kbps - РусскийРусский, MVO (FDV)
Аудио3: AC3, 6 ch, 640 Kbps - РусскийРусский, DVO (Позитив-мультимедиа)
Аудио4: AC3, 6 ch, 640 Kbps - РусскийРусский, DVO (Tycoon)
Аудио5: AC3, 6 ch, 640 Kbps - РусскийРусский, AVO (Андрей Гаврилов)
Аудио6: AC3, 6 ch, 640 Kbps - РусскийРусский, AVO (Юрий Живов)
Аудио7: AC3, 6 ch, 640 Kbps - РусскийРусский, AVO (Юрий Сербин)
Аудио8: AC3, 2 ch, 192 Kbps - РусскийРусский, AVO (Владимир Королёв)
Аудио9: AC3, 2 ch, 192 Kbps - РусскийРусский, AVO (Сергей Визгунов)
Аудио10: AC3, 6 ch, 640 Kbps - РусскийРусский, VO (Дмитрий Есарев)
Аудио11: AC3, 6 ch, 640 Kbps - АнглийскийАнглийский
Субтитры: русские (SDH), английские (SDH)

Как за несколько секунд удалить ненужные аудиодорожки и субтитры (Внимание! После удаления вы не сможете поддержать раздачу)


Лог (x265 info)265 [info]: frame I: 728, Avg QP:17.05 kb/s: 23282.62
x265 [info]: frame P: 31786, Avg QP:18.20 kb/s: 19033.55
x265 [info]: frame B: 140022, Avg QP:20.45 kb/s: 10077.04
x265 [info]: Weighted P-Frames: Y:8.8% UV:7.7%
x265 [info]: Weighted B-Frames: Y:8.2% UV:7.0%
x265 [info]: encoded 172536 frames in 123746.62s (1.39 fps), 11782.80 kb/s, Avg QP:20.02
МедиаинфоОбщее
Уникальный идентификатор : 137766897910058435370269042354434007064 (0x67A4F07CB794909381F49B172FFAE018)
Полное имя : \\.\Соучастник.Collateral.2004.BDRip-HEVC.1080p.mkv
Формат : Matroska
Версия формата : Version 4
Размер файла : 14,7 Гбайт
Продолжительность : 1 ч. 59 мин.
Общий битрейт : 17,5 Мбит/сек
Частота кадров : 23,976 кадра/сек
Название фильма : Соучастник / Соучастник
Кодирование выполнил : OldGamer
Тип содержимого : Movie
Дата выпуска : 2004-08-04
Дата записи : 2004-08-04
Программа кодирования : mkvmerge v83.0 ('Circle Of Friends') 64-bit
Библиотека кодирования : libebml v1.4.5 + libmatroska v1.7.1 / xvid4psp5
Обложка : Yes
Attachments : cover.jpg
ACTOR : Jamie Foxx, Tom Cruise, Jada Pinkett Smith, Mark Ruffalo, Peter Berg, Javier Bardem, Bruce McGill, Klea Scott, Barry Shabaka Henley, Irma P. Hall, Richard T. Jones, Jamie McBride, Troy Blendell, Emilio Rivera, Bodhi Elfman, Debi Mazar, Ken Waters, Ch...
ARTIST : Jamie Foxx, Tom Cruise, Jada Pinkett Smith, Mark Ruffalo, Peter Berg, Javier Bardem, Bruce McGill, Klea Scott, Barry Shabaka Henley, Irma P. Hall, Richard T. Jones, Jamie McBride, Troy Blendell, Emilio Rivera, Bodhi Elfman, Debi Mazar, Ken Waters, Ch...
DIRECTOR : Michael Mann
GENRE : драма, криминал, триллер
LAW_RATING : R
PRODUCER : Michael Mann, Julie Richardson
PRODUCTION_STUDIO : DreamWorks Pictures
RATING : R
SYNOPSIS : Водитель такси оказывается в положении заложника, когда к нему в машину садится наемный убийца, заставляющий его наматывать километры по ночному Лос-Анджелесу от одной жертвы к другой. Нужно спасать — себя и последнюю намеченную убийцей цель…

Видео
Идентификатор : 1
Формат : HEVC
Формат/Информация : High Efficiency Video Coding
Профиль формата : Main 10@L4.1@High
Идентификатор кодека : V_MPEGH/ISO/HEVC
Продолжительность : 1 ч. 59 мин.
Битрейт : 11,8 Мбит/сек
Ширина : 1 920 пикселей
Высота : 800 пикселей
Соотношение сторон дисплея : 2,40:1
Режим частоты кадров : Постоянный
Частота кадров : 23,976 (24000/1001) кадра/сек
Цветовое пространство : YUV
Цветовая субдискретизация : 4:2:0
Битовая глубина : 10 бит
Бит/(Пиксели*Кадры) : 0.320
Размер потока : 9,87 Гбайт (67%)
Заголовок : Collateral / Rip by OldGamer
Библиотека кодирования : x265 3.5+110-8ee01d45b:[Windows][GCC 13.2.0][64 bit] 10bit
Параметры библиотеки кодирования : cpuid=1111039 / frame-threads=4 / numa-pools=16 / wpp / no-pmode / no-pme / no-psnr / no-ssim / log-level=2 / input-csp=1 / input-res=1920x800 / interlace=0 / total-frames=172536 / level-idc=41 / high-tier=1 / uhd-bd=0 / ref=5 / no-allow-non-conformance / no-repeat-headers / annexb / no-aud / no-eob / no-eos / no-hrd / info / hash=0 / temporal-layers=0 / open-gop / min-keyint=23 / keyint=240 / gop-lookahead=0 / bframes=16 / b-adapt=2 / b-pyramid / bframe-bias=0 / rc-lookahead=40 / lookahead-slices=0 / scenecut=40 / no-hist-scenecut / radl=0 / no-splice / no-intra-refresh / ctu=32 / min-cu-size=8 / rect / amp / max-tu-size=32 / tu-inter-depth=4 / tu-intra-depth=4 / limit-tu=1 / rdoq-level=2 / dynamic-rd=0.00 / no-ssim-rd / signhide / no-tskip / nr-intra=0 / nr-inter=0 / no-constrained-intra / no-strong-intra-smoothing / max-merge=5 / limit-refs=3 / no-limit-modes / me=3 / subme=7 / merange=57 / temporal-mvp / no-frame-dup / no-hme / weightp / weightb / no-analyze-src-pics / deblock=-2:-2 / no-sao / no-sao-non-deblock / rd=6 / selective-sao=0 / no-early-skip / no-rskip / no-fast-intra / no-tskip-fast / no-cu-lossless / b-intra / no-splitrd-skip / rdpenalty=0 / psy-rd=2.00 / psy-rdoq=1.00 / no-rd-refine / no-lossless / cbqpoffs=0 / crqpoffs=0 / rc=crf / crf=19.9 / qcomp=0.60 / qpstep=4 / stats-write=0 / stats-read=0 / vbv-maxrate=50000 / vbv-bufsize=50000 / vbv-init=0.9 / min-vbv-fullness=50.0 / max-vbv-fullness=80.0 / crf-max=0.0 / crf-min=0.0 / ipratio=1.40 / pbratio=1.30 / aq-mode=3 / aq-strength=1.00 / no-cutree / zone-count=1 / zones: / start-frame=162718 / end-frame=172536 / qp=36 / no-strict-cbr / qg-size=32 / no-rc-grain / qpmax=69 / qpmin=0 / no-const-vbv / sar=1 / overscan=0 / videoformat=5 / range=0 / colorprim=2 / transfer=2 / colormatrix=2 / chromaloc=0 / display-window=0 / cll=0,0 / min-luma=0 / max-luma=1023 / log2-max-poc-lsb=8 / vui-timing-info / vui-hrd-info / slices=1 / no-opt-qp-pps / no-opt-ref-list-length-pps / no-multi-pass-opt-rps / scenecut-bias=0.00 / no-opt-cu-delta-qp / no-aq-motion / no-hdr10 / no-hdr10-opt / no-dhdr10-opt / no-idr-recovery-sei / analysis-reuse-level=0 / analysis-save-reuse-level=0 / analysis-load-reuse-level=0 / scale-factor=0 / refine-intra=0 / refine-inter=0 / refine-mv=1 / refine-ctu-distortion=0 / no-limit-sao / ctu-info=0 / no-lowpass-dct / refine-analysis-type=0 / copy-pic=1 / max-ausize-factor=1.0 / no-dynamic-refine / no-single-sei / no-hevc-aq / no-svt / no-field / qp-adaptation-range=1.00 / scenecut-aware-qp=0conformance-window-offsets / right=0 / bottom=0 / decoder-max-rate=0 / no-vbv-live-multi-pass / no-mcstf / no-sbrc
Язык : Английский
По умолчанию : Да
Принудительно : Нет

Аудио #1
Идентификатор : 2
Формат : AC-3
Формат/Информация : Audio Coding 3
Коммерческое название : Dolby Digital
Идентификатор кодека : A_AC3
Продолжительность : 1 ч. 57 мин.
Вид битрейта : Постоянный
Битрейт : 448 Кбит/сек
Канал(-ы) : 6 каналов
Расположение каналов : L R C LFE Ls Rs
Частота дискретизации : 48,0 КГц
Частота кадров : 31,250 кадров/сек (1536 SPF)
Метод сжатия : С потерями
Задержка видео : 3 с. 400 мс.
Размер потока : 376 Мбайт (2%)
Заголовок : DUB
Язык : Русский
Вид сервиса : Complete Main
По умолчанию : Да
Принудительно : Нет
AC3_metadata cmixlev : -3.0 dB
surmixlev : -3 dB

Аудио #2
Идентификатор : 3
Формат : AC-3
Формат/Информация : Audio Coding 3
Коммерческое название : Dolby Digital
Идентификатор кодека : A_AC3
Продолжительность : 1 ч. 59 мин.
Вид битрейта : Постоянный
Битрейт : 448 Кбит/сек
Канал(-ы) : 6 каналов
Расположение каналов : L R C LFE Ls Rs
Частота дискретизации : 48,0 КГц
Частота кадров : 31,250 кадров/сек (1536 SPF)
Метод сжатия : С потерями
Размер потока : 384 Мбайт (3%)
Заголовок : MVO (FDV)
Язык : Русский
Вид сервиса : Complete Main
По умолчанию : Нет
Принудительно : Нет
AC3_metadata cmixlev : -4.5 dB
surmixlev : -6 dB

Аудио #3
Идентификатор : 4
Формат : AC-3
Формат/Информация : Audio Coding 3
Коммерческое название : Dolby Digital
Идентификатор кодека : A_AC3
Продолжительность : 1 ч. 59 мин.
Вид битрейта : Постоянный
Битрейт : 640 Кбит/сек
Канал(-ы) : 6 каналов
Расположение каналов : L R C LFE Ls Rs
Частота дискретизации : 48,0 КГц
Частота кадров : 31,250 кадров/сек (1536 SPF)
Метод сжатия : С потерями
Размер потока : 549 Мбайт (4%)
Заголовок : DVO (Позитив-мультимедиа)
Язык : Русский
Вид сервиса : Complete Main
По умолчанию : Нет
Принудительно : Нет
AC3_metadata cmixlev : -4.5 dB
surmixlev : -6 dB

Аудио #4
Идентификатор : 5
Формат : AC-3
Формат/Информация : Audio Coding 3
Коммерческое название : Dolby Digital
Идентификатор кодека : A_AC3
Продолжительность : 1 ч. 59 мин.
Вид битрейта : Постоянный
Битрейт : 640 Кбит/сек
Канал(-ы) : 6 каналов
Расположение каналов : L R C LFE Ls Rs
Частота дискретизации : 48,0 КГц
Частота кадров : 31,250 кадров/сек (1536 SPF)
Метод сжатия : С потерями
Размер потока : 549 Мбайт (4%)
Заголовок : DVO (Tycoon)
Язык : Русский
Вид сервиса : Complete Main
По умолчанию : Нет
Принудительно : Нет
AC3_metadata cmixlev : -4.5 dB
surmixlev : -6 dB

Аудио #5
Идентификатор : 6
Формат : AC-3
Формат/Информация : Audio Coding 3
Коммерческое название : Dolby Digital
Идентификатор кодека : A_AC3
Продолжительность : 1 ч. 59 мин.
Вид битрейта : Постоянный
Битрейт : 640 Кбит/сек
Канал(-ы) : 6 каналов
Расположение каналов : L R C LFE Ls Rs
Частота дискретизации : 48,0 КГц
Частота кадров : 31,250 кадров/сек (1536 SPF)
Метод сжатия : С потерями
Размер потока : 549 Мбайт (4%)
Заголовок : AVO (Андрей Гаврилов)
Язык : Русский
Вид сервиса : Complete Main
По умолчанию : Нет
Принудительно : Нет
AC3_metadata cmixlev : -4.5 dB
surmixlev : -6 dB

Аудио #6
Идентификатор : 7
Формат : AC-3
Формат/Информация : Audio Coding 3
Коммерческое название : Dolby Digital
Идентификатор кодека : A_AC3
Продолжительность : 1 ч. 59 мин.
Вид битрейта : Постоянный
Битрейт : 640 Кбит/сек
Канал(-ы) : 6 каналов
Расположение каналов : L R C LFE Ls Rs
Частота дискретизации : 48,0 КГц
Частота кадров : 31,250 кадров/сек (1536 SPF)
Метод сжатия : С потерями
Размер потока : 549 Мбайт (4%)
Заголовок : AVO (Юрий Живов)
Язык : Русский
Вид сервиса : Complete Main
По умолчанию : Нет
Принудительно : Нет
AC3_metadata cmixlev : -4.5 dB
surmixlev : -6 dB

Аудио #7
Идентификатор : 8
Формат : AC-3
Формат/Информация : Audio Coding 3
Коммерческое название : Dolby Digital
Идентификатор кодека : A_AC3
Продолжительность : 1 ч. 59 мин.
Вид битрейта : Постоянный
Битрейт : 640 Кбит/сек
Канал(-ы) : 6 каналов
Расположение каналов : L R C LFE Ls Rs
Частота дискретизации : 48,0 КГц
Частота кадров : 31,250 кадров/сек (1536 SPF)
Метод сжатия : С потерями
Размер потока : 549 Мбайт (4%)
Заголовок : AVO (Юрий Сербин)
Язык : Русский
Вид сервиса : Complete Main
По умолчанию : Нет
Принудительно : Нет
AC3_metadata cmixlev : -4.5 dB
surmixlev : -6 dB

Аудио #8
Идентификатор : 9
Формат : AC-3
Формат/Информация : Audio Coding 3
Коммерческое название : Dolby Digital
Идентификатор кодека : A_AC3
Продолжительность : 1 ч. 59 мин.
Вид битрейта : Постоянный
Битрейт : 192 Кбит/сек
Канал(-ы) : 2 канала
Расположение каналов : L R
Частота дискретизации : 44,1 КГц
Частота кадров : 28,711 кадров/сек (1536 SPF)
Метод сжатия : С потерями
Размер потока : 165 Мбайт (1%)
Заголовок : AVO (Владимир Королёв)
Язык : Русский
Вид сервиса : Complete Main
По умолчанию : Нет
Принудительно : Нет

Аудио #9
Идентификатор : 10
Формат : AC-3
Формат/Информация : Audio Coding 3
Коммерческое название : Dolby Digital
Идентификатор кодека : A_AC3
Продолжительность : 1 ч. 59 мин.
Вид битрейта : Постоянный
Битрейт : 192 Кбит/сек
Канал(-ы) : 2 канала
Расположение каналов : L R
Частота дискретизации : 48,0 КГц
Частота кадров : 31,250 кадров/сек (1536 SPF)
Метод сжатия : С потерями
Размер потока : 165 Мбайт (1%)
Заголовок : AVO (Сергей Визгунов)
Язык : Русский
Вид сервиса : Complete Main
По умолчанию : Нет
Принудительно : Нет

Аудио #10
Идентификатор : 11
Формат : AC-3
Формат/Информация : Audio Coding 3
Коммерческое название : Dolby Digital
Идентификатор кодека : A_AC3
Продолжительность : 1 ч. 59 мин.
Вид битрейта : Постоянный
Битрейт : 640 Кбит/сек
Канал(-ы) : 6 каналов
Расположение каналов : L R C LFE Ls Rs
Частота дискретизации : 48,0 КГц
Частота кадров : 31,250 кадров/сек (1536 SPF)
Метод сжатия : С потерями
Размер потока : 549 Мбайт (4%)
Заголовок : VO (Дмитрий Есарев)
Язык : Русский
Вид сервиса : Complete Main
По умолчанию : Нет
Принудительно : Нет
AC3_metadata cmixlev : -4.5 dB
surmixlev : -6 dB

Аудио #11
Идентификатор : 12
Формат : AC-3
Формат/Информация : Audio Coding 3
Коммерческое название : Dolby Digital
Идентификатор кодека : A_AC3
Продолжительность : 1 ч. 59 мин.
Вид битрейта : Постоянный
Битрейт : 640 Кбит/сек
Канал(-ы) : 6 каналов
Расположение каналов : L R C LFE Ls Rs
Частота дискретизации : 48,0 КГц
Частота кадров : 31,250 кадров/сек (1536 SPF)
Метод сжатия : С потерями
Размер потока : 549 Мбайт (4%)
Язык : Английский
Вид сервиса : Complete Main
По умолчанию : Нет
Принудительно : Нет
AC3_metadata cmixlev : -3.0 dB
surmixlev : -3 dB

Текст #1
Идентификатор : 13
Формат : UTF-8
Идентификатор кодека : S_TEXT/UTF8
Идентификатор кодека/Информация : UTF-8 Plain Text
Продолжительность : 1 ч. 49 мин.
Битрейт : 85 бит/сек
Частота кадров : 0,167 кадр/сек
Число элементов : 1099
Размер потока : 68,4 КиБ (0%)
Заголовок : Russian @ SRT (Tycoon)
Язык : Русский
По умолчанию : Нет
Принудительно : Нет

Текст #2
Идентификатор : 14
Формат : UTF-8
Идентификатор кодека : S_TEXT/UTF8
Идентификатор кодека/Информация : UTF-8 Plain Text
Продолжительность : 1 ч. 50 мин.
Битрейт : 90 бит/сек
Частота кадров : 0,181 кадр/сек
Число элементов : 1203
Размер потока : 73,6 КиБ (0%)
Заголовок : Russian @ SRT SDH (Киномания)
Язык : Русский
По умолчанию : Нет
Принудительно : Нет

Текст #3
Идентификатор : 15
Формат : UTF-8
Идентификатор кодека : S_TEXT/UTF8
Идентификатор кодека/Информация : UTF-8 Plain Text
Продолжительность : 1 ч. 49 мин.
Битрейт : 55 бит/сек
Частота кадров : 0,176 кадр/сек
Число элементов : 1157
Размер потока : 44,4 КиБ (0%)
Заголовок : English @ SRT
Язык : Английский
По умолчанию : Нет
Принудительно : Нет

Текст #4
Идентификатор : 16
Формат : UTF-8
Идентификатор кодека : S_TEXT/UTF8
Идентификатор кодека/Информация : UTF-8 Plain Text
Продолжительность : 1 ч. 50 мин.
Битрейт : 52 бит/сек
Частота кадров : 0,181 кадр/сек
Число элементов : 1200
Размер потока : 42,7 КиБ (0%)
Заголовок : English @ SRT SDH
Язык : Английский
По умолчанию : Нет
Принудительно : Нет

Текст #5
Идентификатор : 17
Формат : UTF-8
Идентификатор кодека : S_TEXT/UTF8
Идентификатор кодека/Информация : UTF-8 Plain Text
Продолжительность : 1 ч. 50 мин.
Битрейт : 59 бит/сек
Частота кадров : 0,181 кадр/сек
Число элементов : 1200
Размер потока : 48,1 КиБ (0%)
Заголовок : English @ SRT SDH Colored
Язык : Английский
По умолчанию : Нет
Принудительно : Нет

Меню
00:00:00.000 : en:Night Shift
00:13:19.340 : en:The Passenger
00:17:55.074 : en:First Target
00:24:21.710 : en:Max's Panic
00:27:19.429 : en:Police Traffic Stop
00:29:57.129 : en:Lenny the Dispatcher
00:33:49.653 : en:Getting Mugged
00:37:05.723 : en:Lapd Crime Scene
00:39:29.033 : en:The Jazzman
00:47:57.666 : en:Ida in the Hospital
00:54:10.038 : en:Revelation in the Morgue
00:56:11.827 : en:To El Rodeo
00:59:01.121 : en:Felix
01:12:19.001 : en:Fbi on the Tail
01:16:18.699 : en:Coyotes in Koreatown
01:18:40.090 : en:Club Fever
01:25:35.130 : en:Max Rebels
01:34:46.598 : en:Last Stop
01:45:06.675 : en:Murder on the Mta
01:53:06.738 : en:End Credits
Загрузка...Cкриншот1 Соучастник / Collateral (2004) BDRip 1080p [HEVC] 10 bit от OldGamer (RG RIPS CLUB)Загрузка...Cкриншот2 Соучастник / Collateral (2004) BDRip 1080p [HEVC] 10 bit от OldGamer (RG RIPS CLUB)Загрузка...Cкриншот3 Соучастник / Collateral (2004) BDRip 1080p [HEVC] 10 bit от OldGamer (RG RIPS CLUB)Загрузка...Cкриншот4 Соучастник / Collateral (2004) BDRip 1080p [HEVC] 10 bit от OldGamer (RG RIPS CLUB)
Поблагодарили: 8and50, AndresUA, aquarius, Brooklyn, Miss Exclusive 888, natali, sharkey71, Winsent
Файлы: 1
  • Соучастник.Collateral.2004.BDRip-HEVC.1080p.mkv

Рейтинги КП и IMDB, кнопки "Раздайте, пожалуйста" и "Спасибо", а также мультитрекерная статистика доступны только зарегистрированным/авторизованным пользователям!

OldGamer
84147214.69 ГБ

💬︎ Комментарии

Добавление комментариев доступно только зарегистрированным/авторизованным пользователям.

Всего: 2
Аватар OldGamer
OldGamer
Здесь результат с деревом мне не понравился, битрейт снижался примерно на 1.5, а мыло было ощутимым.
Аватар не указан
mikos
Попробуй в таких зернистых фильмах включать --cutree. Только crf ставь на 0.6-1.0 меньше. Функция хорошо работает на зернистых фильмах. Битрейт на 20-30 процентов упадет.