Чат

⚫︎
Список изменений сайта - https://rips.club/changelog.html (обновлен 24.05.2024)
  • arwis
Онлайн (за 10 мин.): 1
Отправка сообщений доступна только зарегистрированным/авторизованным пользователям.

🎥︎До встречи с тобой / Me Before You (2016) BDRip 1080p [HEVC] 10 bit от NoMaD


Обложка До встречи с тобой / Me Before You (2016) BDRip 1080p [HEVC] 10 bit от NoMaD
HEVC
10 bit
✂︎Сэмпл⤓︎Торрент🧲︎Магнет$Пожертвования
Год: 2016
Страна: Великобритания, США
Студия: Metro-Goldwyn-Mayer (MGM), New Line Cinema
Жанр: Драма, Мелодрама
Длительность: 01:50:14

Режиссер: Теа Шэррок
В ролях: Эмилия Кларк, Сэм Клафлин, Джанет Мактир, Чарльз Дэнс, Брендан Койл, Дженна Коулман, Мэттью Льюис, Бен Ллойд-Хьюз, Ванесса Кирби, Стивен Пикок

Описание: Лу Кларк знает, сколько шагов от автобусной остановки до ее дома. Она знает, что ей очень нравится работа в кафе и что, скорее всего, она не любит своего бойфренда Патрика. Но Лу не знает, что вот-вот потеряет свою работу и что в ближайшем будущем ей понадобятся все силы, чтобы преодолеть свалившиеся на нее проблемы. Уилл Трейнор знает, что сбивший его мотоциклист отнял у него желание жить. И он точно знает, что надо сделать, чтобы положить конец всему этому. Но он не знает, что Лу скоро ворвется в его мир буйством красок. И они оба не знают, что навсегда изменят жизнь друг друга.


Видео: 1920x804, ~6133 Кбит/сек
Аудио1: AC3, 6 ch, 448 Kbps - РусскийРусский, Дублированный (Лицензия)
Аудио2: AC3, 6 ch, 448 Kbps - АнглийскийАнглийский, Оригинал
Субтитры: русские (полные), английские (полные)

Как за несколько секунд удалить ненужные аудиодорожки и субтитры (Внимание! После удаления вы не сможете поддержать раздачу)


МедиаинфоОбщее
Уникальный идентификатор : 32784346455854276771593264480214222527 (0x18AA09138E5038F81489177DDDB286BF)
Полное имя : До встречи с тобой (2016) BDRip 1080p [HEVC] 10 bit.mkv
Формат : Matroska
Версия формата : Version 4
Размер файла : 5,41 Гбайт
Продолжительность : 1 ч. 50 м.
Общий поток : 7032 Кбит/сек
Название фильма : До встречи с тобой (2016) Encoded_by_NoMaD
Дата кодирования : UTC 2019-05-06 00:44:38
Программа кодирования : mkvmerge v30.1.0 ('Forever And More') 64-bit
Библиотека кодирования : libebml v1.3.6 + libmatroska v1.4.9
Обложка : Yes
Attachments : cover1.jpg

Видео
Идентификатор : 1
Формат : HEVC
Формат/Информация : High Efficiency Video Coding
Профиль формата : Main 10@L4.1@High
Идентификатор кодека : V_MPEGH/ISO/HEVC
Продолжительность : 1 ч. 50 м.
Битрейт : 6133 Кбит/сек
Ширина : 1920 пикселей
Высота : 804 пикселя
Соотношение сторон : 2,40:1
Режим частоты кадров : Постоянный
Частота кадров : 23,976 (24000/1001) кадра/сек
Цветовое пространство : YUV
Субдискретизация насыщенности : 4:2:0
Битовая глубина : 10 бит
Бит/(Пиксели*Кадры) : 0.166
Размер потока : 4,72 Гбайт (87%)
Заголовок : До встречи с тобой (2016) Encoded_by_NoMaD
Библиотека кодирования : x265 2.9+9-f74003e88622:[Windows][GCC 8.2.0][64 bit] 10bit
Настройки программы : cpuid=1111039 / frame-threads=9 / numa-pools=8 / wpp / no-pmode / no-pme / no-psnr / no-ssim / log-level=3 / input-csp=1 / input-res=1920x804 / interlace=0 / total-frames=0 / level-idc=41 / high-tier=1 / uhd-bd=0 / ref=5 / allow-non-conformance / no-repeat-headers / annexb / no-aud / no-hrd / info / hash=0 / no-temporal-layers / open-gop / min-keyint=24 / keyint=240 / gop-lookahead=0 / bframes=16 / b-adapt=2 / b-pyramid / bframe-bias=0 / rc-lookahead=40 / lookahead-slices=5 / scenecut=40 / radl=0 / no-intra-refresh / ctu=32 / min-cu-size=8 / rect / amp / max-tu-size=32 / tu-inter-depth=1 / tu-intra-depth=1 / limit-tu=0 / rdoq-level=0 / dynamic-rd=0.00 / no-ssim-rd / signhide / no-tskip / nr-intra=0 / nr-inter=0 / no-constrained-intra / no-strong-intra-smoothing / max-merge=5 / limit-refs=3 / no-limit-modes / me=3 / subme=7 / merange=57 / temporal-mvp / weightp / weightb / no-analyze-src-pics / deblock=-3:-3 / no-sao / no-sao-non-deblock / rd=6 / no-early-skip / no-rskip / no-fast-intra / no-tskip-fast / no-cu-lossless / no-b-intra / no-splitrd-skip / rdpenalty=0 / psy-rd=2.00 / psy-rdoq=0.00 / no-rd-refine / no-lossless / cbqpoffs=0 / crqpoffs=0 / rc=crf / crf=20.0 / qcomp=0.60 / qpstep=4 / stats-write=0 / stats-read=0 / vbv-maxrate=50000 / vbv-bufsize=50000 / vbv-init=0.9 / crf-max=0.0 / crf-min=0.0 / ipratio=1.40 / pbratio=1.30 / aq-mode=3 / aq-strength=1.00 / no-cutree / zone-count=0 / no-strict-cbr / qg-size=32 / no-rc-grain / qpmax=69 / qpmin=0 / no-const-vbv / sar=1 / overscan=0 / videoformat=5 / range=0 / colorprim=1 / transfer=1 / colormatrix=1 / chromaloc=0 / display-window=0 / max-cll=0,0 / min-luma=0 / max-luma=1023 / log2-max-poc-lsb=8 / vui-timing-info / vui-hrd-info / slices=1 / no-opt-qp-pps / no-opt-ref-list-length-pps / no-multi-pass-opt-rps / scenecut-bias=0.05 / no-opt-cu-delta-qp / no-aq-motion / no-hdr / no-hdr-opt / no-dhdr10-opt / no-idr-recovery-sei / analysis-reuse-level=5 / scale-factor=0 / refine-intra=0 / refine-inter=0 / refine-mv=0 / no-limit-sao / ctu-info=0 / no-lowpass-dct / refine-mv-type=0 / copy-pic=1 / max-ausize-factor=1.0 / no-dynamic-refine / no-single-sei
Язык : English
Default : Да
Forced : Нет
Цветовой диапазон : Limited
Основные цвета : BT.709
Характеристики трансфера : BT.709
Коэффициенты матрицы : BT.709

Аудио #1
Идентификатор : 2
Формат : AC-3
Формат/Информация : Audio Coding 3
Коммерческое название : Dolby Digital
Идентификатор кодека : A_AC3
Продолжительность : 1 ч. 50 м.
Вид битрейта : Постоянный
Битрейт : 448 Кбит/сек
Каналы : 6 каналов
ChannelLayout : L R C LFE Ls Rs
Частота : 48,0 КГц
Частота кадров : 31,250 кадров/сек (1536 SPF)
Битовая глубина : 16 бит
Метод сжатия : С потерями
Размер потока : 353 Мбайт (6%)
Заголовок : Дубляж
Язык : Russian
Default : Да
Forced : Нет

Аудио #2
Идентификатор : 3
Формат : AC-3
Формат/Информация : Audio Coding 3
Коммерческое название : Dolby Digital
Идентификатор кодека : A_AC3
Продолжительность : 1 ч. 50 м.
Вид битрейта : Постоянный
Битрейт : 448 Кбит/сек
Каналы : 6 каналов
ChannelLayout : L R C LFE Ls Rs
Частота : 48,0 КГц
Частота кадров : 31,250 кадров/сек (1536 SPF)
Битовая глубина : 16 бит
Метод сжатия : С потерями
Размер потока : 353 Мбайт (6%)
Заголовок : Оригинал
Язык : English
Default : Нет
Forced : Нет

Текст #1
Идентификатор : 4
Формат : UTF-8
Идентификатор кодека : S_TEXT/UTF8
Идентификатор кодека/Информация : UTF-8 Plain Text
Продолжительность : 1 ч. 45 м.
Битрейт : 95 бит/сек
ElementCount : 1638
Размер потока : 73,8 Кбайт (0%)
Заголовок : Rus Full
Язык : Russian
Default : Нет
Forced : Нет

Текст #2
Идентификатор : 5
Формат : UTF-8
Идентификатор кодека : S_TEXT/UTF8
Идентификатор кодека/Информация : UTF-8 Plain Text
Продолжительность : 1 ч. 45 м.
Битрейт : 63 бит/сек
ElementCount : 1640
Размер потока : 49,0 Кбайт (0%)
Заголовок : Eng Full
Язык : English
Default : Нет
Forced : Нет

Меню
00:00:00.000 : :1
00:12:40.969 : :2
00:20:01.575 : :3
00:29:06.244 : :4
00:39:38.418 : :5
00:49:13.868 : :6
01:01:15.547 : :7
01:10:16.796 : :8
01:19:16.418 : :9
01:32:06.479 : :10
01:37:58.331 : :11
01:45:55.349 : :12
Загрузка...Cкриншот1 До встречи с тобой / Me Before You (2016) BDRip 1080p [HEVC] 10 bit от NoMaDЗагрузка...Cкриншот2 До встречи с тобой / Me Before You (2016) BDRip 1080p [HEVC] 10 bit от NoMaDЗагрузка...Cкриншот3 До встречи с тобой / Me Before You (2016) BDRip 1080p [HEVC] 10 bit от NoMaDЗагрузка...Cкриншот4 До встречи с тобой / Me Before You (2016) BDRip 1080p [HEVC] 10 bit от NoMaD
Поблагодарили: 3A1eksandr1, Broadcast, Miss Exclusive 888
Файлы: 1
  • До встречи с тобой (2016) BDRip 1080p [HEVC] 10 bit.mkv

Рейтинги КП и IMDB, кнопки "Раздайте, пожалуйста" и "Спасибо", а также мультитрекерная статистика доступны только зарегистрированным/авторизованным пользователям!

Гл. Админ
003405.41 ГБ

💬︎ Комментарии

Добавление комментариев доступно только зарегистрированным/авторизованным пользователям.