Чат

⚫︎
Список изменений сайта - https://rips.club/changelog.html (обновлен 24.05.2024)
    Онлайн (за 10 мин.): 0
    Отправка сообщений доступна только зарегистрированным/авторизованным пользователям.

    🎥︎Адреналин / Crank (2006) [Theatrical Cut] BDRip 1080p [HEVC] 10 bit от OldGamer (RG RIPS CLUB)


    Обложка Адреналин / Crank (2006) [Theatrical Cut] BDRip 1080p [HEVC] 10 bit от OldGamer (RG RIPS CLUB)
    HEVC
    10 bit
    ✂︎Сэмпл⤓︎Торрент🧲︎Магнет$Пожертвования

    При перезаливке на другие сайты просьба указать автора и релиз-группу.


    Год: 2006
    Страна: США
    Студия: @ radical media, GreeneStreet Films Inc., Karno's Film, Lakeshore Entertainment
    Жанр: Боевик, Триллер, Криминал
    Длительность: 01:27:42

    Режиссер: Марк Невелдайн, Брайан Тейлор
    В ролях: Джейсон Стэйтем, Эми Смарт, Хосе Пабло Кантильо, Эфрен Рамирес, Дуайт Йоакам, Карлос Санс, Рено Уилсон, Эди Гатеги, Гленн Хауэртон, Джей Ксала

    Описание: Наёмный убийца Чев узнаёт, что недоброжелатели отравили его редким китайским ядом и отрава начнёт действовать немедленно, как только пульс перестанет биться ниже определённой отметки. И теперь Чеву нужно успеть сделать все свои дела, попробовать раздобыть противоядие и отомстить своим отравителям в прямом смысле слова впопыхах - стараясь создавать вокруг себя как можно более напряжённую обстановку и не расслабляться ни на секунду.


    Релиз-группа: RIPS CLUB
    Исходник: Blu-Ray Remux 1080p (rutracker)
    Видео: 1920x1080, ~10.8 Mbps
    Аудио1: AC3, 6 ch, 640 Kbps - РусскийРусский, DUB
    Аудио2: AC3, 6 ch, 640 Kbps - АнглийскийАнглийский
    Субтитры: русские, английские

    Как за несколько секунд удалить ненужные аудиодорожки и субтитры (Внимание! После удаления вы не сможете поддержать раздачу)


    Лог (x265 info)x265 [info]: frame I: 537, Avg QP:17.76 kb/s: 23956.57
    x265 [info]: frame P: 28593, Avg QP:19.28 kb/s: 18896.35
    x265 [info]: frame B: 97038, Avg QP:21.47 kb/s: 8369.07
    x265 [info]: Weighted P-Frames: Y:5.7% UV:4.7%
    x265 [info]: Weighted B-Frames: Y:4.9% UV:3.7%
    x265 [info]: encoded 126168 frames in 110210.15s (1.14 fps), 10821.18 kb/s, Avg QP:20.96
    МедиаинфоОбщее
    Уникальный идентификатор : 291122092633019720998958299718832556053 (0xDB041358639C84A9D6948BC4A6370815)
    Полное имя : \\.\Адреналин.Crank.2006.Theatrical.Cut.BDRip-HEVC.1080p.mkv
    Формат : Matroska
    Версия формата : Version 4
    Размер файла : 7,42 Гбайт
    Продолжительность : 1 ч. 27 мин.
    Общий битрейт : 12,1 Мбит/сек
    Частота кадров : 23,976 кадра/сек
    Название фильма : Адреналин / Адреналин
    Кодирование выполнил : OldGamer
    Тип содержимого : Movie
    Описание : «Есть тысяча способов поднять адреналин... Сегодня ему нужны все!»
    Дата выпуска : 2006-08-31
    Дата записи : 2006-08-31
    Программа кодирования : mkvmerge v83.0 ('Circle Of Friends') 64-bit
    Библиотека кодирования : libebml v1.4.5 + libmatroska v1.7.1 / xvid4psp5
    Обложка : Yes
    Attachments : cover.jpg
    ACTOR : Джейсон Стейтем, Эми Смарт, Jose Pablo Cantillo, Efren Ramirez, Dwight Yoakam, Carlos Sanz, Reno Wilson, Edi Gathegi, Glenn Howerton, Jay Xcala, Keone Young, Valarie Rae Miller, Yousuf Azami, Laurent Schwaar, David Brown, Dorian Kingi, Med Abrous, Da...
    ARTIST : Джейсон Стейтем, Эми Смарт, Jose Pablo Cantillo, Efren Ramirez, Dwight Yoakam, Carlos Sanz, Reno Wilson, Edi Gathegi, Glenn Howerton, Jay Xcala, Keone Young, Valarie Rae Miller, Yousuf Azami, Laurent Schwaar, David Brown, Dorian Kingi, Med Abrous, Da...
    DIRECTOR : Brian Taylor, Mark Neveldine
    GENRE : боевик, триллер, криминал
    LAW_RATING : R
    PRODUCER : Michael Davis, Gary Lucchesi, Tom Rosenberg, Skip Williamson
    PRODUCTION_STUDIO : Lionsgate
    RATING : R
    SCREENPLAY_BY : Brian Taylor, Mark Neveldine
    SUMMARY : «Есть тысяча способов поднять адреналин... Сегодня ему нужны все!»
    SYNOPSIS : Наёмный убийца Чев узнает, что недоброжелатели отравили его редким китайским ядом и отрава начнёт действовать немедленно, как только пульс перестанет биться ниже определённой отметки. И теперь Чеву нужно успеть сделать все свои дела, попробовать раздобыть противоядие и отомстить своим отравителям в прямом смысле слова впопыхах — стараясь создавать вокруг себя как можно более напряжённую обстановку и не расслабляться ни на секунду.
    WRITTEN_BY : Brian Taylor, Mark Neveldine

    Видео
    Идентификатор : 1
    Формат : HEVC
    Формат/Информация : High Efficiency Video Coding
    Профиль формата : Main 10@L4.1@High
    Идентификатор кодека : V_MPEGH/ISO/HEVC
    Продолжительность : 1 ч. 27 мин.
    Битрейт : 10,8 Мбит/сек
    Ширина : 1 920 пикселей
    Высота : 1 080 пикселей
    Соотношение сторон дисплея : 16:9
    Режим частоты кадров : Постоянный
    Частота кадров : 23,976 (24000/1001) кадра/сек
    Цветовое пространство : YUV
    Цветовая субдискретизация : 4:2:0
    Битовая глубина : 10 бит
    Бит/(Пиксели*Кадры) : 0.218
    Размер потока : 6,63 Гбайт (89%)
    Заголовок : Crank / Rip by OldGamer
    Библиотека кодирования : x265 3.6+12-f3c5fbaff:[Windows][GCC 14.1.0][64 bit] 10bit
    Параметры библиотеки кодирования : cpuid=1111039 / frame-threads=4 / numa-pools=16 / wpp / no-pmode / no-pme / no-psnr / no-ssim / log-level=2 / input-csp=1 / input-res=1920x1080 / interlace=0 / total-frames=126168 / level-idc=41 / high-tier=1 / uhd-bd=0 / ref=5 / no-allow-non-conformance / no-repeat-headers / annexb / no-aud / no-eob / no-eos / no-hrd / info / hash=0 / temporal-layers=0 / open-gop / min-keyint=23 / keyint=240 / gop-lookahead=0 / bframes=16 / b-adapt=2 / b-pyramid / bframe-bias=0 / rc-lookahead=40 / lookahead-slices=0 / scenecut=40 / no-hist-scenecut / radl=0 / no-splice / no-intra-refresh / ctu=32 / min-cu-size=8 / rect / amp / max-tu-size=32 / tu-inter-depth=4 / tu-intra-depth=4 / limit-tu=1 / rdoq-level=2 / dynamic-rd=0.00 / no-ssim-rd / signhide / no-tskip / nr-intra=0 / nr-inter=0 / no-constrained-intra / no-strong-intra-smoothing / max-merge=5 / limit-refs=3 / no-limit-modes / me=3 / subme=7 / merange=57 / temporal-mvp / no-frame-dup / no-hme / weightp / weightb / no-analyze-src-pics / deblock=-2:-2 / no-sao / no-sao-non-deblock / rd=6 / selective-sao=0 / no-early-skip / no-rskip / no-fast-intra / no-tskip-fast / no-cu-lossless / b-intra / no-splitrd-skip / rdpenalty=0 / psy-rd=2.00 / psy-rdoq=1.00 / no-rd-refine / no-lossless / cbqpoffs=0 / crqpoffs=0 / rc=crf / crf=20.3 / qcomp=0.75 / qpstep=4 / stats-write=0 / stats-read=0 / vbv-maxrate=50000 / vbv-bufsize=50000 / vbv-init=0.9 / min-vbv-fullness=50.0 / max-vbv-fullness=80.0 / crf-max=0.0 / crf-min=0.0 / ipratio=1.40 / pbratio=1.30 / aq-mode=1 / aq-strength=1.00 / no-cutree / zone-count=1 / zones: / start-frame=119218 / end-frame=125809 / qp=36 / no-strict-cbr / qg-size=32 / no-rc-grain / qpmax=69 / qpmin=0 / no-const-vbv / sar=1 / overscan=0 / videoformat=5 / range=0 / colorprim=2 / transfer=2 / colormatrix=2 / chromaloc=0 / display-window=0 / cll=0,0 / min-luma=0 / max-luma=1023 / log2-max-poc-lsb=8 / vui-timing-info / vui-hrd-info / slices=1 / no-opt-qp-pps / no-opt-ref-list-length-pps / no-multi-pass-opt-rps / scenecut-bias=0.00 / no-opt-cu-delta-qp / no-aq-motion / no-hdr10 / no-hdr10-opt / no-dhdr10-opt / no-idr-recovery-sei / analysis-reuse-level=0 / analysis-save-reuse-level=0 / analysis-load-reuse-level=0 / scale-factor=0 / refine-intra=0 / refine-inter=0 / refine-mv=1 / refine-ctu-distortion=0 / no-limit-sao / ctu-info=0 / no-lowpass-dct / refine-analysis-type=0 / copy-pic=1 / max-ausize-factor=1.0 / no-dynamic-refine / no-single-sei / no-hevc-aq / no-svt / no-field / qp-adaptation-range=1.00 / scenecut-aware-qp=0conformance-window-offsets / right=0 / bottom=0 / decoder-max-rate=0 / no-vbv-live-multi-pass / no-mcstf / no-sbrc
    Язык : Английский
    По умолчанию : Да
    Принудительно : Нет

    Аудио #1
    Идентификатор : 2
    Идентификатор в исходном носителе информ : 4353 (0x1101)
    Формат : AC-3
    Формат/Информация : Audio Coding 3
    Коммерческое название : Dolby Digital
    Идентификатор кодека : A_AC3
    Продолжительность : 1 ч. 27 мин.
    Вид битрейта : Постоянный
    Битрейт : 640 Кбит/сек
    Канал(-ы) : 6 каналов
    Расположение каналов : L R C LFE Ls Rs
    Частота дискретизации : 48,0 КГц
    Частота кадров : 31,250 кадров/сек (1536 SPF)
    Метод сжатия : С потерями
    Размер потока : 401 Мбайт (5%)
    Язык : Русский
    Вид сервиса : Complete Main
    По умолчанию : Да
    Принудительно : Нет
    Носитель оригинала : Blu-ray
    Нормализация звука речи : -31 dB
    cmixlev : -3.0 dB
    surmixlev : -3 dB
    dialnorm_Average : -31 dB
    dialnorm_Minimum : -31 dB
    dialnorm_Maximum : -31 dB

    Аудио #2
    Идентификатор : 3
    Формат : AC-3
    Формат/Информация : Audio Coding 3
    Коммерческое название : Dolby Digital
    Идентификатор кодека : A_AC3
    Продолжительность : 1 ч. 27 мин.
    Вид битрейта : Постоянный
    Битрейт : 640 Кбит/сек
    Канал(-ы) : 6 каналов
    Расположение каналов : L R C LFE Ls Rs
    Частота дискретизации : 48,0 КГц
    Частота кадров : 31,250 кадров/сек (1536 SPF)
    Метод сжатия : С потерями
    Размер потока : 401 Мбайт (5%)
    Язык : Английский
    Вид сервиса : Complete Main
    По умолчанию : Нет
    Принудительно : Нет
    Нормализация звука речи : -27 dB
    compr : -0.28 dB
    dynrng : 17.92 dB
    cmixlev : -3.0 dB
    surmixlev : -3 dB
    mixlevel : 285 dB
    roomtyp : Small
    dialnorm_Average : -27 dB
    dialnorm_Minimum : -27 dB
    dialnorm_Maximum : -27 dB

    Текст #1
    Идентификатор : 4
    Формат : UTF-8
    Идентификатор кодека : S_TEXT/UTF8
    Идентификатор кодека/Информация : UTF-8 Plain Text
    Продолжительность : 1 ч. 19 мин.
    Битрейт : 85 бит/сек
    Частота кадров : 0,244 кадр/сек
    Число элементов : 1170
    Размер потока : 50,2 КиБ (0%)
    Язык : Русский
    По умолчанию : Нет
    Принудительно : Нет

    Текст #2
    Идентификатор : 5
    Формат : UTF-8
    Идентификатор кодека : S_TEXT/UTF8
    Идентификатор кодека/Информация : UTF-8 Plain Text
    Продолжительность : 1 ч. 19 мин.
    Битрейт : 54 бит/сек
    Частота кадров : 0,205 кадр/сек
    Число элементов : 974
    Размер потока : 31,5 КиБ (0%)
    Язык : Английский
    По умолчанию : Нет
    Принудительно : Нет

    Меню
    00:00:00.000 : en:A Dead Man
    00:06:46.114 : en:Putting the Word Out
    00:13:48.077 : en:Window Shopping
    00:17:12.281 : en:Refueling
    00:21:58.608 : en:Adrenaline Junky
    00:26:43.935 : en:Brotherly Love
    00:35:02.683 : en:Running Mad
    00:39:16.354 : en:Sleeping Beauty
    00:46:21.195 : en:Public Display of Affection
    00:53:55.232 : en:Hard Core
    01:01:00.573 : en:Joy Ride
    01:06:40.287 : en:Deal With the Devil
    01:11:48.721 : en:New Master
    01:15:10.756 : en:Mad Man Standing
    01:17:17.299 : en:Unfinished Business
    01:20:10.722 : en:Stop and Smell the Roses
    Загрузка...Cкриншот1 Адреналин / Crank (2006) [Theatrical Cut] BDRip 1080p [HEVC] 10 bit от OldGamer (RG RIPS CLUB)Загрузка...Cкриншот2 Адреналин / Crank (2006) [Theatrical Cut] BDRip 1080p [HEVC] 10 bit от OldGamer (RG RIPS CLUB)Загрузка...Cкриншот3 Адреналин / Crank (2006) [Theatrical Cut] BDRip 1080p [HEVC] 10 bit от OldGamer (RG RIPS CLUB)Загрузка...Cкриншот4 Адреналин / Crank (2006) [Theatrical Cut] BDRip 1080p [HEVC] 10 bit от OldGamer (RG RIPS CLUB)
    Поблагодарили: 9A1eksandr1, AlexsBond, alexyak, and50, AndresUA, ExoticDeer, Miss Exclusive 888, sabretooth, vserginbox
    Файлы: 1
    • Адреналин.Crank.2006.Theatrical.Cut.BDRip-HEVC.1080p.mkv

    Рейтинги КП и IMDB, кнопки "Раздайте, пожалуйста" и "Спасибо", а также мультитрекерная статистика доступны только зарегистрированным/авторизованным пользователям!

    OldGamer
    19120747.42 ГБ

    💬︎ Комментарии

    Добавление комментариев доступно только зарегистрированным/авторизованным пользователям.

    Всего: 4
    Аватар OldGamer
    OldGamer
    FijiMAX писал(а):
    Нет, у меня раньше был DVD с обеими частьями, и оба без цензуры, увидел эту раздачу и случайно удалил свой 1080р с 18+ озвучкой, потом увидел, что в этой раздче только офф дубляж, теперь голову ломаю, ибо не помню когда и где скачать первую часть((
    Здесь театральная версия. Одноголосые переводы доступны для расширенной версии.
    Аватар FijiMAX
    FijiMAX
    IRIT писал(а):
    Вы может вторую смотрели? На первую часть я Пучкова не видел. Может с Чадовым, он с матом переводил.
    Нет, у меня раньше был DVD с обеими частьями, и оба без цензуры, увидел эту раздачу и случайно удалил свой 1080р с 18+ озвучкой, потом увидел, что в этой раздче только офф дубляж, теперь голову ломаю, ибо не помню когда и где скачать первую часть((
    Аватар не указан
    IRIT
    FijiMAX писал(а):
    Первый раз посмотрел с гоблинской озвучкой, дубляж теперь кажется не оч ))
    Вы может вторую смотрели? На первую часть я Пучкова не видел. Может с Чадовым, он с матом переводил.
    Аватар FijiMAX
    FijiMAX
    Первый раз посмотрел с гоблинской озвучкой, дубляж теперь кажется не оч ))