Чат

⚫︎
Список изменений сайта - https://rips.club/changelog.html (обновлен 24.05.2024)
    Онлайн (за 10 мин.): 0
    Отправка сообщений доступна только зарегистрированным/авторизованным пользователям.

    🎥︎Адреналин: Высокое напряжение / Crank: High Voltage (2009) BDRip 1080p [HEVC] 10 bit от OldGamer (RG RIPS CLUB)


    Обложка Адреналин: Высокое напряжение / Crank: High Voltage (2009) BDRip 1080p [HEVC] 10 bit от OldGamer (RG RIPS CLUB)
    HEVC
    10 bit
    ✂︎Сэмпл⤓︎Торрент🧲︎Магнет$Пожертвования

    При перезаливке на другие сайты просьба указать автора и релиз-группу.


    Год: 2009
    Страна: США
    Студия: Karno's Film, Lakeshore Entertainment
    Жанр: Криминал, Боевик, Комедия, Фэнтези
    Длительность: 01:35:50

    Режиссер: Марк Невелдайн, Брайан Тейлор
    В ролях: Джейсон Стэйтем, Эми Смарт, Дуайт Йоакам, Бай Лин, Клифтон Коллинз мл., Эфрен Рамирес, Арт Хсю, Хосе Пабло Кантильо, Джозеф Джулиан Сория, Дэвид Кэрредин

    Описание: Он умер, но обещал вернуться! Не чудом, а благодаря современным медицинским технологиям Чев Челиос получает новое сердце и новый шанс отомстить своим врагам. Теперь для постоянной подзарядки ему требуется электрический разряд мощностью не меньше, чем у автомобильного аккумулятора.


    Релиз-группа: RIPS CLUB
    Исходник: Blu-Ray Remux 1080p (rutracker)
    Видео: 1920x1038, ~13.6 Mbps
    Аудио1: AC3, 6 ch, 640 Kbps - РусскийРусский, DUB
    Аудио2: AC3, 2 ch, 192 Kbps - РусскийРусский, DVO (ТНТ)
    Аудио3: AC3, 6 ch, 448 Kbps - РусскийРусский, AVO (Дмитрий Пучков)
    Аудио4: AC3, 6 ch, 448 Kbps - РусскийРусский, AVO (Юрий Немахов)
    Аудио5: AC3, 6 ch, 448 Kbps - УкраинскийУкраинский, DUB
    Аудио6: AC3, 6 ch, 384 Kbps - УкраинскийУкраинский, MVO (ТакТреба Продакшн)
    Аудио7: AC3, 6 ch, 640 Kbps - АнглийскийАнглийский
    Субтитры: русские, украинские (forced), английские

    Как за несколько секунд удалить ненужные аудиодорожки и субтитры (Внимание! После удаления вы не сможете поддержать раздачу)


    Лог (x265 info)x265 [info]: frame I: 581, Avg QP:17.96 kb/s: 29074.85
    x265 [info]: frame P: 34001, Avg QP:19.43 kb/s: 21993.57
    x265 [info]: frame B: 103292, Avg QP:21.81 kb/s: 10696.53
    x265 [info]: Weighted P-Frames: Y:4.2% UV:3.3%
    x265 [info]: Weighted B-Frames: Y:5.1% UV:3.7%
    x265 [info]: encoded 137874 frames in 139295.55s (0.99 fps), 13559.93 kb/s, Avg QP:21.20
    МедиаинфоОбщее
    Уникальный идентификатор : 246760477943804438794014145580432394084 (0xB9A456E00E6A07D9294CA24626B88764)
    Полное имя : \\.\Адреналин.Высокое.напряжение.Crank.High.Voltage.2009.BDRip-HEVC.1080p.mkv
    Формат : Matroska
    Версия формата : Version 4
    Размер файла : 11,2 Гбайт
    Продолжительность : 1 ч. 35 мин.
    Общий битрейт : 16,7 Мбит/сек
    Частота кадров : 23,976 кадра/сек
    Название фильма : Адреналин 2: Высокое напряжение
    Кодирование выполнил : OldGamer
    Тип содержимого : Movie
    Описание : Он заряжен, чтобы вернуть свое сердце...
    Дата выпуска : 2009-04-16
    Дата записи : 2009-04-16
    Дата кодирования : 2024-06-25 18:44:29 UTC
    Программа кодирования : mkvmerge v85.0 ('Shame For You') 64-bit
    Библиотека кодирования : libebml v1.4.5 + libmatroska v1.7.1 / xvid4psp5
    Обложка : Yes
    Attachments : cover.jpg / xlog.txt
    ACTOR : Джейсон Стейтем, Эми Смарт, David Carradine, Dwight Yoakam, Bai Ling, Clifton Collins Jr., Jose Pablo Cantillo, Efren Ramirez, Julanne Chidi Hill, Reno Wilson, Keone Young, Art Hsu, J. J. Soria, Corey Haim, Geri Halliwell, William Brent, Jamie Harris...
    ARTIST : Джейсон Стейтем, Эми Смарт, David Carradine, Dwight Yoakam, Bai Ling, Clifton Collins Jr., Jose Pablo Cantillo, Efren Ramirez, Julanne Chidi Hill, Reno Wilson, Keone Young, Art Hsu, J. J. Soria, Corey Haim, Geri Halliwell, William Brent, Jamie Harris...
    DIRECTOR : Brian Taylor, Mark Neveldine
    GENRE : боевик, триллер, криминал
    LAW_RATING : R
    PRODUCER : Skip Williamson, Gary Lucchesi, Tom Rosenberg, Richard S. Wright
    PRODUCTION_STUDIO : RadicalMedia
    RATING : R
    SCREENPLAY_BY : Brian Taylor, Mark Neveldine
    SUMMARY : Он заряжен, чтобы вернуть свое сердце...
    SYNOPSIS : Он умер, но обещал вернуться! Не чудом, а благодаря современным медицинским технологиям Чев Челиос получает новое сердце и новый шанс отомстить своим врагам. Теперь для постоянной подзарядки ему требуется электрический разряд мощностью не меньше, чем у автомобильного аккумулятора.
    WRITTEN_BY : Brian Taylor, Mark Neveldine

    Видео
    Идентификатор : 1
    Формат : HEVC
    Формат/Информация : High Efficiency Video Coding
    Профиль формата : Main 10@L4.1@High
    Идентификатор кодека : V_MPEGH/ISO/HEVC
    Продолжительность : 1 ч. 35 мин.
    Битрейт : 13,6 Мбит/сек
    Ширина : 1 920 пикселей
    Высота : 1 038 пикселей
    Соотношение сторон дисплея : 1,85:1
    Режим частоты кадров : Постоянный
    Частота кадров : 23,976 (24000/1001) кадра/сек
    Цветовое пространство : YUV
    Цветовая субдискретизация : 4:2:0
    Битовая глубина : 10 бит
    Бит/(Пиксели*Кадры) : 0.284
    Размер потока : 9,08 Гбайт (81%)
    Заголовок : Crank: High Voltage / Rip by OldGamer
    Библиотека кодирования : x265 3.6+27-8787e8702:[Windows][GCC 13.3.0][64 bit] 10bit
    Параметры библиотеки кодирования : cpuid=1111039 / frame-threads=3 / numa-pools=8 / wpp / no-pmode / no-pme / no-psnr / no-ssim / log-level=2 / input-csp=1 / input-res=1920x1038 / interlace=0 / total-frames=137874 / level-idc=41 / high-tier=1 / uhd-bd=0 / ref=5 / no-allow-non-conformance / no-repeat-headers / annexb / no-aud / no-eob / no-eos / no-hrd / info / hash=0 / temporal-layers=0 / open-gop / min-keyint=23 / keyint=240 / gop-lookahead=0 / bframes=16 / b-adapt=2 / b-pyramid / bframe-bias=0 / rc-lookahead=60 / lookahead-slices=0 / scenecut=40 / no-hist-scenecut / radl=0 / no-splice / no-intra-refresh / ctu=32 / min-cu-size=8 / rect / amp / max-tu-size=32 / tu-inter-depth=4 / tu-intra-depth=4 / limit-tu=1 / rdoq-level=2 / dynamic-rd=0.00 / no-ssim-rd / signhide / no-tskip / nr-intra=0 / nr-inter=0 / no-constrained-intra / no-strong-intra-smoothing / max-merge=5 / limit-refs=3 / no-limit-modes / me=3 / subme=7 / merange=57 / temporal-mvp / no-frame-dup / no-hme / weightp / weightb / no-analyze-src-pics / deblock=-2:-2 / no-sao / no-sao-non-deblock / rd=6 / selective-sao=0 / no-early-skip / no-rskip / no-fast-intra / no-tskip-fast / no-cu-lossless / b-intra / no-splitrd-skip / rdpenalty=0 / psy-rd=2.00 / psy-rdoq=1.00 / no-rd-refine / no-lossless / cbqpoffs=0 / crqpoffs=0 / rc=crf / crf=20.2 / qcomp=0.75 / qpstep=4 / stats-write=0 / stats-read=0 / vbv-maxrate=50000 / vbv-bufsize=50000 / vbv-init=0.9 / min-vbv-fullness=50.0 / max-vbv-fullness=80.0 / crf-max=0.0 / crf-min=0.0 / ipratio=1.40 / pbratio=1.30 / aq-mode=1 / aq-strength=1.00 / no-cutree / zone-count=0 / no-strict-cbr / qg-size=32 / no-rc-grain / qpmax=69 / qpmin=0 / no-const-vbv / sar=1 / overscan=0 / videoformat=5 / range=0 / colorprim=2 / transfer=2 / colormatrix=2 / chromaloc=0 / display-window=0 / cll=0,0 / min-luma=0 / max-luma=1023 / log2-max-poc-lsb=8 / vui-timing-info / vui-hrd-info / slices=1 / no-opt-qp-pps / no-opt-ref-list-length-pps / no-multi-pass-opt-rps / scenecut-bias=0.00 / no-opt-cu-delta-qp / no-aq-motion / no-hdr10 / no-hdr10-opt / no-dhdr10-opt / no-idr-recovery-sei / analysis-reuse-level=0 / analysis-save-reuse-level=0 / analysis-load-reuse-level=0 / scale-factor=0 / refine-intra=0 / refine-inter=0 / refine-mv=1 / refine-ctu-distortion=0 / no-limit-sao / ctu-info=0 / no-lowpass-dct / refine-analysis-type=0 / copy-pic=1 / max-ausize-factor=1.0 / no-dynamic-refine / no-single-sei / no-hevc-aq / no-svt / no-field / qp-adaptation-range=1.00 / scenecut-aware-qp=0conformance-window-offsets / right=0 / bottom=0 / decoder-max-rate=0 / no-vbv-live-multi-pass / no-mcstf / no-sbrc
    Язык : Английский
    По умолчанию : Да
    Принудительно : Нет

    Аудио #1
    Идентификатор : 2
    Формат : AC-3
    Формат/Информация : Audio Coding 3
    Коммерческое название : Dolby Digital
    Идентификатор кодека : A_AC3
    Продолжительность : 1 ч. 35 мин.
    Вид битрейта : Постоянный
    Битрейт : 640 Кбит/сек
    Канал(-ы) : 6 каналов
    Расположение каналов : L R C LFE Ls Rs
    Частота дискретизации : 48,0 КГц
    Частота кадров : 31,250 кадров/сек (1536 SPF)
    Метод сжатия : С потерями
    Размер потока : 438 Мбайт (4%)
    Заголовок : DUB
    Язык : Русский
    Вид сервиса : Complete Main
    По умолчанию : Да
    Принудительно : Нет
    Нормализация звука речи : -27 dB
    compr : -0.28 dB
    cmixlev : -3.0 dB
    surmixlev : -3 dB
    mixlevel : 285 dB
    roomtyp : Small
    dialnorm_Average : -27 dB
    dialnorm_Minimum : -27 dB
    dialnorm_Maximum : -27 dB

    Аудио #2
    Идентификатор : 3
    Формат : AC-3
    Формат/Информация : Audio Coding 3
    Коммерческое название : Dolby Digital
    Идентификатор кодека : A_AC3
    Продолжительность : 1 ч. 35 мин.
    Вид битрейта : Постоянный
    Битрейт : 192 Кбит/сек
    Канал(-ы) : 2 канала
    Расположение каналов : L R
    Частота дискретизации : 48,0 КГц
    Частота кадров : 31,250 кадров/сек (1536 SPF)
    Метод сжатия : С потерями
    Размер потока : 131 Мбайт (1%)
    Заголовок : DVO (ТНТ)
    Язык : Русский
    Вид сервиса : Complete Main
    По умолчанию : Нет
    Принудительно : Нет
    Нормализация звука речи : -27 dB
    compr : -0.28 dB
    dialnorm_Average : -27 dB
    dialnorm_Minimum : -27 dB
    dialnorm_Maximum : -27 dB

    Аудио #3
    Идентификатор : 4
    Идентификатор в исходном носителе информ : 4354 (0x1102)
    Формат : AC-3
    Формат/Информация : Audio Coding 3
    Коммерческое название : Dolby Digital
    Идентификатор кодека : A_AC3
    Продолжительность : 1 ч. 35 мин.
    Вид битрейта : Постоянный
    Битрейт : 448 Кбит/сек
    Канал(-ы) : 6 каналов
    Расположение каналов : L R C LFE Ls Rs
    Частота дискретизации : 48,0 КГц
    Частота кадров : 31,250 кадров/сек (1536 SPF)
    Метод сжатия : С потерями
    Размер потока : 307 Мбайт (3%)
    Заголовок : AVO (Дмитрий Пучков)
    Язык : Русский
    Вид сервиса : Complete Main
    По умолчанию : Нет
    Принудительно : Нет
    Носитель оригинала : Blu-ray
    Нормализация звука речи : -31 dB
    compr : -0.28 dB
    cmixlev : -3.0 dB
    surmixlev : -3 dB
    dialnorm_Average : -31 dB
    dialnorm_Minimum : -31 dB
    dialnorm_Maximum : -31 dB

    Аудио #4
    Идентификатор : 5
    Формат : AC-3
    Формат/Информация : Audio Coding 3
    Коммерческое название : Dolby Digital
    Настройки формата : Dolby Surround EX
    Идентификатор кодека : A_AC3
    Продолжительность : 1 ч. 35 мин.
    Вид битрейта : Постоянный
    Битрейт : 448 Кбит/сек
    Канал(-ы) : 6 каналов
    Расположение каналов : L R C LFE Ls Rs
    Частота дискретизации : 48,0 КГц
    Частота кадров : 31,250 кадров/сек (1536 SPF)
    Метод сжатия : С потерями
    Размер потока : 307 Мбайт (3%)
    Заголовок : AVO (Юрий Немахов)
    Язык : Русский
    Вид сервиса : Complete Main
    По умолчанию : Нет
    Принудительно : Нет
    Нормализация звука речи : -27 dB
    compr : -0.28 dB
    cmixlev : -3.0 dB
    surmixlev : -3 dB
    dmixmod : Lt/Rt
    ltrtcmixlev : -3.0 dB
    ltrtsurmixlev : -3.0 dB
    lorocmixlev : -3.0 dB
    lorosurmixlev : -3.0 dB
    dialnorm_Average : -27 dB
    dialnorm_Minimum : -27 dB
    dialnorm_Maximum : -27 dB

    Аудио #5
    Идентификатор : 6
    Идентификатор в исходном носителе информ : 4353 (0x1101)
    Формат : AC-3
    Формат/Информация : Audio Coding 3
    Коммерческое название : Dolby Digital
    Идентификатор кодека : A_AC3
    Продолжительность : 1 ч. 31 мин.
    Вид битрейта : Постоянный
    Битрейт : 448 Кбит/сек
    Канал(-ы) : 6 каналов
    Расположение каналов : L R C LFE Ls Rs
    Частота дискретизации : 48,0 КГц
    Частота кадров : 31,250 кадров/сек (1536 SPF)
    Метод сжатия : С потерями
    Размер потока : 293 Мбайт (3%)
    Заголовок : DUB
    Язык : Украинский
    Вид сервиса : Complete Main
    По умолчанию : Нет
    Принудительно : Нет
    Носитель оригинала : Blu-ray
    Нормализация звука речи : -31 dB
    compr : -0.28 dB
    cmixlev : -3.0 dB
    surmixlev : -3 dB
    dialnorm_Average : -31 dB
    dialnorm_Minimum : -31 dB
    dialnorm_Maximum : -31 dB

    Аудио #6
    Идентификатор : 7
    Формат : AC-3
    Формат/Информация : Audio Coding 3
    Коммерческое название : Dolby Digital
    Идентификатор кодека : A_AC3
    Продолжительность : 1 ч. 35 мин.
    Вид битрейта : Постоянный
    Битрейт : 384 Кбит/сек
    Канал(-ы) : 6 каналов
    Расположение каналов : L R C LFE Ls Rs
    Частота дискретизации : 48,0 КГц
    Частота кадров : 31,250 кадров/сек (1536 SPF)
    Метод сжатия : С потерями
    Размер потока : 263 Мбайт (2%)
    Заголовок : MVO (ТакТреба Продакшн)
    Язык : Украинский
    Вид сервиса : Complete Main
    По умолчанию : Нет
    Принудительно : Нет
    Нормализация звука речи : -27 dB
    compr : -0.28 dB
    cmixlev : -3.0 dB
    surmixlev : -3 dB
    dialnorm_Average : -27 dB
    dialnorm_Minimum : -27 dB
    dialnorm_Maximum : -27 dB

    Аудио #7
    Идентификатор : 8
    Формат : AC-3
    Формат/Информация : Audio Coding 3
    Коммерческое название : Dolby Digital
    Идентификатор кодека : A_AC3
    Продолжительность : 1 ч. 35 мин.
    Вид битрейта : Постоянный
    Битрейт : 640 Кбит/сек
    Канал(-ы) : 6 каналов
    Расположение каналов : L R C LFE Ls Rs
    Частота дискретизации : 48,0 КГц
    Частота кадров : 31,250 кадров/сек (1536 SPF)
    Метод сжатия : С потерями
    Размер потока : 439 Мбайт (4%)
    Язык : Английский
    Вид сервиса : Complete Main
    По умолчанию : Нет
    Принудительно : Нет
    Нормализация звука речи : -27 dB
    compr : -0.28 dB
    cmixlev : -3.0 dB
    surmixlev : -3 dB
    mixlevel : 285 dB
    roomtyp : Small
    dialnorm_Average : -27 dB
    dialnorm_Minimum : -27 dB
    dialnorm_Maximum : -27 dB

    Текст #1
    Идентификатор : 9
    Формат : UTF-8
    Идентификатор кодека : S_TEXT/UTF8
    Идентификатор кодека/Информация : UTF-8 Plain Text
    Продолжительность : 1 ч. 34 мин.
    Битрейт : 68 бит/сек
    Частота кадров : 0,169 кадр/сек
    Число элементов : 958
    Размер потока : 47,4 КиБ (0%)
    Язык : Русский
    По умолчанию : Нет
    Принудительно : Нет

    Текст #2
    Идентификатор : 10
    Формат : UTF-8
    Идентификатор кодека : S_TEXT/UTF8
    Идентификатор кодека/Информация : UTF-8 Plain Text
    Продолжительность : 1 ч. 33 мин.
    Битрейт : 59 бит/сек
    Частота кадров : 0,117 кадр/сек
    Число элементов : 652
    Размер потока : 40,4 КиБ (0%)
    Язык : Русский
    По умолчанию : Нет
    Принудительно : Нет

    Текст #3
    Идентификатор : 11
    Формат : UTF-8
    Идентификатор кодека : S_TEXT/UTF8
    Идентификатор кодека/Информация : UTF-8 Plain Text
    Продолжительность : 8 мин. 5 с.
    Битрейт : 33 бит/сек
    Частота кадров : 0,099 кадр/сек
    Число элементов : 48
    Размер потока : 2,01 КиБ (0%)
    Заголовок : Forced
    Язык : Украинский
    По умолчанию : Нет
    Принудительно : Нет

    Текст #4
    Идентификатор : 12
    Формат : UTF-8
    Идентификатор кодека : S_TEXT/UTF8
    Идентификатор кодека/Информация : UTF-8 Plain Text
    Продолжительность : 1 ч. 33 мин.
    Битрейт : 42 бит/сек
    Частота кадров : 0,200 кадр/сек
    Число элементов : 1125
    Размер потока : 29,5 КиБ (0%)
    Язык : Английский
    По умолчанию : Нет
    Принудительно : Нет

    Меню
    00:00:00.000 : en:Implausible
    00:05:55.897 : en:Famous Heart
    00:09:38.495 : en:Wired Up
    00:15:22.922 : en:Jump Start
    00:20:45.453 : en:Street Race
    00:25:21.979 : en:Social Club
    00:29:07.621 : en:Johnny Vang
    00:36:20.720 : en:New Eve
    00:42:15.658 : en:Police Bust
    00:47:47.114 : en:Push It
    00:50:10.090 : en:Out of Control
    00:54:15.043 : en:Causing Friction
    01:01:00.740 : en:Catching Up
    01:06:31.988 : en:Breaking News
    01:15:19.432 : en:Dropping the Hammer
    01:20:22.276 : en:Emergency Stop
    Загрузка...Cкриншот1 Адреналин: Высокое напряжение / Crank: High Voltage (2009) BDRip 1080p [HEVC] 10 bit от OldGamer (RG RIPS CLUB)Загрузка...Cкриншот2 Адреналин: Высокое напряжение / Crank: High Voltage (2009) BDRip 1080p [HEVC] 10 bit от OldGamer (RG RIPS CLUB)Загрузка...Cкриншот3 Адреналин: Высокое напряжение / Crank: High Voltage (2009) BDRip 1080p [HEVC] 10 bit от OldGamer (RG RIPS CLUB)Загрузка...Cкриншот4 Адреналин: Высокое напряжение / Crank: High Voltage (2009) BDRip 1080p [HEVC] 10 bit от OldGamer (RG RIPS CLUB)
    Поблагодарили: 12A1eksandr1, AlexsBond, and50, AndresUA, Antilord90, ExoticDeer, Kiran, MIGRANT, Miss Exclusive 888, sabretooth, SaN161NeK, vserginbox
    Файлы: 1
    • Адреналин.Высокое.напряжение.Crank.High.Voltage.2009.BDRip-HEVC.1080p.mkv

    Рейтинги КП и IMDB, кнопки "Раздайте, пожалуйста" и "Спасибо", а также мультитрекерная статистика доступны только зарегистрированным/авторизованным пользователям!

    OldGamer
    70104211.21 ГБ

    💬︎ Комментарии

    Добавление комментариев доступно только зарегистрированным/авторизованным пользователям.

    Всего: 2
    Аватар не указан
    MIGRANT
    Мичман писал(а):
    Картинка дергается, вот тайминги: 00:30:00 - 00:30:05; 00:30:48 - 00:30:50; 00:33:12 - 00:33:14. Это только досюда я досмотрел, дальше не стал. В начале тоже есть, но меньше (искать не стал). Это кстати не первый рип такой у тебя, где картинка дёргается. У Спартанца было такое, он переделывал, спроси у него в чём проблема может быть. Проверял на двух плеерах: PotPlayer и Media Player Classic.
    А я думал, что это только у меня одного такое... Типа железо не тянет...
    Аватар OldGamer
    OldGamer
    Да, в курсе проблемы. Решение есть, но кое-что переделать придётся.