Чат

⚫︎
Список изменений сайта - https://rips.club/changelog.html (обновлен 24.05.2024)
    Онлайн (за 10 мин.): 0
    Отправка сообщений доступна только зарегистрированным/авторизованным пользователям.

    🎥︎Бездна / The Abyss (1989) [USA Transfer | Special Edition] BDRip 1080p [HEVC] 10 bit от OldGamer (RG RIPS CLUB)


    Обложка Бездна / The Abyss (1989) [USA Transfer | Special Edition] BDRip 1080p [HEVC] 10 bit от OldGamer (RG RIPS CLUB)
    HEVC
    10 bit
    ✂︎Сэмпл⤓︎Торрент🧲︎Магнет$Пожертвования

    При перезаливке на другие сайты просьба указать автора и релиз-группу.


    Год: 1989
    Страна: США
    Студия: 20th Century Fox Film Corporation, Lightstorm Entertainment, Pacific Western
    Жанр: Фантастика, Триллер, Драма
    Длительность: 02:52:01

    Режиссер: Джеймс Кэмерон
    В ролях: Эд Харрис, Мэри Элизабет Мастрантонио, Майкл Бин, Лео Бёрместер, Тодд Графф, Джон Бедфорд Ллойд, Дж. К. Куин, Кимберли Скотт, Капитан Кидд Брюер мл., Джордж Роберт Клек

    Описание: Атомная подводная лодка «Монтана» ВМФ США терпит крушение на большой глубине. Министерство просит помощи у специалистов подводной исследовательской станции, работающей неподалеку от места аварии. При поддержке четырёх военных разведчиков исследователи должны выяснить возможную причину трагедии и нейтрализовать ядерные боеголовки. Но в океанской бездне им предстоит столкнуться с неведомым.


    Релиз-группа: RIPS CLUB
    Исходник: Blu-Ray Remux 1080p (rutracker)
    Видео: 1920x800, 5958 Kbps
    Аудио1: AC3, 6 ch, 640 Kbps - РусскийРусский, MVO (Киномания)
    Аудио2: AC3, 2 ch, 448 Kbps - РусскийРусский, MVO (R5 + вставки Киномании)
    Аудио3: AC3, 2 ch, 224 Kbps - РусскийРусский, MVO (НТВ+, перевод Леонида Володарского)
    Аудио4: AC3, 2 ch, 192 Kbps - РусскийРусский, MVO (1HD + вставки Киномании)
    Аудио5: AC3, 2 ch, 192 Kbps - РусскийРусский, DVO (Лазер Видео)
    Аудио6: AC3, 2 ch, 192 Kbps - РусскийРусский, DVO (Премьер Видеофильм + вставки Киномании)
    Аудио7: AC3, 6 ch, 640 Kbps - РусскийРусский, AVO (Юрий Сербин)
    Аудио8: AC3, 6 ch, 640 Kbps - РусскийРусский, AVO (Андрей Гаврилов, перевод режиссёрской версии)
    Аудио9: AC3, 2 ch, 448 Kbps - РусскийРусский, AVO (Андрей Гаврилов, перевод театральной версии + вставки из режиссерской версии)
    Аудио10: AC3, 2 ch, 448 Kbps - РусскийРусский, AVO (Юрий Живов поздний)
    Аудио11: AC3, 2 ch, 256 Kbps - РусскийРусский, AVO (Юрий Живов ранний)
    Аудио12: AC3, 2 ch, 192 Kbps - РусскийРусский, AVO (Неизвестный переводчик студии "Atomik Home Video")
    Аудио13: AC3, 6 ch, 640 Kbps - РусскийРусский, VO (Михаил Чадов)
    Аудио14: AC3, 2 ch, 192 Kbps - РусскийРусский, VO (Неизвестный + вставки Юрия Сербина)
    Аудио15: AC3, 6 ch, 640 Kbps - АнглийскийАнглийский (Original 5.1)
    Аудио16: AC3, 2 ch, 320 Kbps - АнглийскийАнглийский (Original 2.0)
    Субтитры: русские, английские (SDH)

    Как за несколько секунд удалить ненужные аудиодорожки и субтитры (Внимание! После удаления вы не сможете поддержать раздачу)


    Лог (x265 info)x265 [info]: frame I: 1044, Avg QP:17.14 kb/s: 13551.13
    x265 [info]: frame P: 44808, Avg QP:18.33 kb/s: 10329.04
    x265 [info]: frame B: 200172, Avg QP:20.68 kb/s: 4939.09
    x265 [info]: Weighted P-Frames: Y:12.7% UV:11.3%
    x265 [info]: Weighted B-Frames: Y:17.9% UV:14.5%
    x265 [info]: encoded 246024 frames in 159396.16s (1.54 fps), 5957.30 kb/s, Avg QP:20.23
    МедиаинфоОбщее
    Уникальный идентификатор : 166006737125812520326656516699005035273 (0x7CE3BC0EBFEB0A99A1E0E29F2BA6A309)
    Полное имя : \\.\Бездна.The.Abyss.1989.US.Transfer.Special.Edition.BDRip-HEVC.1080p.mkv
    Формат : Matroska
    Версия формата : Version 4
    Размер файла : 14,7 Гбайт
    Продолжительность : 2 ч. 51 мин.
    Общий битрейт : 12,3 Мбит/сек
    Частота кадров : 23,976 кадра/сек
    Название фильма : Бездна
    Кодирование выполнил : OldGamer
    Тип содержимого : Movie
    Описание : Глубоко под водой есть место, о котором никто никогда не мечтал...
    Дата выпуска : 1989-08-09
    Дата записи : 1989-08-09
    Дата кодирования : 2024-05-26 10:04:10 UTC
    Программа кодирования : mkvmerge v83.0 ('Circle Of Friends') 64-bit
    Библиотека кодирования : libebml v1.4.5 + libmatroska v1.7.1 / xvid4psp5
    Обложка : Yes
    Attachments : cover.jpg
    ACTOR : Эд Харрис, Mary Elizabeth Mastrantonio, Майкл Бин, Leo Burmester, Todd Graff, John Bedford Lloyd, Kimberly Scott, Chris Elliott, J.C. Quinn, Pierce Oliver Brewer, Jr., George Robert Klek, Christopher Murphy, Adam Nelson, Dick Warlock, Jimmie Ray Week...
    ARTIST : Эд Харрис, Mary Elizabeth Mastrantonio, Майкл Бин, Leo Burmester, Todd Graff, John Bedford Lloyd, Kimberly Scott, Chris Elliott, J.C. Quinn, Pierce Oliver Brewer, Jr., George Robert Klek, Christopher Murphy, Adam Nelson, Dick Warlock, Jimmie Ray Week...
    DIRECTOR : Джеймс Кэмерон
    GENRE : приключения, боевик, триллер, фантастика
    LAW_RATING : PG-13
    PRODUCER : Гейл Энн Хёрд, Ван Линг
    PRODUCTION_STUDIO : Pacific Western
    RATING : PG-13
    SUMMARY : Глубоко под водой есть место, о котором никто никогда не мечтал...
    SYNOPSIS : Атомная подводная лодка «Монтана» ВМФ США с ядерным оружием на борту терпит крушение на огромной глубине. Министерство флота просит помощи у специалистов подводной исследовательской станции, работающей неподалеку от места аварии субмарины.При поддержке четырех военных разведчиков исследователи должны выяснить возможную причину трагедии и нейтрализовать ядерные боеголовки. Но в океанской бездне им предстоит столкнуться с неведомым…

    Видео
    Идентификатор : 1
    Формат : HEVC
    Формат/Информация : High Efficiency Video Coding
    Профиль формата : Main 10@L4.1@High
    Идентификатор кодека : V_MPEGH/ISO/HEVC
    Продолжительность : 2 ч. 51 мин.
    Битрейт : 5 958 Кбит/сек
    Ширина : 1 920 пикселей
    Высота : 800 пикселей
    Соотношение сторон дисплея : 2,40:1
    Режим частоты кадров : Постоянный
    Частота кадров : 23,976 (24000/1001) кадра/сек
    Цветовое пространство : YUV
    Цветовая субдискретизация : 4:2:0
    Битовая глубина : 10 бит
    Бит/(Пиксели*Кадры) : 0.162
    Размер потока : 7,12 Гбайт (49%)
    Заголовок : The Abyss / Rip by OldGamer
    Библиотека кодирования : x265 3.6+12-f3c5fbaff:[Windows][GCC 14.1.0][64 bit] 10bit
    Параметры библиотеки кодирования : cpuid=1111039 / frame-threads=3 / numa-pools=8 / wpp / no-pmode / no-pme / no-psnr / no-ssim / log-level=2 / input-csp=1 / input-res=1920x800 / interlace=0 / total-frames=246024 / level-idc=41 / high-tier=1 / uhd-bd=0 / ref=5 / no-allow-non-conformance / no-repeat-headers / annexb / no-aud / no-eob / no-eos / no-hrd / info / hash=0 / temporal-layers=0 / open-gop / min-keyint=23 / keyint=240 / gop-lookahead=0 / bframes=16 / b-adapt=2 / b-pyramid / bframe-bias=0 / rc-lookahead=60 / lookahead-slices=0 / scenecut=40 / no-hist-scenecut / radl=0 / no-splice / no-intra-refresh / ctu=32 / min-cu-size=8 / rect / amp / max-tu-size=32 / tu-inter-depth=4 / tu-intra-depth=4 / limit-tu=1 / rdoq-level=2 / dynamic-rd=0.00 / no-ssim-rd / signhide / no-tskip / nr-intra=0 / nr-inter=0 / no-constrained-intra / no-strong-intra-smoothing / max-merge=5 / limit-refs=3 / no-limit-modes / me=3 / subme=7 / merange=57 / temporal-mvp / no-frame-dup / no-hme / weightp / weightb / no-analyze-src-pics / deblock=-2:-2 / no-sao / no-sao-non-deblock / rd=6 / selective-sao=0 / no-early-skip / no-rskip / no-fast-intra / no-tskip-fast / no-cu-lossless / b-intra / no-splitrd-skip / rdpenalty=0 / psy-rd=2.00 / psy-rdoq=1.00 / no-rd-refine / no-lossless / cbqpoffs=0 / crqpoffs=0 / rc=crf / crf=20.2 / qcomp=0.60 / qpstep=4 / stats-write=0 / stats-read=0 / vbv-maxrate=50000 / vbv-bufsize=50000 / vbv-init=0.9 / min-vbv-fullness=50.0 / max-vbv-fullness=80.0 / crf-max=0.0 / crf-min=0.0 / ipratio=1.40 / pbratio=1.30 / aq-mode=1 / aq-strength=1.00 / no-cutree / zone-count=1 / zones: / start-frame=235004 / end-frame=246024 / qp=36 / no-strict-cbr / qg-size=32 / no-rc-grain / qpmax=69 / qpmin=0 / no-const-vbv / sar=1 / overscan=0 / videoformat=5 / range=0 / colorprim=2 / transfer=2 / colormatrix=2 / chromaloc=0 / display-window=0 / cll=0,0 / min-luma=0 / max-luma=1023 / log2-max-poc-lsb=8 / vui-timing-info / vui-hrd-info / slices=1 / no-opt-qp-pps / no-opt-ref-list-length-pps / no-multi-pass-opt-rps / scenecut-bias=0.00 / no-opt-cu-delta-qp / no-aq-motion / no-hdr10 / no-hdr10-opt / no-dhdr10-opt / no-idr-recovery-sei / analysis-reuse-level=0 / analysis-save-reuse-level=0 / analysis-load-reuse-level=0 / scale-factor=0 / refine-intra=0 / refine-inter=0 / refine-mv=1 / refine-ctu-distortion=0 / no-limit-sao / ctu-info=0 / no-lowpass-dct / refine-analysis-type=0 / copy-pic=1 / max-ausize-factor=1.0 / no-dynamic-refine / no-single-sei / no-hevc-aq / no-svt / no-field / qp-adaptation-range=1.00 / scenecut-aware-qp=0conformance-window-offsets / right=0 / bottom=0 / decoder-max-rate=0 / no-vbv-live-multi-pass / no-mcstf / no-sbrc
    Язык : Английский
    По умолчанию : Да
    Принудительно : Нет

    Аудио #1
    Идентификатор : 2
    Формат : AC-3
    Формат/Информация : Audio Coding 3
    Коммерческое название : Dolby Digital
    Идентификатор кодека : A_AC3
    Продолжительность : 2 ч. 51 мин.
    Вид битрейта : Постоянный
    Битрейт : 640 Кбит/сек
    Канал(-ы) : 6 каналов
    Расположение каналов : L R C LFE Ls Rs
    Частота дискретизации : 48,0 КГц
    Частота кадров : 31,250 кадров/сек (1536 SPF)
    Метод сжатия : С потерями
    Размер потока : 783 Мбайт (5%)
    Заголовок : MVO (Киномания)
    Язык : Русский
    Вид сервиса : Complete Main
    По умолчанию : Да
    Принудительно : Нет
    Нормализация звука речи : -27 dB
    compr : -0.28 dB
    cmixlev : -3.0 dB
    surmixlev : -3 dB
    mixlevel : 285 dB
    roomtyp : Small
    dialnorm_Average : -27 dB
    dialnorm_Minimum : -27 dB
    dialnorm_Maximum : -27 dB

    Аудио #2
    Идентификатор : 3
    Формат : AC-3
    Формат/Информация : Audio Coding 3
    Коммерческое название : Dolby Digital
    Идентификатор кодека : A_AC3
    Продолжительность : 2 ч. 51 мин.
    Вид битрейта : Постоянный
    Битрейт : 448 Кбит/сек
    Канал(-ы) : 2 канала
    Расположение каналов : L R
    Частота дискретизации : 48,0 КГц
    Частота кадров : 31,250 кадров/сек (1536 SPF)
    Метод сжатия : С потерями
    Размер потока : 548 Мбайт (4%)
    Заголовок : MVO (R5 + вставки Киномании)
    Язык : Русский
    Вид сервиса : Complete Main
    По умолчанию : Нет
    Принудительно : Нет
    Нормализация звука речи : -31 dB
    compr : -0.28 dB
    dsurmod : Not Dolby Surround encoded
    ltrtcmixlev : 3.0 dB
    ltrtsurmixlev : 3.0 dB
    lorocmixlev : 3.0 dB
    lorosurmixlev : 3.0 dB
    dialnorm_Average : -31 dB
    dialnorm_Minimum : -31 dB
    dialnorm_Maximum : -31 dB

    Аудио #3
    Идентификатор : 4
    Формат : AC-3
    Формат/Информация : Audio Coding 3
    Коммерческое название : Dolby Digital
    Идентификатор кодека : A_AC3
    Продолжительность : 2 ч. 50 мин.
    Вид битрейта : Постоянный
    Битрейт : 224 Кбит/сек
    Канал(-ы) : 2 канала
    Расположение каналов : L R
    Частота дискретизации : 48,0 КГц
    Частота кадров : 31,250 кадров/сек (1536 SPF)
    Метод сжатия : С потерями
    Размер потока : 274 Мбайт (2%)
    Заголовок : MVO (НТВ+, перевод - Леонид Володарский)
    Язык : Русский
    Вид сервиса : Complete Main
    По умолчанию : Нет
    Принудительно : Нет
    Нормализация звука речи : -31 dB
    compr : -0.28 dB
    dsurmod : Not Dolby Surround encoded
    ltrtcmixlev : 3.0 dB
    ltrtsurmixlev : 3.0 dB
    lorocmixlev : 3.0 dB
    lorosurmixlev : 3.0 dB
    dialnorm_Average : -31 dB
    dialnorm_Minimum : -31 dB
    dialnorm_Maximum : -31 dB

    Аудио #4
    Идентификатор : 5
    Формат : AC-3
    Формат/Информация : Audio Coding 3
    Коммерческое название : Dolby Digital
    Идентификатор кодека : A_AC3
    Продолжительность : 2 ч. 51 мин.
    Вид битрейта : Постоянный
    Битрейт : 192 Кбит/сек
    Канал(-ы) : 2 канала
    Расположение каналов : L R
    Частота дискретизации : 48,0 КГц
    Частота кадров : 31,250 кадров/сек (1536 SPF)
    Метод сжатия : С потерями
    Размер потока : 235 Мбайт (2%)
    Заголовок : MVO (1HD + вставки Киномании)
    Язык : Русский
    Вид сервиса : Complete Main
    По умолчанию : Нет
    Принудительно : Нет
    Нормализация звука речи : -31 dB
    compr : -0.28 dB
    dsurmod : Not Dolby Surround encoded
    ltrtcmixlev : 3.0 dB
    ltrtsurmixlev : 3.0 dB
    lorocmixlev : 3.0 dB
    lorosurmixlev : 3.0 dB
    dialnorm_Average : -31 dB
    dialnorm_Minimum : -31 dB
    dialnorm_Maximum : -31 dB

    Аудио #5
    Идентификатор : 6
    Формат : AC-3
    Формат/Информация : Audio Coding 3
    Коммерческое название : Dolby Digital
    Идентификатор кодека : A_AC3
    Продолжительность : 2 ч. 50 мин.
    Вид битрейта : Постоянный
    Битрейт : 192 Кбит/сек
    Канал(-ы) : 2 канала
    Расположение каналов : L R
    Частота дискретизации : 48,0 КГц
    Частота кадров : 31,250 кадров/сек (1536 SPF)
    Метод сжатия : С потерями
    Размер потока : 235 Мбайт (2%)
    Заголовок : DVO (Лазер Видео)
    Язык : Русский
    Вид сервиса : Complete Main
    По умолчанию : Нет
    Принудительно : Нет
    Нормализация звука речи : -31 dB
    compr : -0.28 dB
    dsurmod : Not Dolby Surround encoded
    ltrtcmixlev : 3.0 dB
    ltrtsurmixlev : 3.0 dB
    lorocmixlev : 3.0 dB
    lorosurmixlev : 3.0 dB
    dialnorm_Average : -31 dB
    dialnorm_Minimum : -31 dB
    dialnorm_Maximum : -31 dB

    Аудио #6
    Идентификатор : 7
    Формат : AC-3
    Формат/Информация : Audio Coding 3
    Коммерческое название : Dolby Digital
    Идентификатор кодека : A_AC3
    Продолжительность : 2 ч. 51 мин.
    Вид битрейта : Постоянный
    Битрейт : 192 Кбит/сек
    Канал(-ы) : 2 канала
    Расположение каналов : L R
    Частота дискретизации : 48,0 КГц
    Частота кадров : 31,250 кадров/сек (1536 SPF)
    Метод сжатия : С потерями
    Размер потока : 235 Мбайт (2%)
    Заголовок : DVO (Премьер Видеофильм + вставки Киномании)
    Язык : Русский
    Вид сервиса : Complete Main
    По умолчанию : Нет
    Принудительно : Нет
    Нормализация звука речи : -31 dB
    compr : -0.28 dB
    dsurmod : Not Dolby Surround encoded
    ltrtcmixlev : 3.0 dB
    ltrtsurmixlev : 3.0 dB
    lorocmixlev : 3.0 dB
    lorosurmixlev : 3.0 dB
    dialnorm_Average : -31 dB
    dialnorm_Minimum : -31 dB
    dialnorm_Maximum : -31 dB

    Аудио #7
    Идентификатор : 8
    Формат : AC-3
    Формат/Информация : Audio Coding 3
    Коммерческое название : Dolby Digital
    Идентификатор кодека : A_AC3
    Продолжительность : 2 ч. 51 мин.
    Вид битрейта : Постоянный
    Битрейт : 640 Кбит/сек
    Канал(-ы) : 6 каналов
    Расположение каналов : L R C LFE Ls Rs
    Частота дискретизации : 48,0 КГц
    Частота кадров : 31,250 кадров/сек (1536 SPF)
    Метод сжатия : С потерями
    Размер потока : 783 Мбайт (5%)
    Заголовок : AVO (Юрий Сербин)
    Язык : Русский
    Вид сервиса : Complete Main
    По умолчанию : Нет
    Принудительно : Нет
    Нормализация звука речи : -27 dB
    compr : -0.28 dB
    cmixlev : -3.0 dB
    surmixlev : -3 dB
    mixlevel : 285 dB
    roomtyp : Small
    dialnorm_Average : -27 dB
    dialnorm_Minimum : -27 dB
    dialnorm_Maximum : -27 dB

    Аудио #8
    Идентификатор : 9
    Формат : AC-3
    Формат/Информация : Audio Coding 3
    Коммерческое название : Dolby Digital
    Идентификатор кодека : A_AC3
    Продолжительность : 2 ч. 51 мин.
    Вид битрейта : Постоянный
    Битрейт : 640 Кбит/сек
    Канал(-ы) : 6 каналов
    Расположение каналов : L R C LFE Ls Rs
    Частота дискретизации : 48,0 КГц
    Частота кадров : 31,250 кадров/сек (1536 SPF)
    Метод сжатия : С потерями
    Размер потока : 783 Мбайт (5%)
    Заголовок : AVO (Андрей Гаврилов, перевод режиссёрской версии)
    Язык : Русский
    Вид сервиса : Complete Main
    По умолчанию : Нет
    Принудительно : Нет
    Нормализация звука речи : -27 dB
    compr : -0.28 dB
    cmixlev : -3.0 dB
    surmixlev : -3 dB
    mixlevel : 285 dB
    roomtyp : Small
    dialnorm_Average : -27 dB
    dialnorm_Minimum : -27 dB
    dialnorm_Maximum : -27 dB

    Аудио #9
    Идентификатор : 10
    Формат : AC-3
    Формат/Информация : Audio Coding 3
    Коммерческое название : Dolby Digital
    Идентификатор кодека : A_AC3
    Продолжительность : 2 ч. 51 мин.
    Вид битрейта : Постоянный
    Битрейт : 448 Кбит/сек
    Канал(-ы) : 2 канала
    Расположение каналов : L R
    Частота дискретизации : 48,0 КГц
    Частота кадров : 31,250 кадров/сек (1536 SPF)
    Метод сжатия : С потерями
    Размер потока : 548 Мбайт (4%)
    Заголовок : AVO (Андрей Гаврилов, перевод театральной версии + вставки из режиссерской версии)
    Язык : Русский
    Вид сервиса : Complete Main
    По умолчанию : Нет
    Принудительно : Нет
    Нормализация звука речи : -31 dB
    compr : -0.28 dB
    dsurmod : Not Dolby Surround encoded
    ltrtcmixlev : 3.0 dB
    ltrtsurmixlev : 3.0 dB
    lorocmixlev : 3.0 dB
    lorosurmixlev : 3.0 dB
    dialnorm_Average : -31 dB
    dialnorm_Minimum : -31 dB
    dialnorm_Maximum : -31 dB

    Аудио #10
    Идентификатор : 11
    Формат : AC-3
    Формат/Информация : Audio Coding 3
    Коммерческое название : Dolby Digital
    Идентификатор кодека : A_AC3
    Продолжительность : 2 ч. 51 мин.
    Вид битрейта : Постоянный
    Битрейт : 448 Кбит/сек
    Канал(-ы) : 2 канала
    Расположение каналов : L R
    Частота дискретизации : 48,0 КГц
    Частота кадров : 31,250 кадров/сек (1536 SPF)
    Метод сжатия : С потерями
    Размер потока : 548 Мбайт (4%)
    Заголовок : AVO (Юрий Живов поздний)
    Язык : Русский
    Вид сервиса : Complete Main
    По умолчанию : Нет
    Принудительно : Нет
    Нормализация звука речи : -31 dB
    compr : -0.28 dB
    dsurmod : Not Dolby Surround encoded
    ltrtcmixlev : 3.0 dB
    ltrtsurmixlev : 3.0 dB
    lorocmixlev : 3.0 dB
    lorosurmixlev : 3.0 dB
    dialnorm_Average : -31 dB
    dialnorm_Minimum : -31 dB
    dialnorm_Maximum : -31 dB

    Аудио #11
    Идентификатор : 12
    Формат : AC-3
    Формат/Информация : Audio Coding 3
    Коммерческое название : Dolby Digital
    Идентификатор кодека : A_AC3
    Продолжительность : 2 ч. 50 мин.
    Вид битрейта : Постоянный
    Битрейт : 256 Кбит/сек
    Канал(-ы) : 2 канала
    Расположение каналов : L R
    Частота дискретизации : 48,0 КГц
    Частота кадров : 31,250 кадров/сек (1536 SPF)
    Метод сжатия : С потерями
    Размер потока : 313 Мбайт (2%)
    Заголовок : AVO (Юрий Живов ранний)
    Язык : Русский
    Вид сервиса : Complete Main
    По умолчанию : Нет
    Принудительно : Нет
    Нормализация звука речи : -31 dB
    compr : -0.28 dB
    dsurmod : Not Dolby Surround encoded
    ltrtcmixlev : 3.0 dB
    ltrtsurmixlev : 3.0 dB
    lorocmixlev : 3.0 dB
    lorosurmixlev : 3.0 dB
    dialnorm_Average : -31 dB
    dialnorm_Minimum : -31 dB
    dialnorm_Maximum : -31 dB

    Аудио #12
    Идентификатор : 13
    Формат : AC-3
    Формат/Информация : Audio Coding 3
    Коммерческое название : Dolby Digital
    Идентификатор кодека : A_AC3
    Продолжительность : 2 ч. 51 мин.
    Вид битрейта : Постоянный
    Битрейт : 192 Кбит/сек
    Канал(-ы) : 2 канала
    Расположение каналов : L R
    Частота дискретизации : 48,0 КГц
    Частота кадров : 31,250 кадров/сек (1536 SPF)
    Метод сжатия : С потерями
    Размер потока : 235 Мбайт (2%)
    Заголовок : AVO (Неизвестный переводчик студии "Atomik Home Video")
    Язык : Русский
    Вид сервиса : Complete Main
    По умолчанию : Нет
    Принудительно : Нет
    Нормализация звука речи : -31 dB
    compr : -0.28 dB
    dsurmod : Not Dolby Surround encoded
    ltrtcmixlev : 3.0 dB
    ltrtsurmixlev : 3.0 dB
    lorocmixlev : 3.0 dB
    lorosurmixlev : 3.0 dB
    dialnorm_Average : -31 dB
    dialnorm_Minimum : -31 dB
    dialnorm_Maximum : -31 dB

    Аудио #13
    Идентификатор : 14
    Формат : AC-3
    Формат/Информация : Audio Coding 3
    Коммерческое название : Dolby Digital
    Идентификатор кодека : A_AC3
    Продолжительность : 2 ч. 51 мин.
    Вид битрейта : Постоянный
    Битрейт : 640 Кбит/сек
    Канал(-ы) : 6 каналов
    Расположение каналов : L R C LFE Ls Rs
    Частота дискретизации : 48,0 КГц
    Частота кадров : 31,250 кадров/сек (1536 SPF)
    Метод сжатия : С потерями
    Размер потока : 783 Мбайт (5%)
    Заголовок : VO (Михаил Чадов)
    Язык : Русский
    Вид сервиса : Complete Main
    По умолчанию : Нет
    Принудительно : Нет
    Нормализация звука речи : -27 dB
    compr : -0.28 dB
    cmixlev : -3.0 dB
    surmixlev : -3 dB
    mixlevel : 285 dB
    roomtyp : Small
    dialnorm_Average : -27 dB
    dialnorm_Minimum : -27 dB
    dialnorm_Maximum : -27 dB

    Аудио #14
    Идентификатор : 15
    Формат : AC-3
    Формат/Информация : Audio Coding 3
    Коммерческое название : Dolby Digital
    Идентификатор кодека : A_AC3
    Продолжительность : 2 ч. 51 мин.
    Вид битрейта : Постоянный
    Битрейт : 192 Кбит/сек
    Канал(-ы) : 2 канала
    Расположение каналов : L R
    Частота дискретизации : 48,0 КГц
    Частота кадров : 31,250 кадров/сек (1536 SPF)
    Метод сжатия : С потерями
    Размер потока : 235 Мбайт (2%)
    Заголовок : VO (Неизвестный + вставки Юрия Сербина)
    Язык : Русский
    Вид сервиса : Complete Main
    По умолчанию : Нет
    Принудительно : Нет
    Нормализация звука речи : -31 dB
    compr : -0.28 dB
    dsurmod : Not Dolby Surround encoded
    ltrtcmixlev : 3.0 dB
    ltrtsurmixlev : 3.0 dB
    lorocmixlev : 3.0 dB
    lorosurmixlev : 3.0 dB
    dialnorm_Average : -31 dB
    dialnorm_Minimum : -31 dB
    dialnorm_Maximum : -31 dB

    Аудио #15
    Идентификатор : 16
    Формат : AC-3
    Формат/Информация : Audio Coding 3
    Коммерческое название : Dolby Digital
    Идентификатор кодека : A_AC3
    Продолжительность : 2 ч. 51 мин.
    Вид битрейта : Постоянный
    Битрейт : 640 Кбит/сек
    Канал(-ы) : 6 каналов
    Расположение каналов : L R C LFE Ls Rs
    Частота дискретизации : 48,0 КГц
    Частота кадров : 31,250 кадров/сек (1536 SPF)
    Метод сжатия : С потерями
    Размер потока : 783 Мбайт (5%)
    Заголовок : Original 5.1
    Язык : Английский
    Вид сервиса : Complete Main
    По умолчанию : Нет
    Принудительно : Нет
    Нормализация звука речи : -27 dB
    compr : -0.28 dB
    cmixlev : -3.0 dB
    surmixlev : -3 dB
    mixlevel : 285 dB
    roomtyp : Small
    dialnorm_Average : -27 dB
    dialnorm_Minimum : -27 dB
    dialnorm_Maximum : -27 dB

    Аудио #16
    Идентификатор : 17
    Формат : AC-3
    Формат/Информация : Audio Coding 3
    Коммерческое название : Dolby Digital
    Идентификатор кодека : A_AC3
    Продолжительность : 2 ч. 51 мин.
    Вид битрейта : Постоянный
    Битрейт : 320 Кбит/сек
    Канал(-ы) : 2 канала
    Расположение каналов : L R
    Частота дискретизации : 48,0 КГц
    Частота кадров : 31,250 кадров/сек (1536 SPF)
    Метод сжатия : С потерями
    Размер потока : 391 Мбайт (3%)
    Заголовок : Original 2.0
    Язык : Английский
    Вид сервиса : Complete Main
    По умолчанию : Нет
    Принудительно : Нет
    Нормализация звука речи : -31 dB
    compr : -0.28 dB
    dsurmod : Not Dolby Surround encoded
    ltrtcmixlev : 3.0 dB
    ltrtsurmixlev : 3.0 dB
    lorocmixlev : 3.0 dB
    lorosurmixlev : 3.0 dB
    dialnorm_Average : -31 dB
    dialnorm_Minimum : -31 dB
    dialnorm_Maximum : -31 dB

    Текст #1
    Идентификатор : 18
    Формат : UTF-8
    Идентификатор кодека : S_TEXT/UTF8
    Идентификатор кодека/Информация : UTF-8 Plain Text
    Продолжительность : 2 ч. 43 мин.
    Битрейт : 78 бит/сек
    Частота кадров : 0,162 кадр/сек
    Число элементов : 1588
    Размер потока : 93,3 КиБ (0%)
    Заголовок : Russian
    Язык : Русский
    По умолчанию : Нет
    Принудительно : Нет

    Текст #2
    Идентификатор : 19
    Формат : UTF-8
    Идентификатор кодека : S_TEXT/UTF8
    Идентификатор кодека/Информация : UTF-8 Plain Text
    Продолжительность : 2 ч. 41 мин.
    Битрейт : 48 бит/сек
    Частота кадров : 0,176 кадр/сек
    Число элементов : 1711
    Размер потока : 57,0 КиБ (0%)
    Заголовок : English Full
    Язык : Английский
    По умолчанию : Нет
    Принудительно : Нет

    Текст #3
    Идентификатор : 20
    Формат : UTF-8
    Идентификатор кодека : S_TEXT/UTF8
    Идентификатор кодека/Информация : UTF-8 Plain Text
    Продолжительность : 2 ч. 42 мин.
    Битрейт : 51 бит/сек
    Частота кадров : 0,192 кадр/сек
    Число элементов : 1875
    Размер потока : 61,9 КиБ (0%)
    Заголовок : English SDH
    Язык : Английский
    По умолчанию : Нет
    Принудительно : Нет

    Меню
    00:00:00.000 : en:Restoration Credits
    00:00:57.640 : en:Sinking of the Montana
    00:05:15.064 : en:Arrivals (Benthic Explorer)
    00:07:10.221 : en:Deepcore
    00:10:41.766 : en:Briefing
    00:12:21.949 : en:"Virgil, You Wiener"
    00:15:07.364 : en:"Willing"
    00:17:03.105 : en:Blowing Down
    00:19:44.099 : en:"You Need Me"
    00:21:48.890 : en:The Ring
    00:24:19.374 : en:Dive Briefing
    00:26:27.711 : en:Fluid Breathing (Beany Dip)
    00:28:19.280 : en:"Two-and-A-Half-Miles"
    00:33:53.114 : en:Search the Montana
    00:37:57.358 : en:Missile Compartment
    00:43:12.798 : en:Seeing Things
    00:45:58.297 : en:Newscast
    00:48:18.270 : en:MIRV Recovery
    00:51:24.623 : en:The Crane
    00:55:42.338 : en:What a Drag
    00:58:49.817 : en:Flooding
    01:01:14.003 : en:Cut Off From Above
    01:04:43.295 : en:Surveying the Damage
    01:05:58.621 : en:Left Behind
    01:07:47.730 : en:A Dance of Light
    01:12:11.243 : en:"Something Not Us"
    01:15:41.953 : en:Coffey Grinds
    01:17:39.279 : en:"Heeere's MIRV"
    01:19:22.173 : en:Some Huevos
    01:23:05.730 : en:"We Could Get Lucky"
    01:24:51.336 : en:Pseudopod
    01:30:33.636 : en:"Raise Your Hand"
    01:33:01.867 : en:Hippy's Discovery
    01:35:26.845 : en:Phase Three
    01:39:02.895 : en:Free Swim
    01:41:32.169 : en:Bud vs. Coffey
    01:46:58.036 : en:Launching Geek
    01:49:48.665 : en:Sub Chase
    01:54:20.186 : en:Drowning
    02:00:47.031 : en:A Matter of Death and Life
    02:07:14.585 : en:Deep Suit
    02:11:24.417 : en:Descent
    02:16:46.656 : en:Candles
    02:20:02.310 : en:One-Way Ticket
    02:24:12.727 : en:Non-Terrestrial Intelligence
    02:29:12.443 : en:"How Do You Know?"
    02:32:17.878 : en:The Wave
    02:34:24.504 : en:"Why Didn't You?"
    02:36:04.688 : en:Moderately Poor Shape
    02:36:33.800 : en:Back On the Air
    02:38:36.381 : en:The Ark
    02:41:12.495 : en:"We Should Be Dead"
    02:43:22.792 : en:End Credits
    Загрузка...Cкриншот1 Бездна / The Abyss (1989) [USA Transfer | Special Edition] BDRip 1080p [HEVC] 10 bit от OldGamer (RG RIPS CLUB)Загрузка...Cкриншот2 Бездна / The Abyss (1989) [USA Transfer | Special Edition] BDRip 1080p [HEVC] 10 bit от OldGamer (RG RIPS CLUB)Загрузка...Cкриншот3 Бездна / The Abyss (1989) [USA Transfer | Special Edition] BDRip 1080p [HEVC] 10 bit от OldGamer (RG RIPS CLUB)Загрузка...Cкриншот4 Бездна / The Abyss (1989) [USA Transfer | Special Edition] BDRip 1080p [HEVC] 10 bit от OldGamer (RG RIPS CLUB)
    Поблагодарили: 14A1eksandr1, Alex302, AlexsBond, and50, AndresUA, D16T, Kiran, MIGRANT, Miss Exclusive 888, Niflung, olegvp, Rexfire, sharkey71, Winsent
    Файлы: 1
    • Бездна.The.Abyss.1989.US.Transfer.Special.Edition.BDRip-HEVC.1080p.mkv

    Рейтинги КП и IMDB, кнопки "Раздайте, пожалуйста" и "Спасибо", а также мультитрекерная статистика доступны только зарегистрированным/авторизованным пользователям!

    OldGamer
    240330014.66 ГБ

    💬︎ Комментарии

    Добавление комментариев доступно только зарегистрированным/авторизованным пользователям.