Чат

⚫︎
Список изменений сайта - https://rips.club/changelog.html (обновлен 24.05.2024)
  • OldGamer
  • atomicheart
  • kacznelbogene
  • Miss Exclusive 888
  • mogaleksej
Онлайн (за 10 мин.): 5
  • Antilord90: Может кто переделает "Секс по дружбе" телики не воспроизводят!
  • Гл. Админ: Niflung, раздаю
  • VIS: Раздайте, пожалуйста, Большое путешествие / The Wild (2006) BDRip 1080p [HEVC] 10 bit от Мичман
  • Niflung: Раздайте, пожалуйста, Тихое место: Дилогия / A Quiet Place: Dilogy (2018-2020) UHD-BDRip 1080p [HEVC] 10 bit [HDR] от Mr. Fox
  • Antilord90: Сообщение удалено (удалил: Antilord90)
  • Niflung: Гл. Админ, Ладно, буду качать 10 bit версию)
  • Гл. Админ: Niflung, у меня только 10-битная версия
  • HANNIBAL: Гл. Админ, все норм раздача идет
  • Niflung: Раздайте, пожалуйста, Берегись автомобиля (1966) [Цветная версия] BDRip 1080p [HEVC] 8 bit от ADVOKAT69
  • Гл. Админ: HANNIBAL, Я удалил раздачу, которую заливал я. А другую заливал ты, и она была как на руторе. Теперь не понятно на что ты перезалил (в чем разница по сравнению с предыдущей, т.е. руторовской), потому что сидов нет. По моему ты не исправил, а сломал ) ( отредактировано: )
  • Гл. Админ: OldGamer, вообще задумка была сделать цветовую дифференциацию как в фильме Кин-дза-дза!, но поскольку желтый ник лучше подходит для випов, то немного не получилось.
  • Гл. Админ: HANNIBAL, их 2. Что там нужно исправлять?
  • Гл. Админ: HANNIBAL, Я думаю в добавок к зеленой могут появиться и другие цвета. ( отредактировано: )
  • HANNIBAL: Гл. Админ, и исправь раздачу Голая правда
  • HANNIBAL: Гл. Админ, не пора убрать с посторов эту зеленую надпись )))
  • HANNIBAL: Сообщение удалено (удалил: HANNIBAL)
  • Гл. Админ: HANNIBAL, админов теперь 2 ( отредактировано: )
  • HANNIBAL: админ привет
  • Antilord90: Раздайте, пожалуйста, Мальчикам это нравится / The House Bunny (2008) BDRip 1080p [HEVC] 10 bit от -Star-Lord- (RG RIPS CLUB)
  • Гл. Админ: Продлил доменное имя (адрес сайта) на год. Что-то он подорожал (24 евро вместо прежних 12). Ещё раз спасибо всем, кто поддерживает финансово. ( отредактировано: )
Отправка сообщений доступна только зарегистрированным/авторизованным пользователям.

🎥︎Неудержимые 4 / Expend4bles (2023) BDRip 1080p [HEVC] 10 bit от OldGamer (RG RIPS CLUB)


Обложка Неудержимые 4 / Expend4bles (2023) BDRip 1080p [HEVC] 10 bit от OldGamer (RG RIPS CLUB)
HEVC
10 bit
✂︎Сэмпл⤓︎Торрент🧲︎Магнет$Пожертвования

При перезаливке на другие сайты просьба указать автора и релиз-группу.


Год: 2023
Страна: США
Студия: Campbell Grobman Films, Media Capital Technologies, Millennium Films, Nu Boyana Film Studios
Жанр: Боевик
Длительность: 01:43:34

Режиссер: Скотт Во
В ролях: Джейсон Стэйтем, Фифти Сент, Меган Фокс, Дольф Лундгрен, Тони Джа, Ико Увайс, Энди Гарсиа, Сильвестр Сталлоне, Рэнди Кутюр, Джейкоб Скипио

Описание: Неудержимые несут потери: Барни Росс выбывает из строя, а Ли Кристмас отстранён от будущих операций. В команду набирают новых бойцов и отправляют возмещать ущерб. Но и они терпят поражение и попадают в плен. Теперь Ли Кристмас должен в одиночку пробраться в логово противника и освободить команду, попутно предотвратив глобальную катастрофу.


Релиз-группа: RIPS CLUB
Исходник: Blu-Ray Remux 1080p (rutracker)
Видео: 1920x804, ~8783 Kbps
Аудио1: AC3, 6 ch, 384 Kbps - РусскийРусский, DUB (Велес)
Аудио2: AC3, 6 ch, 384 Kbps - РусскийРусский, MVO (TVShows)
Аудио3: AC3, 6 ch, 640 Kbps - РусскийРусский, VO (Михаил Чадов, без цензуры)
Аудио4: AC3, 6 ch, 640 Kbps - АнглийскийАнглийский
Субтитры: русские (full, forced), английские (forced, full, SDH)

Как за несколько секунд удалить ненужные аудиодорожки и субтитры (Внимание! После удаления вы не сможете поддержать раздачу)


Лог (x265 info)x265 [info]: frame I: 626, Avg QP:18.52 kb/s: 21034.70
x265 [info]: frame P: 28339, Avg QP:19.73 kb/s: 14750.64
x265 [info]: frame B: 120028, Avg QP:21.86 kb/s: 7309.30
x265 [info]: Weighted P-Frames: Y:5.4% UV:4.7%
x265 [info]: Weighted B-Frames: Y:5.5% UV:4.6%
x265 [info]: encoded 148993 frames in 111784.25s (1.33 fps), 8782.34 kb/s, Avg QP:21.44
МедиаинфоОбщее
Уникальный идентификатор : 292525603405102799801936381977895151194 (0xDC1261C4D6ECF8DF1F05C6B321C8A65A)
Полное имя : \\.\Неудержимые.4.Expend4bles.2023.BDRip-HEVC.1080p.mkv
Формат : Matroska
Версия формата : Version 4
Размер файла : 7,84 Гбайт
Продолжительность : 1 ч. 43 мин.
Общий битрейт : 10,8 Мбит/сек
Частота кадров : 23,976 кадра/сек
Название фильма : Неудержимые 4 / Неудержимые 4
Кодирование выполнил : OldGamer
Тип содержимого : Movie
Описание : «Они умрут, когда будут мертвы»
Дата выпуска : 2023-09-15
Дата записи : 2023-09-15
Программа кодирования : mkvmerge v83.0 ('Circle Of Friends') 64-bit
Библиотека кодирования : libebml v1.4.5 + libmatroska v1.7.1 / xvid4psp5
Обложка : Yes
Attachments : cover.jpg
ACTOR : Джейсон Стейтем, Сильвестр Сталлоне, 50 Cent, Megan Fox, Dolph Lundgren, Randy Couture, Iko Uwais, Andy García, Tony Jaa, Джейкоб Скипио, Levy Tran, Lucy Newman-Williams, Daren Nop, Kenny "Cowboy" Bartram, Cody Mackie, Cokey Falkow, Eddie Hall, Dan C...
ARTIST : Джейсон Стейтем, Сильвестр Сталлоне, 50 Cent, Megan Fox, Dolph Lundgren, Randy Couture, Iko Uwais, Andy García, Tony Jaa, Джейкоб Скипио, Levy Tran, Lucy Newman-Williams, Daren Nop, Kenny "Cowboy" Bartram, Cody Mackie, Cokey Falkow, Eddie Hall, Dan C...
DIRECTOR : Scott Waugh
GENRE : боевик, приключения, триллер
LAW_RATING : R
PRODUCER : Джейсон Стейтем, Kevin King Templeton, Les Weldon, Yariv Lerner, Jeffrey Greenstein, Jonathan Yunger
PRODUCTION_STUDIO : Davis Films
RATING : R
SCREENPLAY_BY : Tad Daggerhart, Kurt Wimmer, Max Adams
SUMMARY : «Они умрут, когда будут мертвы»
SYNOPSIS : Неудержимые несут потери: Барни Росс выбывает из строя, а Ли Кристмас отстранён от будущих операций. В команду набирают новых бойцов и отправляют возмещать ущерб. Но и они терпят поражение и попадают в плен. Теперь Ли Кристмас должен в одиночку пробраться в логово противника и освободить команду, попутно предотвратив глобальную катастрофу. Только так можно спасти мир и восстановить репутацию Неудержимых...
WRITTEN_BY : Tad Daggerhart, Kurt Wimmer, Max Adams

Видео
Идентификатор : 1
Формат : HEVC
Формат/Информация : High Efficiency Video Coding
Профиль формата : Main 10@L4.1@High
Идентификатор кодека : V_MPEGH/ISO/HEVC
Продолжительность : 1 ч. 43 мин.
Битрейт : 8 783 Кбит/сек
Ширина : 1 920 пикселей
Высота : 804 пикселя
Соотношение сторон дисплея : 2,39:1
Режим частоты кадров : Постоянный
Частота кадров : 23,976 (24000/1001) кадра/сек
Цветовое пространство : YUV
Цветовая субдискретизация : 4:2:0
Битовая глубина : 10 бит
Бит/(Пиксели*Кадры) : 0.237
Размер потока : 6,35 Гбайт (81%)
Заголовок : Expend4bles / Rip by OldGamer
Библиотека кодирования : x265 3.6+12-f3c5fbaff:[Windows][GCC 14.1.0][64 bit] 10bit
Параметры библиотеки кодирования : cpuid=1111039 / frame-threads=3 / numa-pools=8 / wpp / no-pmode / no-pme / no-psnr / no-ssim / log-level=2 / input-csp=1 / input-res=1920x804 / interlace=0 / total-frames=148993 / level-idc=41 / high-tier=1 / uhd-bd=0 / ref=5 / no-allow-non-conformance / no-repeat-headers / annexb / no-aud / no-eob / no-eos / no-hrd / info / hash=0 / temporal-layers=0 / open-gop / min-keyint=23 / keyint=240 / gop-lookahead=0 / bframes=16 / b-adapt=2 / b-pyramid / bframe-bias=0 / rc-lookahead=60 / lookahead-slices=0 / scenecut=40 / no-hist-scenecut / radl=0 / no-splice / no-intra-refresh / ctu=32 / min-cu-size=8 / rect / amp / max-tu-size=32 / tu-inter-depth=4 / tu-intra-depth=4 / limit-tu=1 / rdoq-level=2 / dynamic-rd=0.00 / no-ssim-rd / signhide / no-tskip / nr-intra=0 / nr-inter=0 / no-constrained-intra / no-strong-intra-smoothing / max-merge=5 / limit-refs=3 / no-limit-modes / me=3 / subme=7 / merange=57 / temporal-mvp / no-frame-dup / no-hme / weightp / weightb / no-analyze-src-pics / deblock=-2:-2 / no-sao / no-sao-non-deblock / rd=6 / selective-sao=0 / no-early-skip / no-rskip / no-fast-intra / no-tskip-fast / no-cu-lossless / b-intra / no-splitrd-skip / rdpenalty=0 / psy-rd=2.00 / psy-rdoq=1.00 / no-rd-refine / no-lossless / cbqpoffs=0 / crqpoffs=0 / rc=crf / crf=19.6 / qcomp=0.75 / qpstep=4 / stats-write=0 / stats-read=0 / vbv-maxrate=50000 / vbv-bufsize=50000 / vbv-init=0.9 / min-vbv-fullness=50.0 / max-vbv-fullness=80.0 / crf-max=0.0 / crf-min=0.0 / ipratio=1.40 / pbratio=1.30 / aq-mode=1 / aq-strength=0.80 / no-cutree / zone-count=1 / zones: / start-frame=136224 / end-frame=148993 / qp=36 / no-strict-cbr / qg-size=32 / no-rc-grain / qpmax=69 / qpmin=0 / no-const-vbv / sar=1 / overscan=0 / videoformat=5 / range=0 / colorprim=2 / transfer=2 / colormatrix=2 / chromaloc=0 / display-window=0 / cll=0,0 / min-luma=0 / max-luma=1023 / log2-max-poc-lsb=8 / vui-timing-info / vui-hrd-info / slices=1 / no-opt-qp-pps / no-opt-ref-list-length-pps / no-multi-pass-opt-rps / scenecut-bias=0.00 / no-opt-cu-delta-qp / no-aq-motion / no-hdr10 / no-hdr10-opt / no-dhdr10-opt / no-idr-recovery-sei / analysis-reuse-level=0 / analysis-save-reuse-level=0 / analysis-load-reuse-level=0 / scale-factor=0 / refine-intra=0 / refine-inter=0 / refine-mv=1 / refine-ctu-distortion=0 / no-limit-sao / ctu-info=0 / no-lowpass-dct / refine-analysis-type=0 / copy-pic=1 / max-ausize-factor=1.0 / no-dynamic-refine / no-single-sei / no-hevc-aq / no-svt / no-field / qp-adaptation-range=1.00 / scenecut-aware-qp=0conformance-window-offsets / right=0 / bottom=0 / decoder-max-rate=0 / no-vbv-live-multi-pass / no-mcstf / no-sbrc
Язык : Английский
По умолчанию : Да
Принудительно : Нет

Аудио #1
Идентификатор : 2
Формат : E-AC-3
Формат/Информация : Enhanced AC-3
Коммерческое название : Dolby Digital Plus
Идентификатор кодека : A_EAC3
Продолжительность : 1 ч. 43 мин.
Вид битрейта : Постоянный
Битрейт : 384 Кбит/сек
Канал(-ы) : 6 каналов
Расположение каналов : L R C LFE Ls Rs
Частота дискретизации : 48,0 КГц
Частота кадров : 31,250 кадров/сек (1536 SPF)
Метод сжатия : С потерями
Размер потока : 284 Мбайт (4%)
Заголовок : DUB (Велес)
Язык : Русский
Вид сервиса : Complete Main
По умолчанию : Да
Принудительно : Нет
Нормализация звука речи : -31 dB
dialnorm_Average : -31 dB
dialnorm_Minimum : -31 dB
dialnorm_Maximum : -31 dB

Аудио #2
Идентификатор : 3
Формат : AC-3
Формат/Информация : Audio Coding 3
Коммерческое название : Dolby Digital
Идентификатор кодека : A_AC3
Продолжительность : 1 ч. 43 мин.
Вид битрейта : Постоянный
Битрейт : 384 Кбит/сек
Канал(-ы) : 6 каналов
Расположение каналов : L R C LFE Ls Rs
Частота дискретизации : 48,0 КГц
Частота кадров : 31,250 кадров/сек (1536 SPF)
Метод сжатия : С потерями
Размер потока : 284 Мбайт (4%)
Заголовок : MVO (TVShows)
Язык : Русский
Вид сервиса : Complete Main
По умолчанию : Нет
Принудительно : Нет
Нормализация звука речи : -31 dB
compr : -0.28 dB
cmixlev : -3.0 dB
surmixlev : -3 dB
dmixmod : Lo/Ro
ltrtcmixlev : -3.0 dB
ltrtsurmixlev : -3.0 dB
lorocmixlev : -3.0 dB
lorosurmixlev : -3.0 dB
dialnorm_Average : -31 dB
dialnorm_Minimum : -31 dB
dialnorm_Maximum : -31 dB

Аудио #3
Идентификатор : 4
Формат : AC-3
Формат/Информация : Audio Coding 3
Коммерческое название : Dolby Digital
Идентификатор кодека : A_AC3
Продолжительность : 1 ч. 43 мин.
Вид битрейта : Постоянный
Битрейт : 640 Кбит/сек
Канал(-ы) : 6 каналов
Расположение каналов : L R C LFE Ls Rs
Частота дискретизации : 48,0 КГц
Частота кадров : 31,250 кадров/сек (1536 SPF)
Метод сжатия : С потерями
Размер потока : 474 Мбайт (6%)
Заголовок : VO (Михаил Чадов, без цензуры)
Язык : Русский
Вид сервиса : Complete Main
По умолчанию : Нет
Принудительно : Нет
Нормализация звука речи : -27 dB
compr : -0.28 dB
cmixlev : -3.0 dB
surmixlev : -3 dB
mixlevel : 285 dB
roomtyp : Small
dialnorm_Average : -27 dB
dialnorm_Minimum : -27 dB
dialnorm_Maximum : -27 dB

Аудио #4
Идентификатор : 5
Идентификатор в исходном носителе информ : 4352 (0x1100)
Формат : AC-3
Формат/Информация : Audio Coding 3
Коммерческое название : Dolby Digital
Идентификатор кодека : A_AC3
Продолжительность : 1 ч. 43 мин.
Вид битрейта : Постоянный
Битрейт : 640 Кбит/сек
Канал(-ы) : 6 каналов
Расположение каналов : L R C LFE Ls Rs
Частота дискретизации : 48,0 КГц
Частота кадров : 31,250 кадров/сек (1536 SPF)
Метод сжатия : С потерями
Размер потока : 474 Мбайт (6%)
Заголовок : English Original
Язык : Английский
Вид сервиса : Complete Main
По умолчанию : Нет
Принудительно : Нет
Носитель оригинала : Blu-ray
Нормализация звука речи : -31 dB
compr : 1.94 dB
dynrng : 1.26 dB
cmixlev : -3.0 dB
surmixlev : -3 dB
dmixmod : Lo/Ro
ltrtcmixlev : -3.0 dB
ltrtsurmixlev : -3.0 dB
lorocmixlev : -3.0 dB
lorosurmixlev : -3.0 dB
dialnorm_Average : -31 dB
dialnorm_Minimum : -31 dB
dialnorm_Maximum : -31 dB

Текст #1
Идентификатор : 6
Формат : UTF-8
Идентификатор кодека : S_TEXT/UTF8
Идентификатор кодека/Информация : UTF-8 Plain Text
Продолжительность : 1 ч. 20 мин.
Битрейт : 1 бит/сек
Частота кадров : 0,005 кадр/сек
Число элементов : 24
Размер потока : 747 байт (0%)
Заголовок : Russian forced
Язык : Русский
По умолчанию : Да
Принудительно : Нет

Текст #2
Идентификатор : 7
Формат : UTF-8
Идентификатор кодека : S_TEXT/UTF8
Идентификатор кодека/Информация : UTF-8 Plain Text
Продолжительность : 1 ч. 32 мин.
Битрейт : 84 бит/сек
Частота кадров : 0,195 кадр/сек
Число элементов : 1076
Размер потока : 57,1 КиБ (0%)
Заголовок : Russian full
Язык : Русский
По умолчанию : Нет
Принудительно : Нет

Текст #3
Идентификатор : 8
Формат : UTF-8
Идентификатор кодека : S_TEXT/UTF8
Идентификатор кодека/Информация : UTF-8 Plain Text
Продолжительность : 56 мин. 40 с.
Битрейт : 0 бит/сек
Частота кадров : 0,001 кадр/сек
Число элементов : 5
Размер потока : 141 байт (0%)
Заголовок : English forced
Язык : Английский
По умолчанию : Нет
Принудительно : Нет

Текст #4
Идентификатор : 9
Формат : UTF-8
Идентификатор кодека : S_TEXT/UTF8
Идентификатор кодека/Информация : UTF-8 Plain Text
Продолжительность : 1 ч. 31 мин.
Битрейт : 48 бит/сек
Частота кадров : 0,198 кадр/сек
Число элементов : 1088
Размер потока : 32,7 КиБ (0%)
Заголовок : English full
Язык : Английский
По умолчанию : Нет
Принудительно : Нет

Текст #5
Идентификатор : 10
Формат : UTF-8
Идентификатор кодека : S_TEXT/UTF8
Идентификатор кодека/Информация : UTF-8 Plain Text
Продолжительность : 1 ч. 33 мин.
Битрейт : 57 бит/сек
Частота кадров : 0,235 кадр/сек
Число элементов : 1313
Размер потока : 39,0 КиБ (0%)
Заголовок : English SDH
Язык : Английский
По умолчанию : Нет
Принудительно : Нет

Меню
00:00:00.000 : en:Chapter 01
00:06:06.574 : en:Chapter 02
00:10:57.990 : en:Chapter 03
00:15:56.622 : en:Chapter 04
00:23:44.798 : en:Chapter 05
00:28:35.672 : en:Chapter 06
00:34:40.203 : en:Chapter 07
00:40:43.858 : en:Chapter 08
00:46:45.093 : en:Chapter 09
00:50:27.190 : en:Chapter 10
00:56:33.139 : en:Chapter 11
01:00:41.679 : en:Chapter 12
01:07:44.727 : en:Chapter 13
01:15:16.053 : en:Chapter 14
01:23:17.325 : en:Chapter 15
01:30:57.076 : en:Chapter 16
Загрузка...Cкриншот1 Неудержимые 4 / Expend4bles (2023) BDRip 1080p [HEVC] 10 bit от OldGamer (RG RIPS CLUB)Загрузка...Cкриншот2 Неудержимые 4 / Expend4bles (2023) BDRip 1080p [HEVC] 10 bit от OldGamer (RG RIPS CLUB)Загрузка...Cкриншот3 Неудержимые 4 / Expend4bles (2023) BDRip 1080p [HEVC] 10 bit от OldGamer (RG RIPS CLUB)Загрузка...Cкриншот4 Неудержимые 4 / Expend4bles (2023) BDRip 1080p [HEVC] 10 bit от OldGamer (RG RIPS CLUB)
Поблагодарили: 8A1eksandr1, AlexStallone, alexyak, AndresUA, Antilord90, Kiran, MIGRANT, vserginbox
Файлы: 1
  • Неудержимые.4.Expend4bles.2023.BDRip-HEVC.1080p.mkv

Рейтинги КП и IMDB, кнопки "Раздайте, пожалуйста" и "Спасибо", а также мультитрекерная статистика доступны только зарегистрированным/авторизованным пользователям!

OldGamer
161818207.84 ГБ

💬︎ Комментарии

Добавление комментариев доступно только зарегистрированным/авторизованным пользователям.