Чат

⚫︎
Список изменений сайта - https://rips.club/changelog.html (обновлен 24.05.2024)
  • OldGamer
  • Chestnoc
  • DjBadan
  • Winsent
  • Странник
Онлайн (за 10 мин.): 5
  • Antilord90: Может кто переделает "Секс по дружбе" телики не воспроизводят!
  • Гл. Админ: Niflung, раздаю
  • VIS: Раздайте, пожалуйста, Большое путешествие / The Wild (2006) BDRip 1080p [HEVC] 10 bit от Мичман
  • Niflung: Раздайте, пожалуйста, Тихое место: Дилогия / A Quiet Place: Dilogy (2018-2020) UHD-BDRip 1080p [HEVC] 10 bit [HDR] от Mr. Fox
  • Antilord90: Сообщение удалено (удалил: Antilord90)
  • Niflung: Гл. Админ, Ладно, буду качать 10 bit версию)
  • Гл. Админ: Niflung, у меня только 10-битная версия
  • HANNIBAL: Гл. Админ, все норм раздача идет
  • Niflung: Раздайте, пожалуйста, Берегись автомобиля (1966) [Цветная версия] BDRip 1080p [HEVC] 8 bit от ADVOKAT69
  • Гл. Админ: HANNIBAL, Я удалил раздачу, которую заливал я. А другую заливал ты, и она была как на руторе. Теперь не понятно на что ты перезалил (в чем разница по сравнению с предыдущей, т.е. руторовской), потому что сидов нет. По моему ты не исправил, а сломал ) ( отредактировано: )
  • Гл. Админ: OldGamer, вообще задумка была сделать цветовую дифференциацию как в фильме Кин-дза-дза!, но поскольку желтый ник лучше подходит для випов, то немного не получилось.
  • Гл. Админ: HANNIBAL, их 2. Что там нужно исправлять?
  • Гл. Админ: HANNIBAL, Я думаю в добавок к зеленой могут появиться и другие цвета. ( отредактировано: )
  • HANNIBAL: Гл. Админ, и исправь раздачу Голая правда
  • HANNIBAL: Гл. Админ, не пора убрать с посторов эту зеленую надпись )))
  • HANNIBAL: Сообщение удалено (удалил: HANNIBAL)
  • Гл. Админ: HANNIBAL, админов теперь 2 ( отредактировано: )
  • HANNIBAL: админ привет
  • Antilord90: Раздайте, пожалуйста, Мальчикам это нравится / The House Bunny (2008) BDRip 1080p [HEVC] 10 bit от -Star-Lord- (RG RIPS CLUB)
  • Гл. Админ: Продлил доменное имя (адрес сайта) на год. Что-то он подорожал (24 евро вместо прежних 12). Ещё раз спасибо всем, кто поддерживает финансово. ( отредактировано: )
Отправка сообщений доступна только зарегистрированным/авторизованным пользователям.

🎥︎Мег 2: Бездна / Meg 2: The Trench (2023) BDRip 1080p [HEVC] 10 bit от OldGamer (RG RIPS CLUB)


Обложка Мег 2: Бездна / Meg 2: The Trench (2023) BDRip 1080p [HEVC] 10 bit от OldGamer (RG RIPS CLUB)
HEVC
10 bit
✂︎Сэмпл⤓︎Торрент🧲︎Магнет$Пожертвования

При перезаливке на другие сайты просьба указать автора и релиз-группу.


Год: 2023
Страна: США, Китай
Студия: Apelles Entertainment, China Media Capital, Flagship Entertainment Group, Gravity Pictures, Maeday Productions, Warner Bros. Studios Leavesden
Жанр: Ужасы, Фантастика, Боевик
Длительность: 01:55:41

Режиссер: Бен Уитли
В ролях: Джейсон Стэйтем, Джеки У, Шуя Софиа Цай, Клифф Кёртис, Пейдж Кеннеди, Серхио Перис-Менчета, Скайлер Сэмюэлс, Мелиссанти Махут, Сиенна Гиллори, Вупи Ван Раам

Описание: Пять лет спустя борец с экологическими преступлениями Джонас Тейлор вместе с сотрудниками компании-владельца глубоководной станции опускается на дно Марианской впадины, где миллионы лет существует скрытая экосистема с невиданными существами и обитают гигантские акулы. На месте выясняется, что станция захвачена группой наёмников, которые незаконно ведут добычу особо ценных ископаемых.


Релиз-группа: RIPS CLUB
Исходник: Blu-Ray Remux 1080p (rutracker)
Видео: 1920x804, ~5797 Kbps
Аудио1: AC3, 6 ch, 384 Kbps - РусскийРусский, DUB (SC Produb)
Аудио2: AC3, 6 ch, 448 Kbps - РусскийРусский, DUB (Red Head Sound)
Аудио3: AC3, 6 ch, 384 Kbps - РусскийРусский, MVO (TVShows)
Аудио4: AC3, 6 ch, 448 Kbps - РусскийРусский, VO (Михаил Чадов)
Аудио5: AC3, 6 ch, 384 Kbps - УкраинскийУкраинский, DUB
Аудио6: AC3, 6 ch, 640 Kbps - АнглийскийАнглийский
Субтитры: русские (full, forced), украинские (forced), английские (full, forced, SDH)

Как за несколько секунд удалить ненужные аудиодорожки и субтитры (Внимание! После удаления вы не сможете поддержать раздачу)


Лог (x265 info)x265 [info]: frame I: 704, Avg QP:17.41 kb/s: 13851.06
x265 [info]: frame P: 33599, Avg QP:19.10 kb/s: 10219.69
x265 [info]: frame B: 132126, Avg QP:20.78 kb/s: 4628.77
x265 [info]: Weighted P-Frames: Y:9.5% UV:7.9%
x265 [info]: Weighted B-Frames: Y:13.0% UV:9.1%
x265 [info]: encoded 166429 frames in 108903.13s (1.53 fps), 5796.48 kb/s, Avg QP:20.43
МедиаинфоОбщее
Уникальный идентификатор : 102359960499517291570477824436428198729 (0x4D01CFB1918E6E0DFB0AF32E37D5D349)
Полное имя : \\.\Мег.2.Бездна.Meg.2.The.Trench.2023.BDRip-HEVC.1080p.mkv
Формат : Matroska
Версия формата : Version 4
Размер файла : 6,81 Гбайт
Продолжительность : 1 ч. 55 мин.
Общий битрейт : 8 426 Кбит/сек
Частота кадров : 23,976 кадра/сек
Название фильма : Мег 2: Бездна / Мег 2: Бездна
Кодирование выполнил : OldGamer
Тип содержимого : Movie
Дата выпуска : 2023-08-02
Дата записи : 2023-08-02
Программа кодирования : mkvmerge v85.0 ('Shame For You') 64-bit
Библиотека кодирования : libebml v1.4.5 + libmatroska v1.7.1 / xvid4pdp5
Обложка : Yes
Attachments : cover.jpg
ACTOR : Джейсон Стейтем, Wu Jing, Shuya Sophia Cai, Page Kennedy, Sergio Peris-Mencheta, Sienna Guillory, Cliff Curtis, Skyler Samuels, Melissanthi Mahut, Whoopie van Raam, Kiran Sonia Sawar, Felix Mayr, 郭濤, Robin Hill, Dai Lele, Ivy Tsui, Stewart Alexander,...
ARTIST : Джейсон Стейтем, Wu Jing, Shuya Sophia Cai, Page Kennedy, Sergio Peris-Mencheta, Sienna Guillory, Cliff Curtis, Skyler Samuels, Melissanthi Mahut, Whoopie van Raam, Kiran Sonia Sawar, Felix Mayr, 郭濤, Robin Hill, Dai Lele, Ivy Tsui, Stewart Alexander,...
DIRECTOR : Ben Wheatley
GENRE : боевик, фантастика, ужасы
LAW_RATING : PG-13
PRODUCER : Belle Avery, Lorenzo di Bonaventura
PRODUCTION_STUDIO : DF Pictures
RATING : PG-13
SCREENPLAY_BY : Dean Georgaris, Erich Hoeber, Jon Hoeber
SYNOPSIS : «Мег 2: Бездна» — это глоток адреналина, который ждет нас этим летом. Продолжение суперпопулярного блокбастера 2018 года поднимает экшн выше неба и погружает в невиданные глубины, кишащие мегалодонами! Погрузимся в неизведанные глубины вместе с Джейсоном Стейтемом и иконой мирового экшена Ву Джингом, чтобы исследовать самые темные места мирового океана. Их путешествие превращается в хаос, когда прошедшая операция злоумышленников грозит сорвать их миссию и заставляет их самих бороться за выживание.
WRITTEN_BY : Dean Georgaris, Erich Hoeber, Jon Hoeber

Видео
Идентификатор : 1
Формат : HEVC
Формат/Информация : High Efficiency Video Coding
Профиль формата : Main 10@L4.1@High
Идентификатор кодека : V_MPEGH/ISO/HEVC
Продолжительность : 1 ч. 55 мин.
Битрейт : 5 797 Кбит/сек
Ширина : 1 920 пикселей
Высота : 804 пикселя
Соотношение сторон дисплея : 2,39:1
Режим частоты кадров : Постоянный
Частота кадров : 23,976 (24000/1001) кадра/сек
Цветовое пространство : YUV
Цветовая субдискретизация : 4:2:0
Битовая глубина : 10 бит
Бит/(Пиксели*Кадры) : 0.157
Размер потока : 4,68 Гбайт (69%)
Заголовок : Meg 2: The Trench / Rip by OldGamer
Библиотека кодирования : x265 3.6+12-f3c5fbaff:[Windows][GCC 14.1.0][64 bit] 10bit
Параметры библиотеки кодирования : cpuid=1111039 / frame-threads=3 / numa-pools=8 / wpp / no-pmode / no-pme / no-psnr / no-ssim / log-level=2 / input-csp=1 / input-res=1920x804 / interlace=0 / total-frames=166429 / level-idc=41 / high-tier=1 / uhd-bd=0 / ref=5 / no-allow-non-conformance / no-repeat-headers / annexb / no-aud / no-eob / no-eos / no-hrd / info / hash=0 / temporal-layers=0 / open-gop / min-keyint=23 / keyint=240 / gop-lookahead=0 / bframes=16 / b-adapt=2 / b-pyramid / bframe-bias=0 / rc-lookahead=60 / lookahead-slices=0 / scenecut=40 / no-hist-scenecut / radl=0 / no-splice / no-intra-refresh / ctu=32 / min-cu-size=8 / rect / amp / max-tu-size=32 / tu-inter-depth=4 / tu-intra-depth=4 / limit-tu=1 / rdoq-level=2 / dynamic-rd=0.00 / no-ssim-rd / signhide / no-tskip / nr-intra=0 / nr-inter=0 / no-constrained-intra / no-strong-intra-smoothing / max-merge=5 / limit-refs=3 / no-limit-modes / me=3 / subme=7 / merange=57 / temporal-mvp / no-frame-dup / no-hme / weightp / weightb / no-analyze-src-pics / deblock=-2:-2 / no-sao / no-sao-non-deblock / rd=6 / selective-sao=0 / no-early-skip / no-rskip / no-fast-intra / no-tskip-fast / no-cu-lossless / b-intra / no-splitrd-skip / rdpenalty=0 / psy-rd=2.00 / psy-rdoq=1.00 / no-rd-refine / no-lossless / cbqpoffs=0 / crqpoffs=0 / rc=crf / crf=20.0 / qcomp=0.60 / qpstep=4 / stats-write=0 / stats-read=0 / vbv-maxrate=50000 / vbv-bufsize=50000 / vbv-init=0.9 / min-vbv-fullness=50.0 / max-vbv-fullness=80.0 / crf-max=0.0 / crf-min=0.0 / ipratio=1.40 / pbratio=1.30 / aq-mode=1 / aq-strength=1.00 / no-cutree / zone-count=1 / zones: / start-frame=155685 / end-frame=166429 / qp=36 / no-strict-cbr / qg-size=32 / no-rc-grain / qpmax=69 / qpmin=0 / no-const-vbv / sar=1 / overscan=0 / videoformat=5 / range=0 / colorprim=2 / transfer=2 / colormatrix=2 / chromaloc=0 / display-window=0 / cll=0,0 / min-luma=0 / max-luma=1023 / log2-max-poc-lsb=8 / vui-timing-info / vui-hrd-info / slices=1 / no-opt-qp-pps / no-opt-ref-list-length-pps / no-multi-pass-opt-rps / scenecut-bias=0.00 / no-opt-cu-delta-qp / no-aq-motion / no-hdr10 / no-hdr10-opt / no-dhdr10-opt / no-idr-recovery-sei / analysis-reuse-level=0 / analysis-save-reuse-level=0 / analysis-load-reuse-level=0 / scale-factor=0 / refine-intra=0 / refine-inter=0 / refine-mv=1 / refine-ctu-distortion=0 / no-limit-sao / ctu-info=0 / no-lowpass-dct / refine-analysis-type=0 / copy-pic=1 / max-ausize-factor=1.0 / no-dynamic-refine / no-single-sei / no-hevc-aq / no-svt / no-field / qp-adaptation-range=1.00 / scenecut-aware-qp=0conformance-window-offsets / right=0 / bottom=0 / decoder-max-rate=0 / no-vbv-live-multi-pass / no-mcstf / no-sbrc
Язык : Английский
По умолчанию : Да
Принудительно : Нет

Аудио #1
Идентификатор : 2
Формат : AC-3
Формат/Информация : Audio Coding 3
Коммерческое название : Dolby Digital
Идентификатор кодека : A_AC3
Продолжительность : 1 ч. 55 мин.
Вид битрейта : Постоянный
Битрейт : 384 Кбит/сек
Канал(-ы) : 6 каналов
Расположение каналов : L R C LFE Ls Rs
Частота дискретизации : 48,0 КГц
Частота кадров : 31,250 кадров/сек (1536 SPF)
Метод сжатия : С потерями
Размер потока : 318 Мбайт (5%)
Заголовок : DUB (SC Produb)
Язык : Русский
Вид сервиса : Complete Main
По умолчанию : Да
Принудительно : Нет
Нормализация звука речи : -31 dB
cmixlev : -3.0 dB
surmixlev : -6 dB
dialnorm_Average : -31 dB
dialnorm_Minimum : -31 dB
dialnorm_Maximum : -31 dB

Аудио #2
Идентификатор : 3
Формат : AC-3
Формат/Информация : Audio Coding 3
Коммерческое название : Dolby Digital
Идентификатор кодека : A_AC3
Продолжительность : 1 ч. 55 мин.
Вид битрейта : Постоянный
Битрейт : 384 Кбит/сек
Канал(-ы) : 6 каналов
Расположение каналов : L R C LFE Ls Rs
Частота дискретизации : 48,0 КГц
Частота кадров : 31,250 кадров/сек (1536 SPF)
Метод сжатия : С потерями
Размер потока : 318 Мбайт (5%)
Заголовок : DUB (Red Head Sound)
Язык : Русский
Вид сервиса : Complete Main
По умолчанию : Нет
Принудительно : Нет
Нормализация звука речи : -31 dB
cmixlev : -4.5 dB
surmixlev : -6 dB
dialnorm_Average : -31 dB
dialnorm_Minimum : -31 dB
dialnorm_Maximum : -31 dB

Аудио #3
Идентификатор : 4
Формат : AC-3
Формат/Информация : Audio Coding 3
Коммерческое название : Dolby Digital
Идентификатор кодека : A_AC3
Продолжительность : 1 ч. 55 мин.
Вид битрейта : Постоянный
Битрейт : 384 Кбит/сек
Канал(-ы) : 6 каналов
Расположение каналов : L R C LFE Ls Rs
Частота дискретизации : 48,0 КГц
Частота кадров : 31,250 кадров/сек (1536 SPF)
Метод сжатия : С потерями
Размер потока : 318 Мбайт (5%)
Заголовок : MVO (TVShows)
Язык : Русский
Вид сервиса : Complete Main
По умолчанию : Нет
Принудительно : Нет
Нормализация звука речи : -31 dB
cmixlev : -4.5 dB
surmixlev : -6 dB
dialnorm_Average : -31 dB
dialnorm_Minimum : -31 dB
dialnorm_Maximum : -31 dB

Аудио #4
Идентификатор : 5
Формат : AC-3
Формат/Информация : Audio Coding 3
Коммерческое название : Dolby Digital
Идентификатор кодека : A_AC3
Продолжительность : 1 ч. 55 мин.
Вид битрейта : Постоянный
Битрейт : 448 Кбит/сек
Канал(-ы) : 6 каналов
Расположение каналов : L R C LFE Ls Rs
Частота дискретизации : 48,0 КГц
Частота кадров : 31,250 кадров/сек (1536 SPF)
Метод сжатия : С потерями
Размер потока : 371 Мбайт (5%)
Заголовок : VO (Михаил Чадов)
Язык : Русский
Вид сервиса : Complete Main
По умолчанию : Нет
Принудительно : Нет
Нормализация звука речи : -31 dB
cmixlev : -3.0 dB
surmixlev : -3 dB
dmixmod : Lo/Ro
ltrtcmixlev : -3.0 dB
ltrtsurmixlev : -3.0 dB
lorocmixlev : -3.0 dB
lorosurmixlev : -3.0 dB
dialnorm_Average : -31 dB
dialnorm_Minimum : -31 dB
dialnorm_Maximum : -31 dB

Аудио #5
Идентификатор : 6
Формат : AC-3
Формат/Информация : Audio Coding 3
Коммерческое название : Dolby Digital
Идентификатор кодека : A_AC3
Продолжительность : 1 ч. 55 мин.
Вид битрейта : Постоянный
Битрейт : 384 Кбит/сек
Канал(-ы) : 6 каналов
Расположение каналов : L R C LFE Ls Rs
Частота дискретизации : 48,0 КГц
Частота кадров : 31,250 кадров/сек (1536 SPF)
Метод сжатия : С потерями
Размер потока : 318 Мбайт (5%)
Заголовок : DUB (Postmodern)
Язык : Украинский
Вид сервиса : Complete Main
По умолчанию : Нет
Принудительно : Нет
Нормализация звука речи : -31 dB
cmixlev : -4.5 dB
surmixlev : -6 dB
dialnorm_Average : -31 dB
dialnorm_Minimum : -31 dB
dialnorm_Maximum : -31 dB

Аудио #6
Идентификатор : 7
Формат : AC-3
Формат/Информация : Audio Coding 3
Коммерческое название : Dolby Digital
Идентификатор кодека : A_AC3
Продолжительность : 1 ч. 55 мин.
Вид битрейта : Постоянный
Битрейт : 640 Кбит/сек
Канал(-ы) : 6 каналов
Расположение каналов : L R C LFE Ls Rs
Частота дискретизации : 48,0 КГц
Частота кадров : 31,250 кадров/сек (1536 SPF)
Метод сжатия : С потерями
Размер потока : 530 Мбайт (8%)
Язык : Английский
Вид сервиса : Complete Main
По умолчанию : Нет
Принудительно : Нет
Нормализация звука речи : -27 dB
compr : -0.28 dB
cmixlev : -3.0 dB
surmixlev : -3 dB
mixlevel : 285 dB
roomtyp : Small
dialnorm_Average : -27 dB
dialnorm_Minimum : -27 dB
dialnorm_Maximum : -27 dB

Текст #1
Идентификатор : 8
Формат : UTF-8
Идентификатор кодека : S_TEXT/UTF8
Идентификатор кодека/Информация : UTF-8 Plain Text
Продолжительность : 1 ч. 54 мин.
Битрейт : 5 бит/сек
Частота кадров : 0,018 кадр/сек
Число элементов : 121
Размер потока : 4,83 КиБ (0%)
Заголовок : Forced (Для дубляжа SC Produb)
Язык : Русский
По умолчанию : Да
Принудительно : Нет

Текст #2
Идентификатор : 9
Формат : UTF-8
Идентификатор кодека : S_TEXT/UTF8
Идентификатор кодека/Информация : UTF-8 Plain Text
Продолжительность : 1 ч. 53 мин.
Битрейт : 0 бит/сек
Частота кадров : 0,001 кадр/сек
Число элементов : 9
Размер потока : 227 байт (0%)
Заголовок : Forced (Для дубляжа Red Head Sound)
Язык : Русский
По умолчанию : Нет
Принудительно : Нет

Текст #3
Идентификатор : 10
Формат : UTF-8
Идентификатор кодека : S_TEXT/UTF8
Идентификатор кодека/Информация : UTF-8 Plain Text
Продолжительность : 1 ч. 54 мин.
Битрейт : 69 бит/сек
Частота кадров : 0,216 кадр/сек
Число элементов : 1486
Размер потока : 58,3 КиБ (0%)
Заголовок : Russian full v.1
Язык : Русский
По умолчанию : Нет
Принудительно : Нет

Текст #4
Идентификатор : 11
Формат : UTF-8
Идентификатор кодека : S_TEXT/UTF8
Идентификатор кодека/Информация : UTF-8 Plain Text
Продолжительность : 1 ч. 45 мин.
Битрейт : 90 бит/сек
Частота кадров : 0,235 кадр/сек
Число элементов : 1482
Размер потока : 69,8 КиБ (0%)
Заголовок : Russian full v.2
Язык : Русский
По умолчанию : Нет
Принудительно : Нет

Текст #5
Идентификатор : 12
Формат : UTF-8
Идентификатор кодека : S_TEXT/UTF8
Идентификатор кодека/Информация : UTF-8 Plain Text
Продолжительность : 1 ч. 43 мин.
Битрейт : 7 бит/сек
Частота кадров : 0,018 кадр/сек
Число элементов : 113
Размер потока : 5,48 КиБ (0%)
Заголовок : Ukrainian forced
Язык : Украинский
По умолчанию : Нет
Принудительно : Нет

Текст #6
Идентификатор : 13
Формат : UTF-8
Идентификатор кодека : S_TEXT/UTF8
Идентификатор кодека/Информация : UTF-8 Plain Text
Продолжительность : 1 ч. 35 мин.
Битрейт : 3 бит/сек
Частота кадров : 0,016 кадр/сек
Число элементов : 90
Размер потока : 2,71 КиБ (0%)
Заголовок : English forced
Язык : Английский
По умолчанию : Нет
Принудительно : Нет

Текст #7
Идентификатор : 14
Формат : UTF-8
Идентификатор кодека : S_TEXT/UTF8
Идентификатор кодека/Информация : UTF-8 Plain Text
Продолжительность : 1 ч. 48 мин.
Битрейт : 52 бит/сек
Частота кадров : 0,252 кадр/сек
Число элементов : 1639
Размер потока : 41,8 КиБ (0%)
Заголовок : English full
Язык : Английский
По умолчанию : Нет
Принудительно : Нет

Текст #8
Идентификатор : 15
Формат : UTF-8
Идентификатор кодека : S_TEXT/UTF8
Идентификатор кодека/Информация : UTF-8 Plain Text
Продолжительность : 1 ч. 50 мин.
Битрейт : 67 бит/сек
Частота кадров : 0,310 кадр/сек
Число элементов : 2057
Размер потока : 54,9 КиБ (0%)
Заголовок : English SDH
Язык : Английский
По умолчанию : Нет
Принудительно : Нет

Меню
00:00:00.000 : en:Chapter 01
00:08:44.357 : en:Chapter 02
00:18:02.164 : en:Chapter 03
00:27:16.093 : en:Chapter 04
00:36:33.817 : en:Chapter 05
00:44:03.182 : en:Chapter 06
00:51:23.122 : en:Chapter 07
00:58:48.066 : en:Chapter 08
01:08:29.939 : en:Chapter 09
01:17:19.385 : en:Chapter 10
01:26:19.257 : en:Chapter 11
01:33:37.028 : en:Chapter 12
01:39:35.970 : en:Chapter 13
01:46:07.444 : en:Chapter 14
Загрузка...Cкриншот1 Мег 2: Бездна / Meg 2: The Trench (2023) BDRip 1080p [HEVC] 10 bit от OldGamer (RG RIPS CLUB)Загрузка...Cкриншот2 Мег 2: Бездна / Meg 2: The Trench (2023) BDRip 1080p [HEVC] 10 bit от OldGamer (RG RIPS CLUB)Загрузка...Cкриншот3 Мег 2: Бездна / Meg 2: The Trench (2023) BDRip 1080p [HEVC] 10 bit от OldGamer (RG RIPS CLUB)Загрузка...Cкриншот4 Мег 2: Бездна / Meg 2: The Trench (2023) BDRip 1080p [HEVC] 10 bit от OldGamer (RG RIPS CLUB)
Поблагодарили: 5and50, garant3v, Kiran, Kristina, MIGRANT
Файлы: 1
  • Мег.2.Бездна.Meg.2.The.Trench.2023.BDRip-HEVC.1080p.mkv

Рейтинги КП и IMDB, кнопки "Раздайте, пожалуйста" и "Спасибо", а также мультитрекерная статистика доступны только зарегистрированным/авторизованным пользователям!

OldGamer
381020906.81 ГБ

💬︎ Комментарии

Добавление комментариев доступно только зарегистрированным/авторизованным пользователям.