Чат

⚫︎
Список изменений сайта - https://rips.club/changelog.html (обновлен 24.05.2024)
  • OldGamer
  • Kristina
  • sabretooth
  • Winsent
Онлайн (за 10 мин.): 4
  • Antilord90: Может кто переделает "Секс по дружбе" телики не воспроизводят!
  • Гл. Админ: Niflung, раздаю
  • VIS: Раздайте, пожалуйста, Большое путешествие / The Wild (2006) BDRip 1080p [HEVC] 10 bit от Мичман
  • Niflung: Раздайте, пожалуйста, Тихое место: Дилогия / A Quiet Place: Dilogy (2018-2020) UHD-BDRip 1080p [HEVC] 10 bit [HDR] от Mr. Fox
  • Antilord90: Сообщение удалено (удалил: Antilord90)
  • Niflung: Гл. Админ, Ладно, буду качать 10 bit версию)
  • Гл. Админ: Niflung, у меня только 10-битная версия
  • HANNIBAL: Гл. Админ, все норм раздача идет
  • Niflung: Раздайте, пожалуйста, Берегись автомобиля (1966) [Цветная версия] BDRip 1080p [HEVC] 8 bit от ADVOKAT69
  • Гл. Админ: HANNIBAL, Я удалил раздачу, которую заливал я. А другую заливал ты, и она была как на руторе. Теперь не понятно на что ты перезалил (в чем разница по сравнению с предыдущей, т.е. руторовской), потому что сидов нет. По моему ты не исправил, а сломал ) ( отредактировано: )
  • Гл. Админ: OldGamer, вообще задумка была сделать цветовую дифференциацию как в фильме Кин-дза-дза!, но поскольку желтый ник лучше подходит для випов, то немного не получилось.
  • Гл. Админ: HANNIBAL, их 2. Что там нужно исправлять?
  • Гл. Админ: HANNIBAL, Я думаю в добавок к зеленой могут появиться и другие цвета. ( отредактировано: )
  • HANNIBAL: Гл. Админ, и исправь раздачу Голая правда
  • HANNIBAL: Гл. Админ, не пора убрать с посторов эту зеленую надпись )))
  • HANNIBAL: Сообщение удалено (удалил: HANNIBAL)
  • Гл. Админ: HANNIBAL, админов теперь 2 ( отредактировано: )
  • HANNIBAL: админ привет
  • Antilord90: Раздайте, пожалуйста, Мальчикам это нравится / The House Bunny (2008) BDRip 1080p [HEVC] 10 bit от -Star-Lord- (RG RIPS CLUB)
  • Гл. Админ: Продлил доменное имя (адрес сайта) на год. Что-то он подорожал (24 евро вместо прежних 12). Ещё раз спасибо всем, кто поддерживает финансово. ( отредактировано: )
Отправка сообщений доступна только зарегистрированным/авторизованным пользователям.

🎥︎Кодекс молчания / Code of Silence (1985) BDRip 1080p [HEVC] 10 bit от OldGamer (RG RIPS CLUB)


Обложка Кодекс молчания / Code of Silence (1985) BDRip 1080p [HEVC] 10 bit от OldGamer (RG RIPS CLUB)
HEVC
10 bit
✂︎Сэмпл⤓︎Торрент🧲︎Магнет$Пожертвования

При перезаливке на другие сайты просьба указать автора и релиз-группу.


Год: 1985
Страна: США
Студия: Orion Pictures
Жанр: Боевик, Триллер, Драма, Криминал
Длительность: 01:40:49

Режиссер: Эндрю Дэвис
В ролях: Чак Норрис, Генри Сильва, Берт Ремсен, Майк Дженовезе, Деннис Фарина, Нэйтан Дэвис, Ральф Фуди, Аллен Хэмилтон, Рон Энрикез, Джо Гузальдо, Молли Хэйгэн

Описание: Очередная операция полиции Чикаго планировалась особенно тщательно. Дело того стоило: наконец-то появилась возможность взять с поличным печально знаменитую нарко-банду Комачо. Но в момент передачи «товара» на месте сделки появляются представители конкурирующей группировки - люди Тони Луна. Завязывается перестрелка, в результате которой погибают два офицера, ранен сам Камачо, а партия наркотиков бесследно исчезает. Найти пропажу поручено детективу Эдди Кьюсаку, который решает действовать крайне осторожно и первым делом устанавливает наблюдение за Дайаной - дочерью Тони Луна…


Релиз-группа: RIPS CLUB
Исходник: Blu-Ray Remux 1080p (rutracker)
Видео: 1920x1020, ~9254 Kbps
Аудио1: AC3, 2 ch, 192 Kbps - РусскийРусский, MVO
Аудио2: AC3, 2 ch, 192 Kbps - РусскийРусский, MVO (1 канал)
Аудио3: AC3, 2 ch, 192 Kbps - РусскийРусский, MVO (5 канал)
Аудио4: AC3, 2 ch, 192 Kbps - РусскийРусский, MVO (НТВ)
Аудио5: AC3, 2 ch, 192 Kbps - РусскийРусский, MVO (РТР / "СВ-Дубль" по заказу В.Г.Т.Р.К.)
Аудио6: AC3, 2 ch, 192 Kbps - РусскийРусский, DVO (НТВ+)
Аудио7: AC3, 2 ch, 192 Kbps - РусскийРусский, AVO (Андрей Гаврилов)
Аудио8: AC3, 2 ch, 192 Kbps - РусскийРусский, AVO (Василий Горчаков)
Аудио9: AC3, 1 ch, 384 Kbps - РусскийРусский, AVO (Юрий Сербин)
Аудио10: AC3, 1 ch, 384 Kbps - РусскийРусский, AVO (Юрий Живов)
Аудио11: AC3, 1 ch, 384 Kbps - АнглийскийАнглийский
Субтитры: английские

Как за несколько секунд удалить ненужные аудиодорожки и субтитры (Внимание! После удаления вы не сможете поддержать раздачу)


Лог (x265 info)x265 [info]: frame I: 607, Avg QP:18.16 kb/s: 19056.29
x265 [info]: frame P: 26525, Avg QP:19.32 kb/s: 15071.13
x265 [info]: frame B: 117909, Avg QP:21.39 kb/s: 7893.83
x265 [info]: Weighted P-Frames: Y:10.5% UV:9.0%
x265 [info]: Weighted B-Frames: Y:12.2% UV:9.7%
x265 [info]: encoded 145041 frames in 119929.44s (1.21 fps), 9253.12 kb/s, Avg QP:20.99
МедиаинфоОбщее
Уникальный идентификатор : 263482577454744223352786245626998860367 (0xC638E608F981E2DB13A3F27C1658AA4F)
Полное имя : \\.\Кодекс.молчания.Code.of.Silence.1985.BDRip-HEVC.1080p.mkv
Формат : Matroska
Версия формата : Version 4
Размер файла : 8,41 Гбайт
Продолжительность : 1 ч. 40 мин.
Общий битрейт : 11,9 Мбит/сек
Частота кадров : 23,976 кадра/сек
Название фильма : Кодекс молчания / Кодекс молчания
Кодирование выполнил : OldGamer
Тип содержимого : Movie
Описание : Очередная операция полиции Чикаго планировалась особенно тщательно. Дело того стоило: наконец-то появилась возможность взять с поличным печально знаменитую нарко-банду Комачо.
Дата выпуска : 1985-05-03
Дата записи : 1985-05-03
Программа кодирования : mkvmerge v83.0 ('Circle Of Friends') 64-bit
Библиотека кодирования : libebml v1.4.5 + libmatroska v1.7.1 / xvid4psp5
Обложка : Yes
Attachments : cover.jpg
ACTOR : Chuck Norris, Mike Genovese, Henry Silva, Bert Remsen, Ralph Foody, Nathan Davis, Allen Hamilton, Ron Henriquez, Joe Guzaldo, Molly Hagan, Ron Dean, Wilbert Bradley, Dennis Farina, Gene Barge, Mario Nieves, Miguel Nino, Lou Damiani, Joseph F. Kosala,...
ARTIST : Chuck Norris, Mike Genovese, Henry Silva, Bert Remsen, Ralph Foody, Nathan Davis, Allen Hamilton, Ron Henriquez, Joe Guzaldo, Molly Hagan, Ron Dean, Wilbert Bradley, Dennis Farina, Gene Barge, Mario Nieves, Miguel Nino, Lou Damiani, Joseph F. Kosala,...
DIRECTOR : Andrew Davis
GENRE : боевик, криминал
LAW_RATING : R
PRODUCER : Raymond Wagner
PRODUCTION_STUDIO : Orion Pictures
RATING : R
SCREENPLAY_BY : Michael Butler, Dennis Shryack
SUMMARY : Очередная операция полиции Чикаго планировалась особенно тщательно. Дело того стоило: наконец-то появилась возможность взять с поличным печально знаменитую нарко-банду Комачо.
SYNOPSIS : Очередная операция полиции Чикаго планировалась особенно тщательно. Дело того стоило: наконец-то появилась возможность взять с поличным печально знаменитую нарко-банду Комачо. Но в момент передачи «товара» на месте сделки появляются представители конкурирующей группировки — люди Тони Луна. Завязывается перестрелка, в результате которой погибают два офицера, ранен сам Камачо, а партия наркотиков бесследно исчезает. Найти пропажу поручено детективу Эдди Кьюсаку, который решает действовать крайне осторожно и первым делом устанавливает наблюдение за Дайаной — дочерью Тони Луна…
WRITTEN_BY : Michael Butler, Dennis Shryack

Видео
Идентификатор : 1
Формат : HEVC
Формат/Информация : High Efficiency Video Coding
Профиль формата : Main 10@L4.1@High
Идентификатор кодека : V_MPEGH/ISO/HEVC
Продолжительность : 1 ч. 40 мин.
Битрейт : 9 254 Кбит/сек
Ширина : 1 920 пикселей
Высота : 1 020 пикселей
Соотношение сторон дисплея : 1,882
Режим частоты кадров : Постоянный
Частота кадров : 23,976 (24000/1001) кадра/сек
Цветовое пространство : YUV
Цветовая субдискретизация : 4:2:0
Битовая глубина : 10 бит
Бит/(Пиксели*Кадры) : 0.197
Размер потока : 6,52 Гбайт (77%)
Заголовок : Code of Silence / Rip by OldGamer
Библиотека кодирования : x265 3.5+110-8ee01d45b:[Windows][GCC 13.2.0][64 bit] 10bit
Параметры библиотеки кодирования : cpuid=1111039 / frame-threads=4 / numa-pools=16 / wpp / no-pmode / no-pme / no-psnr / no-ssim / log-level=2 / input-csp=1 / input-res=1920x1020 / interlace=0 / total-frames=145041 / level-idc=41 / high-tier=1 / uhd-bd=0 / ref=5 / no-allow-non-conformance / no-repeat-headers / annexb / no-aud / no-eob / no-eos / no-hrd / info / hash=0 / temporal-layers=0 / open-gop / min-keyint=23 / keyint=240 / gop-lookahead=0 / bframes=16 / b-adapt=2 / b-pyramid / bframe-bias=0 / rc-lookahead=40 / lookahead-slices=0 / scenecut=40 / no-hist-scenecut / radl=0 / no-splice / no-intra-refresh / ctu=32 / min-cu-size=8 / rect / amp / max-tu-size=32 / tu-inter-depth=4 / tu-intra-depth=4 / limit-tu=1 / rdoq-level=2 / dynamic-rd=0.00 / no-ssim-rd / signhide / no-tskip / nr-intra=0 / nr-inter=0 / no-constrained-intra / no-strong-intra-smoothing / max-merge=5 / limit-refs=3 / no-limit-modes / me=3 / subme=7 / merange=57 / temporal-mvp / no-frame-dup / no-hme / weightp / weightb / no-analyze-src-pics / deblock=-2:-2 / no-sao / no-sao-non-deblock / rd=6 / selective-sao=0 / no-early-skip / no-rskip / no-fast-intra / no-tskip-fast / no-cu-lossless / b-intra / no-splitrd-skip / rdpenalty=0 / psy-rd=2.00 / psy-rdoq=1.00 / no-rd-refine / no-lossless / cbqpoffs=0 / crqpoffs=0 / rc=crf / crf=20.0 / qcomp=0.60 / qpstep=4 / stats-write=0 / stats-read=0 / vbv-maxrate=50000 / vbv-bufsize=50000 / vbv-init=0.9 / min-vbv-fullness=50.0 / max-vbv-fullness=80.0 / crf-max=0.0 / crf-min=0.0 / ipratio=1.40 / pbratio=1.30 / aq-mode=1 / aq-strength=1.00 / no-cutree / zone-count=1 / zones: / start-frame=139368 / end-frame=145041 / qp=36 / no-strict-cbr / qg-size=32 / no-rc-grain / qpmax=69 / qpmin=0 / no-const-vbv / sar=1 / overscan=0 / videoformat=5 / range=0 / colorprim=2 / transfer=2 / colormatrix=2 / chromaloc=0 / display-window=0 / cll=0,0 / min-luma=0 / max-luma=1023 / log2-max-poc-lsb=8 / vui-timing-info / vui-hrd-info / slices=1 / no-opt-qp-pps / no-opt-ref-list-length-pps / no-multi-pass-opt-rps / scenecut-bias=0.00 / no-opt-cu-delta-qp / no-aq-motion / no-hdr10 / no-hdr10-opt / no-dhdr10-opt / no-idr-recovery-sei / analysis-reuse-level=0 / analysis-save-reuse-level=0 / analysis-load-reuse-level=0 / scale-factor=0 / refine-intra=0 / refine-inter=0 / refine-mv=1 / refine-ctu-distortion=0 / no-limit-sao / ctu-info=0 / no-lowpass-dct / refine-analysis-type=0 / copy-pic=1 / max-ausize-factor=1.0 / no-dynamic-refine / no-single-sei / no-hevc-aq / no-svt / no-field / qp-adaptation-range=1.00 / scenecut-aware-qp=0conformance-window-offsets / right=0 / bottom=0 / decoder-max-rate=0 / no-vbv-live-multi-pass / no-mcstf / no-sbrc
Язык : Английский
По умолчанию : Да
Принудительно : Нет

Аудио #1
Идентификатор : 2
Формат : AC-3
Формат/Информация : Audio Coding 3
Коммерческое название : Dolby Digital
Идентификатор кодека : A_AC3
Продолжительность : 1 ч. 40 мин.
Вид битрейта : Постоянный
Битрейт : 192 Кбит/сек
Канал(-ы) : 2 канала
Расположение каналов : L R
Частота дискретизации : 48,0 КГц
Частота кадров : 31,250 кадров/сек (1536 SPF)
Метод сжатия : С потерями
Размер потока : 138 Мбайт (2%)
Заголовок : MVO
Язык : Русский
Вид сервиса : Complete Main
По умолчанию : Да
Принудительно : Нет
Нормализация звука речи : -27 dB
compr : -0.28 dB
dynrng : -4.30 dB
mixlevel : 285 dB
roomtyp : Small
dialnorm_Average : -27 dB
dialnorm_Minimum : -27 dB
dialnorm_Maximum : -27 dB

Аудио #2
Идентификатор : 3
Формат : AC-3
Формат/Информация : Audio Coding 3
Коммерческое название : Dolby Digital
Идентификатор кодека : A_AC3
Продолжительность : 1 ч. 40 мин.
Вид битрейта : Постоянный
Битрейт : 192 Кбит/сек
Канал(-ы) : 2 канала
Расположение каналов : L R
Частота дискретизации : 48,0 КГц
Частота кадров : 31,250 кадров/сек (1536 SPF)
Метод сжатия : С потерями
Размер потока : 138 Мбайт (2%)
Заголовок : MVO (1 канал)
Язык : Русский
Вид сервиса : Complete Main
По умолчанию : Нет
Принудительно : Нет
Нормализация звука речи : -31 dB
dialnorm_Average : -31 dB
dialnorm_Minimum : -31 dB
dialnorm_Maximum : -31 dB

Аудио #3
Идентификатор : 4
Формат : AC-3
Формат/Информация : Audio Coding 3
Коммерческое название : Dolby Digital
Идентификатор кодека : A_AC3
Продолжительность : 1 ч. 40 мин.
Вид битрейта : Постоянный
Битрейт : 192 Кбит/сек
Канал(-ы) : 2 канала
Расположение каналов : L R
Частота дискретизации : 48,0 КГц
Частота кадров : 31,250 кадров/сек (1536 SPF)
Метод сжатия : С потерями
Размер потока : 138 Мбайт (2%)
Заголовок : MVO (5 канал)
Язык : Русский
Вид сервиса : Complete Main
По умолчанию : Нет
Принудительно : Нет
Нормализация звука речи : -27 dB
compr : -0.28 dB
dsurmod : Not Dolby Surround encoded
mixlevel : 285 dB
roomtyp : Small
dialnorm_Average : -27 dB
dialnorm_Minimum : -27 dB
dialnorm_Maximum : -27 dB

Аудио #4
Идентификатор : 5
Формат : AC-3
Формат/Информация : Audio Coding 3
Коммерческое название : Dolby Digital
Идентификатор кодека : A_AC3
Продолжительность : 1 ч. 40 мин.
Вид битрейта : Постоянный
Битрейт : 192 Кбит/сек
Канал(-ы) : 2 канала
Расположение каналов : L R
Частота дискретизации : 48,0 КГц
Частота кадров : 31,250 кадров/сек (1536 SPF)
Метод сжатия : С потерями
Размер потока : 138 Мбайт (2%)
Заголовок : MVO (НТВ)
Язык : Русский
Вид сервиса : Complete Main
По умолчанию : Нет
Принудительно : Нет
Нормализация звука речи : -27 dB
compr : -0.28 dB
dialnorm_Average : -27 dB
dialnorm_Minimum : -27 dB
dialnorm_Maximum : -27 dB

Аудио #5
Идентификатор : 6
Формат : AC-3
Формат/Информация : Audio Coding 3
Коммерческое название : Dolby Digital
Идентификатор кодека : A_AC3
Продолжительность : 1 ч. 40 мин.
Вид битрейта : Постоянный
Битрейт : 192 Кбит/сек
Канал(-ы) : 2 канала
Расположение каналов : L R
Частота дискретизации : 48,0 КГц
Частота кадров : 31,250 кадров/сек (1536 SPF)
Метод сжатия : С потерями
Размер потока : 138 Мбайт (2%)
Заголовок : MVO (РТР / "СВ-Дубль" по заказу В.Г.Т.Р.К.)
Язык : Русский
Вид сервиса : Complete Main
По умолчанию : Нет
Принудительно : Нет
Нормализация звука речи : -27 dB
compr : -0.28 dB
dialnorm_Average : -27 dB
dialnorm_Minimum : -27 dB
dialnorm_Maximum : -27 dB

Аудио #6
Идентификатор : 7
Формат : AC-3
Формат/Информация : Audio Coding 3
Коммерческое название : Dolby Digital
Идентификатор кодека : A_AC3
Продолжительность : 1 ч. 40 мин.
Вид битрейта : Постоянный
Битрейт : 192 Кбит/сек
Канал(-ы) : 2 канала
Расположение каналов : L R
Частота дискретизации : 48,0 КГц
Частота кадров : 31,250 кадров/сек (1536 SPF)
Метод сжатия : С потерями
Размер потока : 138 Мбайт (2%)
Заголовок : DVO (НТВ+)
Язык : Русский
Вид сервиса : Complete Main
По умолчанию : Нет
Принудительно : Нет
Нормализация звука речи : -27 dB
compr : -0.28 dB
dialnorm_Average : -27 dB
dialnorm_Minimum : -27 dB
dialnorm_Maximum : -27 dB

Аудио #7
Идентификатор : 8
Формат : AC-3
Формат/Информация : Audio Coding 3
Коммерческое название : Dolby Digital
Идентификатор кодека : A_AC3
Продолжительность : 1 ч. 40 мин.
Вид битрейта : Постоянный
Битрейт : 192 Кбит/сек
Канал(-ы) : 2 канала
Расположение каналов : L R
Частота дискретизации : 48,0 КГц
Частота кадров : 31,250 кадров/сек (1536 SPF)
Метод сжатия : С потерями
Размер потока : 138 Мбайт (2%)
Заголовок : AVO (Андрей Гаврилов)
Язык : Русский
Вид сервиса : Complete Main
По умолчанию : Нет
Принудительно : Нет
Нормализация звука речи : -27 dB
compr : -0.28 dB
dynrng : -4.30 dB
mixlevel : 285 dB
roomtyp : Small
dialnorm_Average : -27 dB
dialnorm_Minimum : -27 dB
dialnorm_Maximum : -27 dB

Аудио #8
Идентификатор : 9
Формат : AC-3
Формат/Информация : Audio Coding 3
Коммерческое название : Dolby Digital
Идентификатор кодека : A_AC3
Продолжительность : 1 ч. 40 мин.
Вид битрейта : Постоянный
Битрейт : 192 Кбит/сек
Канал(-ы) : 2 канала
Расположение каналов : L R
Частота дискретизации : 48,0 КГц
Частота кадров : 31,250 кадров/сек (1536 SPF)
Метод сжатия : С потерями
Размер потока : 138 Мбайт (2%)
Заголовок : AVO (Василий Горчаков)
Язык : Русский
Вид сервиса : Complete Main
По умолчанию : Нет
Принудительно : Нет
Нормализация звука речи : -27 dB
compr : -0.28 dB
dynrng : -4.30 dB
mixlevel : 285 dB
roomtyp : Small
dialnorm_Average : -27 dB
dialnorm_Minimum : -27 dB
dialnorm_Maximum : -27 dB

Аудио #9
Идентификатор : 10
Формат : AC-3
Формат/Информация : Audio Coding 3
Коммерческое название : Dolby Digital
Идентификатор кодека : A_AC3
Продолжительность : 1 ч. 40 мин.
Вид битрейта : Постоянный
Битрейт : 384 Кбит/сек
Канал(-ы) : 1 канал
Расположение каналов : M
Частота дискретизации : 48,0 КГц
Частота кадров : 31,250 кадров/сек (1536 SPF)
Метод сжатия : С потерями
Размер потока : 277 Мбайт (3%)
Заголовок : AVO (Юрий Сербин)
Язык : Русский
Вид сервиса : Complete Main
По умолчанию : Нет
Принудительно : Нет
Нормализация звука речи : -27 dB
compr : -0.28 dB
dynrng : 16.42 dB
mixlevel : 285 dB
roomtyp : Small
dialnorm_Average : -27 dB
dialnorm_Minimum : -27 dB
dialnorm_Maximum : -27 dB

Аудио #10
Идентификатор : 11
Формат : AC-3
Формат/Информация : Audio Coding 3
Коммерческое название : Dolby Digital
Идентификатор кодека : A_AC3
Продолжительность : 1 ч. 40 мин.
Вид битрейта : Постоянный
Битрейт : 384 Кбит/сек
Канал(-ы) : 1 канал
Расположение каналов : M
Частота дискретизации : 48,0 КГц
Частота кадров : 31,250 кадров/сек (1536 SPF)
Метод сжатия : С потерями
Размер потока : 277 Мбайт (3%)
Заголовок : AVO (Юрий Живов)
Язык : Русский
Вид сервиса : Complete Main
По умолчанию : Нет
Принудительно : Нет
Нормализация звука речи : -27 dB
compr : -0.28 dB
dynrng : 11.90 dB
mixlevel : 285 dB
roomtyp : Small
dialnorm_Average : -27 dB
dialnorm_Minimum : -27 dB
dialnorm_Maximum : -27 dB

Аудио #11
Идентификатор : 12
Формат : AC-3
Формат/Информация : Audio Coding 3
Коммерческое название : Dolby Digital
Идентификатор кодека : A_AC3
Продолжительность : 1 ч. 40 мин.
Вид битрейта : Постоянный
Битрейт : 384 Кбит/сек
Канал(-ы) : 1 канал
Расположение каналов : M
Частота дискретизации : 48,0 КГц
Частота кадров : 31,250 кадров/сек (1536 SPF)
Метод сжатия : С потерями
Размер потока : 277 Мбайт (3%)
Язык : Английский
Вид сервиса : Complete Main
По умолчанию : Нет
Принудительно : Нет
Нормализация звука речи : -27 dB
compr : -0.28 dB
dynrng : 11.90 dB
mixlevel : 285 dB
roomtyp : Small
dialnorm_Average : -27 dB
dialnorm_Minimum : -27 dB
dialnorm_Maximum : -27 dB

Текст
Идентификатор : 13
Формат : UTF-8
Идентификатор кодека : S_TEXT/UTF8
Идентификатор кодека/Информация : UTF-8 Plain Text
Продолжительность : 1 ч. 40 мин.
Битрейт : 43 бит/сек
Частота кадров : 0,156 кадр/сек
Число элементов : 939
Размер потока : 31,8 КиБ (0%)
Заголовок : SRT
Язык : Английский
По умолчанию : Нет
Принудительно : Нет

Меню
00:00:00.000 : en:00:00:00.000
00:17:24.794 : en:00:17:24.794
00:35:04.019 : en:00:35:04.019
00:43:04.916 : en:00:43:04.916
00:53:51.019 : en:00:53:51.019
01:12:07.573 : en:01:12:07.573
01:24:33.777 : en:01:24:33.777
01:36:23.653 : en:01:36:23.653
Загрузка...Cкриншот1 Кодекс молчания / Code of Silence (1985) BDRip 1080p [HEVC] 10 bit от OldGamer (RG RIPS CLUB)Загрузка...Cкриншот2 Кодекс молчания / Code of Silence (1985) BDRip 1080p [HEVC] 10 bit от OldGamer (RG RIPS CLUB)Загрузка...Cкриншот3 Кодекс молчания / Code of Silence (1985) BDRip 1080p [HEVC] 10 bit от OldGamer (RG RIPS CLUB)Загрузка...Cкриншот4 Кодекс молчания / Code of Silence (1985) BDRip 1080p [HEVC] 10 bit от OldGamer (RG RIPS CLUB)
Поблагодарили: 3Kiran, MIGRANT, sharkey71
Файлы: 1
  • Кодекс.молчания.Code.of.Silence.1985.BDRip-HEVC.1080p.mkv

Рейтинги КП и IMDB, кнопки "Раздайте, пожалуйста" и "Спасибо", а также мультитрекерная статистика доступны только зарегистрированным/авторизованным пользователям!

OldGamer
818008.41 ГБ

💬︎ Комментарии

Добавление комментариев доступно только зарегистрированным/авторизованным пользователям.