Чат

⚫︎
Список изменений сайта - https://rips.club/changelog.html (обновлен 24.05.2024)
  • VVV999
  • Winsent
Онлайн (за 10 мин.): 2
  • Antilord90: Может кто переделает "Секс по дружбе" телики не воспроизводят!
  • Гл. Админ: Niflung, раздаю
  • VIS: Раздайте, пожалуйста, Большое путешествие / The Wild (2006) BDRip 1080p [HEVC] 10 bit от Мичман
  • Niflung: Раздайте, пожалуйста, Тихое место: Дилогия / A Quiet Place: Dilogy (2018-2020) UHD-BDRip 1080p [HEVC] 10 bit [HDR] от Mr. Fox
  • Antilord90: Сообщение удалено (удалил: Antilord90)
  • Niflung: Гл. Админ, Ладно, буду качать 10 bit версию)
  • Гл. Админ: Niflung, у меня только 10-битная версия
  • HANNIBAL: Гл. Админ, все норм раздача идет
  • Niflung: Раздайте, пожалуйста, Берегись автомобиля (1966) [Цветная версия] BDRip 1080p [HEVC] 8 bit от ADVOKAT69
  • Гл. Админ: HANNIBAL, Я удалил раздачу, которую заливал я. А другую заливал ты, и она была как на руторе. Теперь не понятно на что ты перезалил (в чем разница по сравнению с предыдущей, т.е. руторовской), потому что сидов нет. По моему ты не исправил, а сломал ) ( отредактировано: )
  • Гл. Админ: OldGamer, вообще задумка была сделать цветовую дифференциацию как в фильме Кин-дза-дза!, но поскольку желтый ник лучше подходит для випов, то немного не получилось.
  • Гл. Админ: HANNIBAL, их 2. Что там нужно исправлять?
  • Гл. Админ: HANNIBAL, Я думаю в добавок к зеленой могут появиться и другие цвета. ( отредактировано: )
  • HANNIBAL: Гл. Админ, и исправь раздачу Голая правда
  • HANNIBAL: Гл. Админ, не пора убрать с посторов эту зеленую надпись )))
  • HANNIBAL: Сообщение удалено (удалил: HANNIBAL)
  • Гл. Админ: HANNIBAL, админов теперь 2 ( отредактировано: )
  • HANNIBAL: админ привет
  • Antilord90: Раздайте, пожалуйста, Мальчикам это нравится / The House Bunny (2008) BDRip 1080p [HEVC] 10 bit от -Star-Lord- (RG RIPS CLUB)
  • Гл. Админ: Продлил доменное имя (адрес сайта) на год. Что-то он подорожал (24 евро вместо прежних 12). Ещё раз спасибо всем, кто поддерживает финансово. ( отредактировано: )
Отправка сообщений доступна только зарегистрированным/авторизованным пользователям.

🎥︎Почему я? / Why Me? (1990) BDRip 1080p [HEVC] 10 bit от OldGamer (RG RIPS CLUB)


Обложка Почему я? / Why Me? (1990) BDRip 1080p [HEVC] 10 bit от OldGamer (RG RIPS CLUB)
HEVC
10 bit
✂︎Сэмпл⤓︎Торрент🧲︎Магнет$Пожертвования

При перезаливке на другие сайты просьба указать автора и релиз-группу.


Год: 1990
Страна: США
Студия: Carolina Productions, Epic Productions, Sarlui / Diamant
Жанр: Боевик, Комедия, Криминал, Приключения
Длительность: 01:27:38

Режиссер: Джин Квинтано
В ролях: Кристофер Ламберт, Ким Грайст, Кристофер Ллойд, Дж.Т. Уолш, Грегори Миллар, Вендел Мелдрам, Майкл Дж. Поллард, Джон Хэнкок, Тони Плана, Томас Колэуэй

Описание: Молодой и очень талантливый медвежатник Гас Кардинал вместе со своим приятелем Бруно Дейли грабит ювелирную лавку одного богатого армянина. Среди добычи обнаруживается рубин неимоверных размеров, который Гас принимает за подделку (уж очень он большой) и выкидывает в ведро. Но позже оказывается, что это - настоящий и очень знаменитый рубин, который был украден Новой Партией Армянского Освобождения в тот момент, когда правительство США передавало его туркам (камень является национальным достоянием Турции). И теперь за Гасом охотятся и фанатики из Новой Партии Армянского Освобождения, и турки, и полиция в лице капитана Махоуни, и собратья-преступники, которым полиция из-за пропажи рубина устроила большой круцефикс с переворотами.


Релиз-группа: RIPS CLUB
Исходник: Blu-Ray Remux 1080p (rutracker)
Видео: 1906x1030, ~5786 Kbps
Аудио1: AC3, 2 ch, 192 Kbps - РусскийРусский, MVO (ТВ3)
Аудио2: AC3, 2 ch, 192 Kbps - РусскийРусский, DVO (ОРТ)
Аудио3: AC3, 2 ch, 192 Kbps - РусскийРусский, AVO (Андрей Гаврилов)
Аудио4: AC3, 2 ch, 192 Kbps - РусскийРусский, AVO (Сергей Дьяков)
Аудио5: AC3, 2 ch, 224 Kbps - АнглийскийАнглийский
Субтитры: русские, английские (SDH)

Как за несколько секунд удалить ненужные аудиодорожки и субтитры (Внимание! После удаления вы не сможете поддержать раздачу)


Лог (x265 info)x265 [info]: frame I: 527, Avg QP:17.90 kb/s: 14435.13
x265 [info]: frame P: 24085, Avg QP:18.94 kb/s: 11331.90
x265 [info]: frame B: 101461, Avg QP:21.37 kb/s: 4423.80
x265 [info]: Weighted P-Frames: Y:7.8% UV:5.8%
x265 [info]: Weighted B-Frames: Y:7.8% UV:4.7%
x265 [info]: encoded 126073 frames in 88339.12s (1.43 fps), 5785.37 kb/s, Avg QP:20.89
МедиаинфоОбщее
Уникальный идентификатор : 235474731453488037490914972545373920930 (0xB126C89CFA27ED780D70F5006CC75EA2)
Полное имя : \\.\Почему.я.Why.Me.1990.HanseSound.BDRip-HEVC.1080p.mkv
Формат : Matroska
Версия формата : Version 4
Размер файла : 4,15 Гбайт
Продолжительность : 1 ч. 27 мин.
Общий битрейт : 6 783 Кбит/сек
Частота кадров : 23,976 кадра/сек
Название фильма : Почему я? / Почему я?
Кодирование выполнил : OldGamer
Тип содержимого : Movie
Дата выпуска : 1990-02-08
Дата записи : 1990-02-08
Программа кодирования : mkvmerge v83.0 ('Circle Of Friends') 64-bit
Библиотека кодирования : libebml v1.4.5 + libmatroska v1.7.1 / xvid4psp5
Обложка : Yes
Attachments : cover.jpg
ACTOR : Christophe Lambert, Kim Greist, Кристофер Ллойд, J.T. Walsh, Gregory Millar, Wendel Meldrum, Michael J. Pollard, John Hancock, Jill Terashita, Jack Kehler, Lawrence Tierney, Debbie Evans, Mickey Yablans
ARTIST : Christophe Lambert, Kim Greist, Кристофер Ллойд, J.T. Walsh, Gregory Millar, Wendel Meldrum, Michael J. Pollard, John Hancock, Jill Terashita, Jack Kehler, Lawrence Tierney, Debbie Evans, Mickey Yablans
DIRECTOR : Gene Quintano
GENRE : комедия, боевик
LAW_RATING : R
PRODUCER : Marjorie Israël
RATING : R
SCREENPLAY_BY : Leonard Maas Jr.
SYNOPSIS : Молодой и очень талантливый медвежатник Гас Кардинал вместе со своим приятелем Бруно Дейли грабит ювелирную лавку одного богатого армянина. Среди добычи обнаруживается рубин неимоверных размеров, который был украден Новой Партией Армянского Освобождения в тот момент, когда правительство США передавало его туркам. И теперь за Гасом охотятся и фанатики из Новой Партии Армянского Освобождения, и турки, и полиция в лице капитана Махоуни, и собратья-преступники, которым полиция из-за пропажи рубина устроила большой круцефикс с переворотами.
WRITTEN_BY : Leonard Maas Jr.

Видео
Идентификатор : 1
Формат : HEVC
Формат/Информация : High Efficiency Video Coding
Профиль формата : Main 10@L4.1@High
Идентификатор кодека : V_MPEGH/ISO/HEVC
Продолжительность : 1 ч. 27 мин.
Битрейт : 5 786 Кбит/сек
Ширина : 1 906 пикселей
Высота : 1 030 пикселей
Соотношение сторон дисплея : 1,85:1
Режим частоты кадров : Постоянный
Частота кадров : 23,976 (24000/1001) кадра/сек
Цветовое пространство : YUV
Цветовая субдискретизация : 4:2:0
Битовая глубина : 10 бит
Бит/(Пиксели*Кадры) : 0.123
Размер потока : 3,54 Гбайт (85%)
Заголовок : Why Me / Rip by OldGamer
Библиотека кодирования : x265 3.5+110-8ee01d45b:[Windows][GCC 13.2.0][64 bit] 10bit
Параметры библиотеки кодирования : cpuid=1111039 / frame-threads=4 / numa-pools=16 / wpp / no-pmode / no-pme / no-psnr / no-ssim / log-level=2 / input-csp=1 / input-res=1906x1030 / interlace=0 / total-frames=126073 / level-idc=41 / high-tier=1 / uhd-bd=0 / ref=5 / no-allow-non-conformance / no-repeat-headers / annexb / no-aud / no-eob / no-eos / no-hrd / info / hash=0 / temporal-layers=0 / open-gop / min-keyint=23 / keyint=240 / gop-lookahead=0 / bframes=16 / b-adapt=2 / b-pyramid / bframe-bias=0 / rc-lookahead=40 / lookahead-slices=0 / scenecut=40 / no-hist-scenecut / radl=0 / no-splice / no-intra-refresh / ctu=32 / min-cu-size=8 / rect / amp / max-tu-size=32 / tu-inter-depth=4 / tu-intra-depth=4 / limit-tu=1 / rdoq-level=2 / dynamic-rd=0.00 / no-ssim-rd / signhide / no-tskip / nr-intra=0 / nr-inter=0 / no-constrained-intra / no-strong-intra-smoothing / max-merge=5 / limit-refs=3 / no-limit-modes / me=3 / subme=7 / merange=57 / temporal-mvp / no-frame-dup / no-hme / weightp / weightb / no-analyze-src-pics / deblock=-2:-2 / no-sao / no-sao-non-deblock / rd=6 / selective-sao=0 / no-early-skip / no-rskip / no-fast-intra / no-tskip-fast / no-cu-lossless / b-intra / no-splitrd-skip / rdpenalty=0 / psy-rd=2.00 / psy-rdoq=1.00 / no-rd-refine / no-lossless / cbqpoffs=0 / crqpoffs=0 / rc=crf / crf=20.6 / qcomp=0.60 / qpstep=4 / stats-write=0 / stats-read=0 / vbv-maxrate=50000 / vbv-bufsize=50000 / vbv-init=0.9 / min-vbv-fullness=50.0 / max-vbv-fullness=80.0 / crf-max=0.0 / crf-min=0.0 / ipratio=1.40 / pbratio=1.30 / aq-mode=1 / aq-strength=1.00 / no-cutree / zone-count=1 / zones: / start-frame=121458 / end-frame=126073 / qp=36 / no-strict-cbr / qg-size=32 / no-rc-grain / qpmax=69 / qpmin=0 / no-const-vbv / sar=1 / overscan=0 / videoformat=5 / range=0 / colorprim=2 / transfer=2 / colormatrix=2 / chromaloc=0 / display-window=0 / cll=0,0 / min-luma=0 / max-luma=1023 / log2-max-poc-lsb=8 / vui-timing-info / vui-hrd-info / slices=1 / no-opt-qp-pps / no-opt-ref-list-length-pps / no-multi-pass-opt-rps / scenecut-bias=0.00 / no-opt-cu-delta-qp / no-aq-motion / no-hdr10 / no-hdr10-opt / no-dhdr10-opt / no-idr-recovery-sei / analysis-reuse-level=0 / analysis-save-reuse-level=0 / analysis-load-reuse-level=0 / scale-factor=0 / refine-intra=0 / refine-inter=0 / refine-mv=1 / refine-ctu-distortion=0 / no-limit-sao / ctu-info=0 / no-lowpass-dct / refine-analysis-type=0 / copy-pic=1 / max-ausize-factor=1.0 / no-dynamic-refine / no-single-sei / no-hevc-aq / no-svt / no-field / qp-adaptation-range=1.00 / scenecut-aware-qp=0conformance-window-offsets / right=0 / bottom=0 / decoder-max-rate=0 / no-vbv-live-multi-pass / no-mcstf / no-sbrc
Язык : Английский
По умолчанию : Да
Принудительно : Нет

Аудио #1
Идентификатор : 2
Формат : AC-3
Формат/Информация : Audio Coding 3
Коммерческое название : Dolby Digital
Идентификатор кодека : A_AC3
Продолжительность : 1 ч. 27 мин.
Вид битрейта : Постоянный
Битрейт : 192 Кбит/сек
Канал(-ы) : 2 канала
Расположение каналов : L R
Частота дискретизации : 48,0 КГц
Частота кадров : 31,250 кадров/сек (1536 SPF)
Метод сжатия : С потерями
Размер потока : 120 Мбайт (3%)
Заголовок : MVO (ТВ3)
Язык : Русский
Вид сервиса : Complete Main
По умолчанию : Да
Принудительно : Нет
Нормализация звука речи : -31 dB
compr : -0.28 dB
dsurmod : Not Dolby Surround encoded
dialnorm_Average : -31 dB
dialnorm_Minimum : -31 dB
dialnorm_Maximum : -31 dB

Аудио #2
Идентификатор : 3
Формат : AC-3
Формат/Информация : Audio Coding 3
Коммерческое название : Dolby Digital
Идентификатор кодека : A_AC3
Продолжительность : 1 ч. 27 мин.
Вид битрейта : Постоянный
Битрейт : 192 Кбит/сек
Канал(-ы) : 2 канала
Расположение каналов : L R
Частота дискретизации : 48,0 КГц
Частота кадров : 31,250 кадров/сек (1536 SPF)
Метод сжатия : С потерями
Размер потока : 120 Мбайт (3%)
Заголовок : DVO (ОРТ)
Язык : Русский
Вид сервиса : Complete Main
По умолчанию : Нет
Принудительно : Нет
Нормализация звука речи : -31 dB
compr : -0.28 dB
dsurmod : Not Dolby Surround encoded
dialnorm_Average : -31 dB
dialnorm_Minimum : -31 dB
dialnorm_Maximum : -31 dB

Аудио #3
Идентификатор : 4
Формат : AC-3
Формат/Информация : Audio Coding 3
Коммерческое название : Dolby Digital
Идентификатор кодека : A_AC3
Продолжительность : 1 ч. 27 мин.
Вид битрейта : Постоянный
Битрейт : 192 Кбит/сек
Канал(-ы) : 2 канала
Расположение каналов : L R
Частота дискретизации : 48,0 КГц
Частота кадров : 31,250 кадров/сек (1536 SPF)
Метод сжатия : С потерями
Размер потока : 120 Мбайт (3%)
Заголовок : AVO (Андрей Гаврилов)
Язык : Русский
Вид сервиса : Complete Main
По умолчанию : Нет
Принудительно : Нет
Нормализация звука речи : -31 dB
compr : -0.28 dB
dsurmod : Not Dolby Surround encoded
dialnorm_Average : -31 dB
dialnorm_Minimum : -31 dB
dialnorm_Maximum : -31 dB

Аудио #4
Идентификатор : 5
Формат : AC-3
Формат/Информация : Audio Coding 3
Коммерческое название : Dolby Digital
Идентификатор кодека : A_AC3
Продолжительность : 1 ч. 27 мин.
Вид битрейта : Постоянный
Битрейт : 192 Кбит/сек
Канал(-ы) : 2 канала
Расположение каналов : L R
Частота дискретизации : 48,0 КГц
Частота кадров : 31,250 кадров/сек (1536 SPF)
Метод сжатия : С потерями
Размер потока : 120 Мбайт (3%)
Заголовок : AVO (Сергей Дьяков)
Язык : Русский
Вид сервиса : Complete Main
По умолчанию : Нет
Принудительно : Нет
Нормализация звука речи : -31 dB
compr : -0.28 dB
dsurmod : Not Dolby Surround encoded
dialnorm_Average : -31 dB
dialnorm_Minimum : -31 dB
dialnorm_Maximum : -31 dB

Аудио #5
Идентификатор : 6
Формат : AC-3
Формат/Информация : Audio Coding 3
Коммерческое название : Dolby Digital
Идентификатор кодека : A_AC3
Продолжительность : 1 ч. 27 мин.
Вид битрейта : Постоянный
Битрейт : 224 Кбит/сек
Канал(-ы) : 2 канала
Расположение каналов : L R
Частота дискретизации : 48,0 КГц
Частота кадров : 31,250 кадров/сек (1536 SPF)
Метод сжатия : С потерями
Размер потока : 140 Мбайт (3%)
Заголовок : Original
Язык : Английский
Вид сервиса : Complete Main
По умолчанию : Нет
Принудительно : Нет
Нормализация звука речи : -31 dB
dialnorm_Average : -31 dB
dialnorm_Minimum : -31 dB
dialnorm_Maximum : -31 dB

Текст #1
Идентификатор : 7
Формат : UTF-8
Идентификатор кодека : S_TEXT/UTF8
Идентификатор кодека/Информация : UTF-8 Plain Text
Продолжительность : 1 ч. 24 мин.
Битрейт : 84 бит/сек
Частота кадров : 0,212 кадр/сек
Число элементов : 1077
Размер потока : 52,2 КиБ (0%)
Заголовок : Russian by rtu777
Язык : Русский
По умолчанию : Нет
Принудительно : Нет

Текст #2
Идентификатор : 8
Формат : UTF-8
Идентификатор кодека : S_TEXT/UTF8
Идентификатор кодека/Информация : UTF-8 Plain Text
Продолжительность : 1 ч. 20 мин.
Битрейт : 52 бит/сек
Частота кадров : 0,213 кадр/сек
Число элементов : 1033
Размер потока : 31,2 КиБ (0%)
Заголовок : English Full
Язык : Английский
По умолчанию : Нет
Принудительно : Нет

Текст #3
Идентификатор : 9
Формат : UTF-8
Идентификатор кодека : S_TEXT/UTF8
Идентификатор кодека/Информация : UTF-8 Plain Text
Продолжительность : 1 ч. 23 мин.
Битрейт : 56 бит/сек
Частота кадров : 0,233 кадр/сек
Число элементов : 1163
Размер потока : 34,5 КиБ (0%)
Заголовок : English SDH
Язык : Английский
По умолчанию : Нет
Принудительно : Нет

Меню
00:00:00.000 : en:en:Chapter 01
00:05:22.405 : en:en:Chapter 02
00:10:36.177 : en:en:Chapter 03
00:15:11.244 : en:en:Chapter 04
00:17:55.116 : en:en:Chapter 05
00:23:47.926 : en:en:Chapter 06
00:31:13.997 : en:en:Chapter 07
00:35:26.124 : en:en:Chapter 08
00:39:38.793 : en:en:Chapter 09
00:43:32.610 : en:en:Chapter 10
00:51:52.693 : en:en:Chapter 11
01:08:51.753 : en:en:Chapter 12
Загрузка...Cкриншот1 Почему я? / Why Me? (1990) BDRip 1080p [HEVC] 10 bit от OldGamer (RG RIPS CLUB)Загрузка...Cкриншот2 Почему я? / Why Me? (1990) BDRip 1080p [HEVC] 10 bit от OldGamer (RG RIPS CLUB)Загрузка...Cкриншот3 Почему я? / Why Me? (1990) BDRip 1080p [HEVC] 10 bit от OldGamer (RG RIPS CLUB)Загрузка...Cкриншот4 Почему я? / Why Me? (1990) BDRip 1080p [HEVC] 10 bit от OldGamer (RG RIPS CLUB)
Поблагодарили: 4and50, Kiran, Niflung, stickstoff
Файлы: 1
  • Почему.я.Why.Me.1990.HanseSound.BDRip-HEVC.1080p.mkv

Рейтинги КП и IMDB, кнопки "Раздайте, пожалуйста" и "Спасибо", а также мультитрекерная статистика доступны только зарегистрированным/авторизованным пользователям!

OldGamer
708204.15 ГБ

💬︎ Комментарии

Добавление комментариев доступно только зарегистрированным/авторизованным пользователям.