Чат

⚫︎
Список изменений сайта - https://rips.club/changelog.html (обновлен 24.05.2024)
  • atomicheart
  • bronsonw200
  • diesel0000
  • kacznelbogene
  • lugava
  • Winsent
Онлайн (за 10 мин.): 6
  • Antilord90: Может кто переделает "Секс по дружбе" телики не воспроизводят!
  • Гл. Админ: Niflung, раздаю
  • VIS: Раздайте, пожалуйста, Большое путешествие / The Wild (2006) BDRip 1080p [HEVC] 10 bit от Мичман
  • Niflung: Раздайте, пожалуйста, Тихое место: Дилогия / A Quiet Place: Dilogy (2018-2020) UHD-BDRip 1080p [HEVC] 10 bit [HDR] от Mr. Fox
  • Antilord90: Сообщение удалено (удалил: Antilord90)
  • Niflung: Гл. Админ, Ладно, буду качать 10 bit версию)
  • Гл. Админ: Niflung, у меня только 10-битная версия
  • HANNIBAL: Гл. Админ, все норм раздача идет
  • Niflung: Раздайте, пожалуйста, Берегись автомобиля (1966) [Цветная версия] BDRip 1080p [HEVC] 8 bit от ADVOKAT69
  • Гл. Админ: HANNIBAL, Я удалил раздачу, которую заливал я. А другую заливал ты, и она была как на руторе. Теперь не понятно на что ты перезалил (в чем разница по сравнению с предыдущей, т.е. руторовской), потому что сидов нет. По моему ты не исправил, а сломал ) ( отредактировано: )
  • Гл. Админ: OldGamer, вообще задумка была сделать цветовую дифференциацию как в фильме Кин-дза-дза!, но поскольку желтый ник лучше подходит для випов, то немного не получилось.
  • Гл. Админ: HANNIBAL, их 2. Что там нужно исправлять?
  • Гл. Админ: HANNIBAL, Я думаю в добавок к зеленой могут появиться и другие цвета. ( отредактировано: )
  • HANNIBAL: Гл. Админ, и исправь раздачу Голая правда
  • HANNIBAL: Гл. Админ, не пора убрать с посторов эту зеленую надпись )))
  • HANNIBAL: Сообщение удалено (удалил: HANNIBAL)
  • Гл. Админ: HANNIBAL, админов теперь 2 ( отредактировано: )
  • HANNIBAL: админ привет
  • Antilord90: Раздайте, пожалуйста, Мальчикам это нравится / The House Bunny (2008) BDRip 1080p [HEVC] 10 bit от -Star-Lord- (RG RIPS CLUB)
  • Гл. Админ: Продлил доменное имя (адрес сайта) на год. Что-то он подорожал (24 евро вместо прежних 12). Ещё раз спасибо всем, кто поддерживает финансово. ( отредактировано: )
Отправка сообщений доступна только зарегистрированным/авторизованным пользователям.

🎥︎Дюна / Dune (2021) BDRip 1080p [HEVC] 10 bit от OldGamer (RG RIPS CLUB)


Обложка Дюна / Dune (2021) BDRip 1080p [HEVC] 10 bit от OldGamer (RG RIPS CLUB)
HEVC
10 bit
✂︎Сэмпл⤓︎Торрент🧲︎Магнет$Пожертвования

При перезаливке на другие сайты просьба указать автора и релиз-группу.


Год: 2021
Страна: США, Канада, Венгрия
Студия: Legendary Pictures, Villeneuve Films, Warner Bros.
Жанр: Фантастика, Боевик, Драма, Приключения
Длительность: 02:35:26

Режиссер: Дени Вильнёв
В ролях: Тимоти Шаламе, Ребекка Фергюсон, Оскар Айзек, Джош Бролин, Джейсон Момоа, Зендея, Стеллан Скарсгард, Хавьер Бардем, Дэйв Батиста, Шарлотта Рэмплинг

Описание: Наследник знаменитого дома Атрейдесов Пол отправляется вместе с семьей на одну из самых опасных планет во Вселенной — Арракис. Здесь нет ничего, кроме песка, палящего солнца, гигантских чудовищ и основной причины межгалактических конфликтов — невероятно ценного ресурса, который называется меланж. В результате захвата власти Пол вынужден бежать и скрываться, и это становится началом его эпического путешествия. Враждебный мир Арракиса приготовил для него множество тяжёлых испытаний, но только тот, кто готов взглянуть в глаза своему страху, достоин стать избранным.


Релиз-группа: RIPS CLUB
Исходник: Blu-Ray Remux 1080p (rutracker)
Видео: 1920x804, ~6298 Kbps
Аудио1: E-AC3, 6 ch, 448 Kbps - РусскийРусский, DUB (Kinopoisk HD)
Аудио2: AC3, 6 ch, 640 Kbps - РусскийРусский, MVO (HDrezka Studio)
Аудио3: AC3, 6 ch, 384 Kbps - РусскийРусский, MVO (Jaskier)
Аудио4: AC3, 6 ch, 640 Kbps - РусскийРусский, MVO (Hamster Studio)
Аудио5: AC3, 6 ch, 640 Kbps - РусскийРусский, DVO (Pazl Voice)
Аудио6: AC3, 6 ch, 640 Kbps - РусскийРусский, AVO (Юрий Сербин)
Аудио7: AC3, 6 ch, 640 Kbps - РусскийРусский, VO (Михаил Яроцкий)
Аудио8: AC3, 6 ch, 640 Kbps - РусскийРусский, VO (Дмитрий Есарев)
Аудио9: E-AC3, 6 ch, 768 Kbps - УкраинскийУкраинский, MVO (HDrezka Studio)
Аудио10: AC3, 6 ch, 448 Kbps - УкраинскийУкраинский, MVO (студія Postmodern)
Аудио11: AC3, 6 ch, 640 Kbps - АнглийскийАнглийский
Субтитры: русские (full, forced), украинские (full, forced), английские (full, SDH, SDH-Colored)

Как за несколько секунд удалить ненужные аудиодорожки и субтитры (Внимание! После удаления вы не сможете поддержать раздачу)


Лог (x265 info)x265 [info]: frame I: 983, Avg QP:18.16 kb/s: 16733.39
x265 [info]: frame P: 26327, Avg QP:19.61 kb/s: 13483.69
x265 [info]: frame B: 196305, Avg QP:21.37 kb/s: 5281.02
x265 [info]: Weighted P-Frames: Y:15.2% UV:10.8%
x265 [info]: Weighted B-Frames: Y:13.5% UV:8.4%
x265 [info]: encoded 223615 frames in 142170.65s (1.57 fps), 6297.09 kb/s, Avg QP:21.15
МедиаинфоОбщее
Уникальный идентификатор : 243864323710122209716558565653031395377 (0xB7768F727300B84EE19B082C5AFBA031)
Полное имя : \\.\Дюна.Dune.2021.BDRip-HEVC.1080p.mkv
Формат : Matroska
Версия формата : Version 4
Размер файла : 13,9 Гбайт
Продолжительность : 2 ч. 35 мин.
Общий битрейт : 12,8 Мбит/сек
Частота кадров : 23,976 кадра/сек
Название фильма : Дюна / Дюна
Кодирование выполнил : OldGamer
Тип содержимого : Movie
Описание : «Час настал»
Дата выпуска : 2021-09-15
Дата записи : 2021-09-15
Программа кодирования : mkvmerge v83.0 ('Circle Of Friends') 64-bit
Библиотека кодирования : libebml v1.4.5 + libmatroska v1.7.1 / xvid4psp5
Обложка : Yes
Attachments : cover.jpg
ACTOR : Тимоти Шаламе, Ребекка Фергюсон, Оскар Айзек, Джейсон Момоа, Джош Бролин, Стеллан Скарсгард, Стивен Маккинли Хендерсон, Хавьер Бардем, Шэрон Дункан-Брюстер, 張震, Дейв Батиста, Давид Дастмалчян, Зендея, Шарлотта Рэмплинг, Бабс Олусанмокун, Benjamin Clé...
ARTIST : Тимоти Шаламе, Ребекка Фергюсон, Оскар Айзек, Джейсон Момоа, Джош Бролин, Стеллан Скарсгард, Стивен Маккинли Хендерсон, Хавьер Бардем, Шэрон Дункан-Брюстер, 張震, Дейв Батиста, Давид Дастмалчян, Зендея, Шарлотта Рэмплинг, Бабс Олусанмокун, Benjamin Clé...
DIRECTOR : Дени Вильнёв
GENRE : фантастика, приключения
LAW_RATING : PG-13
PRODUCER : Cale Boyter, Mary Parent, Дени Вильнёв, Joseph M. Caracciolo Jr.
PRODUCTION_STUDIO : Legendary Pictures
RATING : PG-13
SCREENPLAY_BY : Дени Вильнёв, Джон Спэйтс, Эрик Рот
SUMMARY : «Час настал»
SYNOPSIS : Наследник знаменитого дома Атрейдесов Пол отправляется вместе с семьей на одну из самых опасных планет во Вселенной — Арракис. Здесь нет ничего, кроме песка, палящего солнца, гигантских чудовищ и основной причины межгалактических конфликтов — невероятно ценного ресурса, который называется меланж. В результате захвата власти Пол вынужден бежать и скрываться, и это становится началом его эпического путешествия. Враждебный мир Арракиса приготовил для него множество тяжелых испытаний, но только тот, кто готов взглянуть в глаза своему страху, достоин стать избранным.
WRITTEN_BY : Дени Вильнёв, Джон Спэйтс, Эрик Рот

Видео
Идентификатор : 1
Формат : HEVC
Формат/Информация : High Efficiency Video Coding
Профиль формата : Main 10@L4.1@High
Идентификатор кодека : V_MPEGH/ISO/HEVC
Продолжительность : 2 ч. 35 мин.
Битрейт : 6 298 Кбит/сек
Ширина : 1 920 пикселей
Высота : 804 пикселя
Соотношение сторон дисплея : 2,39:1
Режим частоты кадров : Постоянный
Частота кадров : 23,976 (24000/1001) кадра/сек
Цветовое пространство : YUV
Цветовая субдискретизация : 4:2:0
Битовая глубина : 10 бит
Бит/(Пиксели*Кадры) : 0.170
Размер потока : 6,84 Гбайт (49%)
Заголовок : Dune / Rip by OldGamer
Библиотека кодирования : x265 3.5+110-8ee01d45b:[Windows][GCC 13.2.0][64 bit] 10bit
Параметры библиотеки кодирования : cpuid=1111039 / frame-threads=3 / numa-pools=8 / wpp / no-pmode / no-pme / no-psnr / no-ssim / log-level=2 / input-csp=1 / input-res=1920x804 / interlace=0 / total-frames=223615 / level-idc=41 / high-tier=1 / uhd-bd=0 / ref=5 / no-allow-non-conformance / no-repeat-headers / annexb / no-aud / no-eob / no-eos / no-hrd / info / hash=0 / temporal-layers=0 / open-gop / min-keyint=23 / keyint=240 / gop-lookahead=0 / bframes=16 / b-adapt=2 / b-pyramid / bframe-bias=0 / rc-lookahead=60 / lookahead-slices=0 / scenecut=40 / no-hist-scenecut / radl=0 / no-splice / no-intra-refresh / ctu=32 / min-cu-size=8 / rect / amp / max-tu-size=32 / tu-inter-depth=4 / tu-intra-depth=4 / limit-tu=1 / rdoq-level=2 / dynamic-rd=0.00 / no-ssim-rd / signhide / no-tskip / nr-intra=0 / nr-inter=0 / no-constrained-intra / no-strong-intra-smoothing / max-merge=5 / limit-refs=3 / no-limit-modes / me=3 / subme=7 / merange=57 / temporal-mvp / no-frame-dup / no-hme / weightp / weightb / no-analyze-src-pics / deblock=-2:-2 / no-sao / no-sao-non-deblock / rd=6 / selective-sao=0 / no-early-skip / no-rskip / no-fast-intra / no-tskip-fast / no-cu-lossless / b-intra / no-splitrd-skip / rdpenalty=0 / psy-rd=2.00 / psy-rdoq=1.00 / no-rd-refine / no-lossless / cbqpoffs=0 / crqpoffs=0 / rc=crf / crf=20.8 / qcomp=0.70 / qpstep=4 / stats-write=0 / stats-read=0 / vbv-maxrate=50000 / vbv-bufsize=50000 / vbv-init=0.9 / min-vbv-fullness=50.0 / max-vbv-fullness=80.0 / crf-max=0.0 / crf-min=0.0 / ipratio=1.40 / pbratio=1.30 / aq-mode=1 / aq-strength=0.80 / no-cutree / zone-count=1 / zones: / start-frame=214070 / end-frame=223615 / qp=36 / no-strict-cbr / qg-size=32 / no-rc-grain / qpmax=69 / qpmin=0 / no-const-vbv / sar=1 / overscan=0 / videoformat=5 / range=0 / colorprim=2 / transfer=2 / colormatrix=2 / chromaloc=0 / display-window=0 / cll=0,0 / min-luma=0 / max-luma=1023 / log2-max-poc-lsb=8 / vui-timing-info / vui-hrd-info / slices=1 / no-opt-qp-pps / no-opt-ref-list-length-pps / no-multi-pass-opt-rps / scenecut-bias=0.00 / no-opt-cu-delta-qp / no-aq-motion / no-hdr10 / no-hdr10-opt / no-dhdr10-opt / no-idr-recovery-sei / analysis-reuse-level=0 / analysis-save-reuse-level=0 / analysis-load-reuse-level=0 / scale-factor=0 / refine-intra=0 / refine-inter=0 / refine-mv=1 / refine-ctu-distortion=0 / no-limit-sao / ctu-info=0 / no-lowpass-dct / refine-analysis-type=0 / copy-pic=1 / max-ausize-factor=1.0 / no-dynamic-refine / no-single-sei / no-hevc-aq / no-svt / no-field / qp-adaptation-range=1.00 / scenecut-aware-qp=0conformance-window-offsets / right=0 / bottom=0 / decoder-max-rate=0 / no-vbv-live-multi-pass / no-mcstf / no-sbrc
Язык : Английский
По умолчанию : Да
Принудительно : Нет

Аудио #1
Идентификатор : 2
Формат : E-AC-3
Формат/Информация : Enhanced AC-3
Коммерческое название : Dolby Digital Plus
Идентификатор кодека : A_EAC3
Продолжительность : 2 ч. 35 мин.
Вид битрейта : Постоянный
Битрейт : 448 Кбит/сек
Канал(-ы) : 6 каналов
Расположение каналов : L R C LFE Ls Rs
Частота дискретизации : 48,0 КГц
Частота кадров : 31,250 кадров/сек (1536 SPF)
Метод сжатия : С потерями
Размер потока : 498 Мбайт (3%)
Заголовок : DUB (Kinopoisk HD)
Язык : Русский
Вид сервиса : Complete Main
По умолчанию : Да
Принудительно : Нет
Нормализация звука речи : -31 dB
compr : -0.28 dB
mixlevel : 105 dB
roomtyp : Small
dialnorm_Average : -31 dB
dialnorm_Minimum : -31 dB
dialnorm_Maximum : -31 dB

Аудио #2
Идентификатор : 3
Формат : AC-3
Формат/Информация : Audio Coding 3
Коммерческое название : Dolby Digital
Идентификатор кодека : A_AC3
Продолжительность : 2 ч. 35 мин.
Вид битрейта : Постоянный
Битрейт : 640 Кбит/сек
Канал(-ы) : 6 каналов
Расположение каналов : L R C LFE Ls Rs
Частота дискретизации : 48,0 КГц
Частота кадров : 31,250 кадров/сек (1536 SPF)
Метод сжатия : С потерями
Размер потока : 712 Мбайт (5%)
Заголовок : MVO (HDrezka Studio)
Язык : Русский
Вид сервиса : Complete Main
По умолчанию : Нет
Принудительно : Нет
Нормализация звука речи : -27 dB
compr : -0.28 dB
cmixlev : -3.0 dB
surmixlev : -3 dB
mixlevel : 285 dB
roomtyp : Small
dialnorm_Average : -27 dB
dialnorm_Minimum : -27 dB
dialnorm_Maximum : -27 dB

Аудио #3
Идентификатор : 4
Формат : AC-3
Формат/Информация : Audio Coding 3
Коммерческое название : Dolby Digital
Идентификатор кодека : A_AC3
Продолжительность : 2 ч. 35 мин.
Вид битрейта : Постоянный
Битрейт : 384 Кбит/сек
Канал(-ы) : 6 каналов
Расположение каналов : L R C LFE Ls Rs
Частота дискретизации : 48,0 КГц
Частота кадров : 31,250 кадров/сек (1536 SPF)
Метод сжатия : С потерями
Размер потока : 427 Мбайт (3%)
Заголовок : MVO (Jaskier)
Язык : Русский
Вид сервиса : Complete Main
По умолчанию : Нет
Принудительно : Нет
Нормализация звука речи : -31 dB
cmixlev : -4.5 dB
surmixlev : -6 dB
dialnorm_Average : -31 dB
dialnorm_Minimum : -31 dB
dialnorm_Maximum : -31 dB

Аудио #4
Идентификатор : 5
Формат : AC-3
Формат/Информация : Audio Coding 3
Коммерческое название : Dolby Digital
Идентификатор кодека : A_AC3
Продолжительность : 2 ч. 35 мин.
Вид битрейта : Постоянный
Битрейт : 640 Кбит/сек
Канал(-ы) : 6 каналов
Расположение каналов : L R C LFE Ls Rs
Частота дискретизации : 48,0 КГц
Частота кадров : 31,250 кадров/сек (1536 SPF)
Метод сжатия : С потерями
Размер потока : 712 Мбайт (5%)
Заголовок : MVO (Hamster Studio)
Язык : Русский
Вид сервиса : Complete Main
По умолчанию : Нет
Принудительно : Нет
Нормализация звука речи : -27 dB
compr : -0.28 dB
cmixlev : -3.0 dB
surmixlev : -3 dB
mixlevel : 285 dB
roomtyp : Small
dialnorm_Average : -27 dB
dialnorm_Minimum : -27 dB
dialnorm_Maximum : -27 dB

Аудио #5
Идентификатор : 6
Формат : AC-3
Формат/Информация : Audio Coding 3
Коммерческое название : Dolby Digital
Идентификатор кодека : A_AC3
Продолжительность : 2 ч. 35 мин.
Вид битрейта : Постоянный
Битрейт : 640 Кбит/сек
Канал(-ы) : 6 каналов
Расположение каналов : L R C LFE Ls Rs
Частота дискретизации : 48,0 КГц
Частота кадров : 31,250 кадров/сек (1536 SPF)
Метод сжатия : С потерями
Размер потока : 712 Мбайт (5%)
Заголовок : DVO (Pazl Voice)
Язык : Русский
Вид сервиса : Complete Main
По умолчанию : Нет
Принудительно : Нет
Нормализация звука речи : -27 dB
compr : -0.28 dB
cmixlev : -3.0 dB
surmixlev : -3 dB
mixlevel : 285 dB
roomtyp : Small
dialnorm_Average : -27 dB
dialnorm_Minimum : -27 dB
dialnorm_Maximum : -27 dB

Аудио #6
Идентификатор : 7
Формат : AC-3
Формат/Информация : Audio Coding 3
Коммерческое название : Dolby Digital
Идентификатор кодека : A_AC3
Продолжительность : 2 ч. 35 мин.
Вид битрейта : Постоянный
Битрейт : 640 Кбит/сек
Канал(-ы) : 6 каналов
Расположение каналов : L R C LFE Ls Rs
Частота дискретизации : 48,0 КГц
Частота кадров : 31,250 кадров/сек (1536 SPF)
Метод сжатия : С потерями
Размер потока : 712 Мбайт (5%)
Заголовок : AVO (Юрий Сербин)
Язык : Русский
Вид сервиса : Complete Main
По умолчанию : Нет
Принудительно : Нет
Нормализация звука речи : -27 dB
compr : -0.28 dB
cmixlev : -3.0 dB
surmixlev : -3 dB
mixlevel : 285 dB
roomtyp : Small
dialnorm_Average : -27 dB
dialnorm_Minimum : -27 dB
dialnorm_Maximum : -27 dB

Аудио #7
Идентификатор : 8
Формат : AC-3
Формат/Информация : Audio Coding 3
Коммерческое название : Dolby Digital
Идентификатор кодека : A_AC3
Продолжительность : 2 ч. 35 мин.
Вид битрейта : Постоянный
Битрейт : 640 Кбит/сек
Канал(-ы) : 6 каналов
Расположение каналов : L R C LFE Ls Rs
Частота дискретизации : 48,0 КГц
Частота кадров : 31,250 кадров/сек (1536 SPF)
Метод сжатия : С потерями
Размер потока : 712 Мбайт (5%)
Заголовок : VO (Михаил Яроцкий)
Язык : Русский
Вид сервиса : Complete Main
По умолчанию : Нет
Принудительно : Нет
Нормализация звука речи : -27 dB
compr : -0.28 dB
cmixlev : -3.0 dB
surmixlev : -3 dB
mixlevel : 285 dB
roomtyp : Small
dialnorm_Average : -27 dB
dialnorm_Minimum : -27 dB
dialnorm_Maximum : -27 dB

Аудио #8
Идентификатор : 9
Формат : AC-3
Формат/Информация : Audio Coding 3
Коммерческое название : Dolby Digital
Идентификатор кодека : A_AC3
Продолжительность : 2 ч. 35 мин.
Вид битрейта : Постоянный
Битрейт : 640 Кбит/сек
Канал(-ы) : 6 каналов
Расположение каналов : L R C LFE Ls Rs
Частота дискретизации : 48,0 КГц
Частота кадров : 31,250 кадров/сек (1536 SPF)
Метод сжатия : С потерями
Размер потока : 712 Мбайт (5%)
Заголовок : VO (Дмитрий Есарев)
Язык : Русский
Вид сервиса : Complete Main
По умолчанию : Нет
Принудительно : Нет
Нормализация звука речи : -27 dB
compr : -0.28 dB
cmixlev : -3.0 dB
surmixlev : -3 dB
mixlevel : 285 dB
roomtyp : Small
dialnorm_Average : -27 dB
dialnorm_Minimum : -27 dB
dialnorm_Maximum : -27 dB

Аудио #9
Идентификатор : 10
Формат : E-AC-3
Формат/Информация : Enhanced AC-3
Коммерческое название : Dolby Digital Plus
Идентификатор кодека : A_EAC3
Продолжительность : 2 ч. 35 мин.
Вид битрейта : Постоянный
Битрейт : 768 Кбит/сек
Канал(-ы) : 6 каналов
Расположение каналов : L R C LFE Ls Rs
Частота дискретизации : 48,0 КГц
Частота кадров : 31,250 кадров/сек (1536 SPF)
Метод сжатия : С потерями
Размер потока : 854 Мбайт (6%)
Заголовок : MVO (HDrezka Studio)
Язык : Украинский
Вид сервиса : Complete Main
По умолчанию : Нет
Принудительно : Нет
Нормализация звука речи : -31 dB
compr : -0.28 dB
mixlevel : 105 dB
roomtyp : Small
dialnorm_Average : -31 dB
dialnorm_Minimum : -31 dB
dialnorm_Maximum : -31 dB

Аудио #10
Идентификатор : 11
Формат : AC-3
Формат/Информация : Audio Coding 3
Коммерческое название : Dolby Digital
Идентификатор кодека : A_AC3
Продолжительность : 2 ч. 35 мин.
Вид битрейта : Постоянный
Битрейт : 448 Кбит/сек
Канал(-ы) : 6 каналов
Расположение каналов : L R C LFE Ls Rs
Частота дискретизации : 48,0 КГц
Частота кадров : 31,250 кадров/сек (1536 SPF)
Метод сжатия : С потерями
Размер потока : 498 Мбайт (3%)
Заголовок : MVO (студія Postmodern)
Язык : Украинский
Вид сервиса : Complete Main
По умолчанию : Нет
Принудительно : Нет
Нормализация звука речи : -31 dB
cmixlev : -4.5 dB
surmixlev : -6 dB
dialnorm_Average : -31 dB
dialnorm_Minimum : -31 dB
dialnorm_Maximum : -31 dB

Аудио #11
Идентификатор : 12
Формат : AC-3
Формат/Информация : Audio Coding 3
Коммерческое название : Dolby Digital
Идентификатор кодека : A_AC3
Продолжительность : 2 ч. 35 мин.
Вид битрейта : Постоянный
Битрейт : 640 Кбит/сек
Канал(-ы) : 6 каналов
Расположение каналов : L R C LFE Ls Rs
Частота дискретизации : 48,0 КГц
Частота кадров : 31,250 кадров/сек (1536 SPF)
Метод сжатия : С потерями
Размер потока : 712 Мбайт (5%)
Язык : Английский
Вид сервиса : Complete Main
По умолчанию : Нет
Принудительно : Нет
Нормализация звука речи : -27 dB
compr : -0.28 dB
cmixlev : -3.0 dB
surmixlev : -3 dB
mixlevel : 285 dB
roomtyp : Small
dialnorm_Average : -27 dB
dialnorm_Minimum : -27 dB
dialnorm_Maximum : -27 dB

Текст #1
Идентификатор : 13
Формат : UTF-8
Идентификатор кодека : S_TEXT/UTF8
Идентификатор кодека/Информация : UTF-8 Plain Text
Продолжительность : 2 ч. 27 мин.
Битрейт : 2 бит/сек
Частота кадров : 0,006 кадр/сек
Число элементов : 51
Размер потока : 2,44 КиБ (0%)
Заголовок : Russian forced 1
Язык : Русский
По умолчанию : Да
Принудительно : Нет

Текст #2
Идентификатор : 14
Формат : UTF-8
Идентификатор кодека : S_TEXT/UTF8
Идентификатор кодека/Информация : UTF-8 Plain Text
Продолжительность : 2 ч. 27 мин.
Битрейт : 2 бит/сек
Частота кадров : 0,008 кадр/сек
Число элементов : 67
Размер потока : 2,94 КиБ (0%)
Заголовок : Russian forced 2
Язык : Русский
По умолчанию : Нет
Принудительно : Нет

Текст #3
Идентификатор : 15
Формат : UTF-8
Идентификатор кодека : S_TEXT/UTF8
Идентификатор кодека/Информация : UTF-8 Plain Text
Продолжительность : 2 ч. 28 мин.
Битрейт : 52 бит/сек
Частота кадров : 0,141 кадр/сек
Число элементов : 1261
Размер потока : 56,9 КиБ (0%)
Заголовок : Russian full 1
Язык : Русский
По умолчанию : Нет
Принудительно : Нет

Текст #4
Идентификатор : 16
Формат : UTF-8
Идентификатор кодека : S_TEXT/UTF8
Идентификатор кодека/Информация : UTF-8 Plain Text
Продолжительность : 2 ч. 26 мин.
Битрейт : 52 бит/сек
Частота кадров : 0,114 кадр/сек
Число элементов : 1002
Размер потока : 56,5 КиБ (0%)
Заголовок : Russian full 2
Язык : Русский
По умолчанию : Нет
Принудительно : Нет

Текст #5
Идентификатор : 17
Формат : UTF-8
Идентификатор кодека : S_TEXT/UTF8
Идентификатор кодека/Информация : UTF-8 Plain Text
Продолжительность : 2 ч. 27 мин.
Битрейт : 53 бит/сек
Частота кадров : 0,113 кадр/сек
Число элементов : 1003
Размер потока : 57,9 КиБ (0%)
Заголовок : Russian full 3
Язык : Русский
По умолчанию : Нет
Принудительно : Нет

Текст #6
Идентификатор : 18
Формат : UTF-8
Идентификатор кодека : S_TEXT/UTF8
Идентификатор кодека/Информация : UTF-8 Plain Text
Продолжительность : 2 ч. 29 мин.
Битрейт : 52 бит/сек
Частота кадров : 0,112 кадр/сек
Число элементов : 1002
Размер потока : 57,0 КиБ (0%)
Заголовок : Russian full 4
Язык : Русский
По умолчанию : Нет
Принудительно : Нет

Текст #7
Идентификатор : 19
Формат : UTF-8
Идентификатор кодека : S_TEXT/UTF8
Идентификатор кодека/Информация : UTF-8 Plain Text
Продолжительность : 2 ч. 26 мин.
Битрейт : 51 бит/сек
Частота кадров : 0,114 кадр/сек
Число элементов : 1001
Размер потока : 55,3 КиБ (0%)
Заголовок : Russian full 5
Язык : Русский
По умолчанию : Нет
Принудительно : Нет

Текст #8
Идентификатор : 20
Формат : UTF-8
Идентификатор кодека : S_TEXT/UTF8
Идентификатор кодека/Информация : UTF-8 Plain Text
Продолжительность : 2 ч. 27 мин.
Битрейт : 2 бит/сек
Частота кадров : 0,006 кадр/сек
Число элементов : 53
Размер потока : 2,29 КиБ (0%)
Заголовок : Ukrainian forced
Язык : Украинский
По умолчанию : Нет
Принудительно : Нет

Текст #9
Идентификатор : 21
Формат : UTF-8
Идентификатор кодека : S_TEXT/UTF8
Идентификатор кодека/Информация : UTF-8 Plain Text
Продолжительность : 2 ч. 16 мин.
Битрейт : 2 бит/сек
Частота кадров : 0,005 кадр/сек
Число элементов : 45
Размер потока : 2,28 КиБ (0%)
Заголовок : Ukrainian full
Язык : Украинский
По умолчанию : Нет
Принудительно : Нет

Текст #10
Идентификатор : 22
Формат : UTF-8
Идентификатор кодека : S_TEXT/UTF8
Идентификатор кодека/Информация : UTF-8 Plain Text
Продолжительность : 2 ч. 25 мин.
Битрейт : 31 бит/сек
Частота кадров : 0,154 кадр/сек
Число элементов : 1353
Размер потока : 34,1 КиБ (0%)
Заголовок : English full
Язык : Английский
По умолчанию : Нет
Принудительно : Нет

Текст #11
Идентификатор : 23
Формат : UTF-8
Идентификатор кодека : S_TEXT/UTF8
Идентификатор кодека/Информация : UTF-8 Plain Text
Продолжительность : 2 ч. 26 мин.
Битрейт : 41 бит/сек
Частота кадров : 0,196 кадр/сек
Число элементов : 1724
Размер потока : 44,3 КиБ (0%)
Заголовок : English SDH
Язык : Английский
По умолчанию : Нет
Принудительно : Нет

Текст #12
Идентификатор : 24
Формат : UTF-8
Идентификатор кодека : S_TEXT/UTF8
Идентификатор кодека/Информация : UTF-8 Plain Text
Продолжительность : 2 ч. 26 мин.
Битрейт : 64 бит/сек
Частота кадров : 0,196 кадр/сек
Число элементов : 1724
Размер потока : 69,4 КиБ (0%)
Заголовок : English SDH-Colored
Язык : Английский
По умолчанию : Нет
Принудительно : Нет

Меню
00:00:00.000 : en:Chapter 01
00:03:16.154 : en:Chapter 02
00:12:54.815 : en:Chapter 03
00:22:00.736 : en:Chapter 04
00:29:16.921 : en:Chapter 05
00:39:10.931 : en:Chapter 06
00:47:19.795 : en:Chapter 07
00:56:53.493 : en:Chapter 08
01:06:50.381 : en:Chapter 09
01:16:44.891 : en:Chapter 10
01:26:00.655 : en:Chapter 11
01:36:00.379 : en:Chapter 12
01:45:09.469 : en:Chapter 13
01:53:50.323 : en:Chapter 14
02:03:38.536 : en:Chapter 15
02:12:13.342 : en:Chapter 16
02:20:45.770 : en:Chapter 17
02:27:27.797 : en:Chapter 18
Загрузка...Cкриншот1 Дюна / Dune (2021) BDRip 1080p [HEVC] 10 bit от OldGamer (RG RIPS CLUB)Загрузка...Cкриншот2 Дюна / Dune (2021) BDRip 1080p [HEVC] 10 bit от OldGamer (RG RIPS CLUB)Загрузка...Cкриншот3 Дюна / Dune (2021) BDRip 1080p [HEVC] 10 bit от OldGamer (RG RIPS CLUB)Загрузка...Cкриншот4 Дюна / Dune (2021) BDRip 1080p [HEVC] 10 bit от OldGamer (RG RIPS CLUB)
Поблагодарили: 9A1eksandr1, alexyak, anderb, AndresUA, Broadcast, ExoticDeer, Kiran, Niflung, qq
Файлы: 1
  • Дюна.Dune.2021.BDRip-HEVC.1080p.mkv

Рейтинги КП и IMDB, кнопки "Раздайте, пожалуйста" и "Спасибо", а также мультитрекерная статистика доступны только зарегистрированным/авторизованным пользователям!

OldGamer
251140213.93 ГБ

💬︎ Комментарии

Добавление комментариев доступно только зарегистрированным/авторизованным пользователям.

Всего: 2
Аватар OldGamer
OldGamer
Niflung писал(а):
А вторую часть планируешь делать? На вторую часть тоже есть Яроцкий и Есарев
Есарева сейчас уже добавлять не буду, если только когда-нибудь пересоберу файл.
Аватар не указан
Niflung
А вторую часть планируешь делать? На вторую часть тоже есть Яроцкий и Есарев