Чат

⚫︎
Список изменений сайта - https://rips.club/changelog.html (обновлен 24.05.2024)
  • arwis
  • z1M4p9i0
Онлайн (за 10 мин.): 2
Отправка сообщений доступна только зарегистрированным/авторизованным пользователям.

🎤︎Lovebites: Knockin' At Heaven's Gate (2023) BDRip 1080p [HEVC] 10 bit от OldGamer (RG RIPS CLUB)


Обложка Lovebites: Knockin' At Heaven's Gate (2023) BDRip 1080p [HEVC] 10 bit от OldGamer (RG RIPS CLUB)
HEVC
10 bit
✂︎Сэмпл⤓︎Торрент🧲︎Магнет$Пожертвования

При перезаливке на другие сайты просьба указать автора и релиз-группу.


Год: 2023
Страна: Япония
Жанр: Музыка
Длительность: 01:35:48

Состав:
Asami: Singer, Lead Vocals. Watanabe Miyako: Guitar, Piano, Backing Vocals. Tatematsu Midori: Guitar, Backing Vocals. Haruna: Drums, Backing Vocals. Fami: Bass, Backing Vocals.

Описание: Recorded live at EX-Theater Roppongi, Tokyo, Japan on March 11, 2023.


Треклист1. Opening (The Five Coffins)
2. The Awakening
3. The Hammer Of Wrath
4. Bravehearted
5. Don't Bite The Dust
6. Stand And Deliver (Shoot 'Em Down)
7. Shadowmaker
8. Break The Wall
9. Dancing With the Devil
10. Piano Solo (Ballade No. 1 In G Minor, Op. 23)
11. Liar
12. Judgement Day
13. Nameless Warrior
14. M.D.O.
15. When Destinies Align
16. Holy War
17. Glory To The World
18. End Credits


Релиз-группа: RIPS CLUB
Исходник: Blu-Ray Remux 1080p (rutracker)
Видео: 1920x1080, ~9270 Kbps
Аудио: PCM, 2 ch, 2304 Kbps - АнглийскийАнглийский
Субтитры: Отсутствуют

Лог (x265 info)x265 [info]: frame I: 575, Avg QP:17.26 kb/s: 18046.42
x265 [info]: frame P: 35222, Avg QP:18.87 kb/s: 15071.37
x265 [info]: frame B: 102035, Avg QP:21.15 kb/s: 7216.65
x265 [info]: Weighted P-Frames: Y:23.9% UV:21.9%
x265 [info]: Weighted B-Frames: Y:37.7% UV:33.2%
x265 [info]: encoded 137832 frames in 113883.72s (1.21 fps), 9269.05 kb/s, Avg QP:20.55
МедиаинфоОбщее
Уникальный идентификатор : 189549265573703829557107904715536483144 (0x8E99DC539758DABD789F550826D84348)
Полное имя : \\.\Lovebites.Knockin'.At.Heaven's.Gate.2023.BDRip-HEVC.1080p.mkv
Формат : Matroska
Версия формата : Version 4
Размер файла : 7,75 Гбайт
Продолжительность : 1 ч. 35 мин.
Общий битрейт : 11,6 Мбит/сек
Частота кадров : 23,976 кадра/сек
Название фильма : Lovebites.Knockin'.At.Heaven's.Gate.2023.BDRip-HEVC. / Lovebites.Knockin'.At.Heaven's.Gate.2023.BDRip-HEVC.
Кодирование выполнил : OldGamer
Тип содержимого : Music Video
Программа кодирования : mkvmerge v83.0 ('Circle Of Friends') 64-bit
Библиотека кодирования : libebml v1.4.5 + libmatroska v1.7.1 / xvid4psp5
Обложка : Yes
Attachments : cover.jpg

Видео
Идентификатор : 1
Формат : HEVC
Формат/Информация : High Efficiency Video Coding
Профиль формата : Main 10@L4.1@High
Идентификатор кодека : V_MPEGH/ISO/HEVC
Продолжительность : 1 ч. 35 мин.
Битрейт : 9 270 Кбит/сек
Ширина : 1 920 пикселей
Высота : 1 080 пикселей
Соотношение сторон дисплея : 16:9
Режим частоты кадров : Постоянный
Частота кадров : 23,976 (24000/1001) кадра/сек
Цветовое пространство : YUV
Цветовая субдискретизация : 4:2:0
Битовая глубина : 10 бит
Бит/(Пиксели*Кадры) : 0.186
Размер потока : 6,20 Гбайт (80%)
Заголовок : Lovebites: Knockin' At Heaven's Gate / Rip by OldGamer
Библиотека кодирования : x265 3.5+110-8ee01d45b:[Windows][GCC 13.2.0][64 bit] 10bit
Параметры библиотеки кодирования : cpuid=1111039 / frame-threads=4 / numa-pools=16 / wpp / no-pmode / no-pme / no-psnr / no-ssim / log-level=2 / input-csp=1 / input-res=1920x1080 / interlace=0 / total-frames=137832 / level-idc=41 / high-tier=1 / uhd-bd=0 / ref=5 / no-allow-non-conformance / no-repeat-headers / annexb / no-aud / no-eob / no-eos / no-hrd / info / hash=0 / temporal-layers=0 / open-gop / min-keyint=23 / keyint=240 / gop-lookahead=0 / bframes=16 / b-adapt=2 / b-pyramid / bframe-bias=0 / rc-lookahead=40 / lookahead-slices=0 / scenecut=40 / no-hist-scenecut / radl=0 / no-splice / no-intra-refresh / ctu=32 / min-cu-size=8 / rect / amp / max-tu-size=32 / tu-inter-depth=4 / tu-intra-depth=4 / limit-tu=1 / rdoq-level=2 / dynamic-rd=0.00 / no-ssim-rd / signhide / no-tskip / nr-intra=0 / nr-inter=0 / no-constrained-intra / no-strong-intra-smoothing / max-merge=5 / limit-refs=3 / no-limit-modes / me=3 / subme=7 / merange=57 / temporal-mvp / no-frame-dup / no-hme / weightp / weightb / no-analyze-src-pics / deblock=-2:-2 / no-sao / no-sao-non-deblock / rd=6 / selective-sao=0 / no-early-skip / no-rskip / no-fast-intra / no-tskip-fast / no-cu-lossless / b-intra / no-splitrd-skip / rdpenalty=0 / psy-rd=2.00 / psy-rdoq=1.00 / no-rd-refine / no-lossless / cbqpoffs=0 / crqpoffs=0 / rc=crf / crf=22.0 / qcomp=0.75 / qpstep=4 / stats-write=0 / stats-read=0 / vbv-maxrate=50000 / vbv-bufsize=50000 / vbv-init=0.9 / min-vbv-fullness=50.0 / max-vbv-fullness=80.0 / crf-max=0.0 / crf-min=0.0 / ipratio=1.40 / pbratio=1.30 / aq-mode=3 / aq-strength=1.00 / no-cutree / zone-count=0 / no-strict-cbr / qg-size=32 / no-rc-grain / qpmax=69 / qpmin=0 / no-const-vbv / sar=1 / overscan=0 / videoformat=5 / range=0 / colorprim=2 / transfer=2 / colormatrix=2 / chromaloc=0 / display-window=0 / cll=0,0 / min-luma=0 / max-luma=1023 / log2-max-poc-lsb=8 / vui-timing-info / vui-hrd-info / slices=1 / no-opt-qp-pps / no-opt-ref-list-length-pps / no-multi-pass-opt-rps / scenecut-bias=0.00 / no-opt-cu-delta-qp / no-aq-motion / no-hdr10 / no-hdr10-opt / no-dhdr10-opt / no-idr-recovery-sei / analysis-reuse-level=0 / analysis-save-reuse-level=0 / analysis-load-reuse-level=0 / scale-factor=0 / refine-intra=0 / refine-inter=0 / refine-mv=1 / refine-ctu-distortion=0 / no-limit-sao / ctu-info=0 / no-lowpass-dct / refine-analysis-type=0 / copy-pic=1 / max-ausize-factor=1.0 / no-dynamic-refine / no-single-sei / no-hevc-aq / no-svt / no-field / qp-adaptation-range=1.00 / scenecut-aware-qp=0conformance-window-offsets / right=0 / bottom=0 / decoder-max-rate=0 / no-vbv-live-multi-pass / no-mcstf / no-sbrc
Язык : Японский
По умолчанию : Да
Принудительно : Нет

Аудио
Идентификатор : 2
Идентификатор в исходном носителе информ : 4352 (0x1100)
Формат : PCM
Настройки формата : Little / Signed
Идентификатор кодека : A_PCM/INT/LIT
Продолжительность : 1 ч. 35 мин.
Вид битрейта : Постоянный
Битрейт : 2 304 Кбит/сек
Канал(-ы) : 2 канала
Частота дискретизации : 48,0 КГц
Частота кадров : 30,000 кадров/сек (1600 SPF)
Битовая глубина : 24 бита
Размер потока : 1,54 Гбайт (20%)
Язык : Английский
По умолчанию : Да
Принудительно : Нет
Носитель оригинала : Blu-ray

Меню
00:00:00.000 : en:Opening (The Five Coffins)
00:01:41.559 : en:The Awakening
00:03:45.058 : en:The Hammer Of Wrath
00:08:39.227 : en:Bravehearted
00:15:05.404 : en:Don't Bite The Dust
00:21:45.012 : en:Stand And Deliver (Shoot 'Em Down)
00:27:34.944 : en:Shadowmaker
00:33:23.042 : en:Break The Wall
00:38:59.337 : en:Dancing With the Devil
00:44:37.508 : en:Piano Solo (Ballade No. 1 In G Minor, Op. 23)
00:46:53.977 : en:Liar
00:54:33.937 : en:Judgement Day
01:00:52.732 : en:Nameless Warrior
01:07:33.424 : en:M.D.O.
01:11:54.268 : en:When Destinies Align
01:19:48.575 : en:Holy War
01:25:53.857 : en:Glory To The World
01:33:07.039 : en:End Credits
Загрузка...Cкриншот1 Lovebites: Knockin' At Heaven's Gate (2023) BDRip 1080p [HEVC] 10 bit от OldGamer (RG RIPS CLUB)Загрузка...Cкриншот2 Lovebites: Knockin' At Heaven's Gate (2023) BDRip 1080p [HEVC] 10 bit от OldGamer (RG RIPS CLUB)Загрузка...Cкриншот3 Lovebites: Knockin' At Heaven's Gate (2023) BDRip 1080p [HEVC] 10 bit от OldGamer (RG RIPS CLUB)Загрузка...Cкриншот4 Lovebites: Knockin' At Heaven's Gate (2023) BDRip 1080p [HEVC] 10 bit от OldGamer (RG RIPS CLUB)
Поблагодарили: 2makss333, Niflung
Файлы: 1
  • Lovebites.Knockin'.At.Heaven's.Gate.2023.BDRip-HEVC.1080p.mkv

Рейтинги КП и IMDB, кнопки "Раздайте, пожалуйста" и "Спасибо", а также мультитрекерная статистика доступны только зарегистрированным/авторизованным пользователям!

OldGamer
402907.75 ГБ

💬︎ Комментарии

Добавление комментариев доступно только зарегистрированным/авторизованным пользователям.