Чат

⚫︎
Список изменений сайта - https://rips.club/changelog.html (обновлен 24.05.2024)
  • arwis
Онлайн (за 10 мин.): 1
Отправка сообщений доступна только зарегистрированным/авторизованным пользователям.

🎥︎Годзилла и Конг: Новая империя / Godzilla x Kong: The New Empire (2024) BDRip 1080p [HEVC] 10 bit от HANNIBAL (RG HEVC-CLUB)


Обложка Годзилла и Конг: Новая империя / Godzilla x Kong: The New Empire (2024) BDRip 1080p [HEVC] 10 bit от HANNIBAL (RG HEVC-CLUB)
HEVC
10 bit
✂︎Сэмпл⤓︎Торрент🧲︎Магнет$Пожертвования
Год: 2024
Страна: Австралия, США
Студия: Legendary Pictures, Screen Queensland, Warner Bros.
Жанр: Боевик, Фантастика
Длительность: 01:54:40

Режиссер: Адам Вингард
В ролях: Алекс Фернс, Брайан Тайри Генри, Грег Хаттон, Джорди Кэмпбелл, Дэн Стивенс, Кевин Коуплэнд, Кэйли Хоттл, Кэсси Райли, Мерси Корнуолл, Ребекка Холл, Рональд Смик, Рэйчел Хаус, Чантелл Джемисон, Чэнь Фала

Описание: Два древних титана, Годзилла и Конг, сражаются в эпической битве, пока люди разгадывают их происхождение и связь с тайнами Острова черепа.


Видео: 1920x804, ~9144 Кбит/сек
Аудио1: AC3, 6 ch, 384 Kbps - РусскийРусский, Дублированный (Bravo Records Georgia)
Аудио2: AC3, 6 ch, 448 Kbps - АнглийскийАнглийский, Оригинал
Субтитры: Русские (форсированные, полные), Английские (форсированные, полные, SDH)

Как за несколько секунд удалить ненужные аудиодорожки и субтитры (Внимание! После удаления вы не сможете поддержать раздачу)


МедиаинфоGeneral
Unique ID : 289197702762466518153831239670779376731 (0xD99173996CB17A6EC7C8BDCA3888745B)
Complete name : E:\HEVC\Godzilla x Kong The New Empire (2024) BDRip 1080p [HEVC] 10bit.mkv
Format : Matroska
Format version : Version 4
File size : 7.99 GiB
Duration : 1 h 54 min
Overall bit rate : 9 979 kb/s
Frame rate : 23.976 FPS
Movie name : Годзилла и Конг: Новая империя
Encoded date : 2024-06-10 15:08:15 UTC
Writing application : mkvmerge v45.0.0 ('Heaven in Pennies') 64-bit
Writing library : libebml v1.3.10 + libmatroska v1.5.2
Cover : Yes
Attachments : poster.jpg / cover.jpg

Video
ID : 1
Format : HEVC
Format/Info : High Efficiency Video Coding
Format profile : Main 10@L4.1@High
Codec ID : V_MPEGH/ISO/HEVC
Duration : 1 h 54 min
Bit rate : 9 144 kb/s
Width : 1 920 pixels
Height : 804 pixels
Display aspect ratio : 2.39:1
Frame rate mode : Constant
Frame rate : 23.976 (24000/1001) FPS
Color space : YUV
Chroma subsampling : 4:2:0 (Type 0)
Bit depth : 10 bits
Bits/(Pixel*Frame) : 0.247
Stream size : 7.32 GiB (92%)
Writing library : x265 3.5+1-f0c1022b6:[Windows][MSVC 1920][64 bit] 10bit
Encoding settings : cpuid=1111039 / frame-threads=13 / numa-pools=12 / wpp / no-pmode / no-pme / no-psnr / no-ssim / log-level=3 / input-csp=1 / input-res=1920x804 / interlace=0 / total-frames=0 / level-idc=41 / high-tier=1 / uhd-bd=0 / ref=5 / no-allow-non-conformance / no-repeat-headers / annexb / no-aud / no-eob / no-eos / no-hrd / info / hash=0 / temporal-layers=0 / open-gop / min-keyint=23 / keyint=240 / gop-lookahead=0 / bframes=16 / b-adapt=2 / b-pyramid / bframe-bias=0 / rc-lookahead=60 / lookahead-slices=4 / scenecut=40 / no-hist-scenecut / radl=0 / no-splice / no-intra-refresh / ctu=32 / min-cu-size=8 / rect / amp / max-tu-size=32 / tu-inter-depth=4 / tu-intra-depth=4 / limit-tu=4 / rdoq-level=2 / dynamic-rd=0.00 / no-ssim-rd / signhide / no-tskip / nr-intra=0 / nr-inter=0 / no-constrained-intra / no-strong-intra-smoothing / max-merge=5 / limit-refs=1 / limit-modes / me=3 / subme=7 / merange=57 / temporal-mvp / no-frame-dup / no-hme / weightp / weightb / no-analyze-src-pics / deblock=-3:-3 / no-sao / no-sao-non-deblock / rd=4 / selective-sao=0 / no-early-skip / rskip / no-fast-intra / no-tskip-fast / no-cu-lossless / b-intra / no-splitrd-skip / rdpenalty=0 / psy-rd=2.00 / psy-rdoq=1.00 / no-rd-refine / no-lossless / cbqpoffs=0 / crqpoffs=0 / rc=crf / crf=20.0 / qcomp=0.60 / qpstep=4 / stats-write=0 / stats-read=0 / vbv-maxrate=50000 / vbv-bufsize=50000 / vbv-init=0.9 / min-vbv-fullness=50.0 / max-vbv-fullness=80.0 / crf-max=30.0 / crf-min=0.0 / ipratio=1.40 / pbratio=1.30 / aq-mode=2 / aq-strength=1.00 / no-cutree / zone-count=0 / no-strict-cbr / qg-size=32 / no-rc-grain / qpmax=69 / qpmin=0 / no-const-vbv / sar=1 / overscan=0 / videoformat=5 / range=0 / colorprim=1 / transfer=1 / colormatrix=1 / chromaloc=1 / chromaloc-top=0 / chromaloc-bottom=0 / display-window=0 / cll=0,0 / min-luma=0 / max-luma=1023 / log2-max-poc-lsb=8 / vui-timing-info / vui-hrd-info / slices=1 / no-opt-qp-pps / no-opt-ref-list-length-pps / no-multi-pass-opt-rps / scenecut-bias=0.05 / no-opt-cu-delta-qp / aq-motion / no-hdr10 / no-hdr10-opt / no-dhdr10-opt / no-idr-recovery-sei / analysis-reuse-level=0 / analysis-save-reuse-level=0 / analysis-load-reuse-level=0 / scale-factor=0 / refine-intra=0 / refine-inter=0 / refine-mv=1 / refine-ctu-distortion=0 / no-limit-sao / ctu-info=0 / no-lowpass-dct / refine-analysis-type=0 / copy-pic=1 / max-ausize-factor=1.0 / no-dynamic-refine / no-single-sei / no-hevc-aq / no-svt / no-field / qp-adaptation-range=1.00 / scenecut-aware-qp=0conformance-window-offsets / right=0 / bottom=0 / decoder-max-rate=0 / no-vbv-live-multi-pass / no-mcstf / no-sbrc
Language : English
Default : Yes
Forced : No
Color range : Limited
Color primaries : BT.709
Transfer characteristics : BT.709
Matrix coefficients : BT.709

Audio #1
ID : 2
Format : AC-3
Format/Info : Audio Coding 3
Commercial name : Dolby Digital
Codec ID : A_AC3
Duration : 1 h 54 min
Bit rate mode : Constant
Bit rate : 384 kb/s
Channel(s) : 6 channels
Channel layout : L R C LFE Ls Rs
Sampling rate : 48.0 kHz
Frame rate : 31.250 FPS (1536 SPF)
Compression mode : Lossy
Stream size : 315 MiB (4%)
Title : Russian Dub Bravo Records Georgia
Language : Russian
Service kind : Complete Main
Default : Yes
Forced : No

Audio #2
ID : 3
Format : AC-3
Format/Info : Audio Coding 3
Commercial name : Dolby Digital
Codec ID : A_AC3
Duration : 1 h 54 min
Bit rate mode : Constant
Bit rate : 448 kb/s
Channel(s) : 6 channels
Channel layout : L R C LFE Ls Rs
Sampling rate : 48.0 kHz
Frame rate : 31.250 FPS (1536 SPF)
Compression mode : Lossy
Stream size : 367 MiB (4%)
Title : English Original
Language : English
Service kind : Complete Main
Default : No
Forced : No

Text #1
ID : 4
Format : UTF-8
Codec ID : S_TEXT/UTF8
Codec ID/Info : UTF-8 Plain Text
Duration : 1 h 43 min
Bit rate : 3 b/s
Frame rate : 0.011 FPS
Count of elements : 67
Stream size : 2.85 KiB (0%)
Title : Russian forced
Language : Russian
Default : Yes
Forced : No

Text #2
ID : 5
Format : UTF-8
Codec ID : S_TEXT/UTF8
Codec ID/Info : UTF-8 Plain Text
Duration : 1 h 53 min
Bit rate : 52 b/s
Frame rate : 0.121 FPS
Count of elements : 825
Stream size : 43.4 KiB (0%)
Title : Russian full
Language : Russian
Default : No
Forced : No

Text #3
ID : 6
Format : UTF-8
Codec ID : S_TEXT/UTF8
Codec ID/Info : UTF-8 Plain Text
Duration : 1 h 33 min
Bit rate : 1 b/s
Frame rate : 0.010 FPS
Count of elements : 56
Stream size : 1.28 KiB (0%)
Title : English forced
Language : English
Default : No
Forced : No

Text #4
ID : 7
Format : UTF-8
Codec ID : S_TEXT/UTF8
Codec ID/Info : UTF-8 Plain Text
Duration : 1 h 45 min
Bit rate : 38 b/s
Frame rate : 0.151 FPS
Count of elements : 956
Stream size : 30.1 KiB (0%)
Title : English full
Language : English
Default : No
Forced : No

Text #5
ID : 8
Format : UTF-8
Codec ID : S_TEXT/UTF8
Codec ID/Info : UTF-8 Plain Text
Duration : 1 h 54 min
Bit rate : 53 b/s
Frame rate : 0.241 FPS
Count of elements : 1654
Stream size : 44.4 KiB (0%)
Title : English SDH
Language : English
Default : No
Forced : No

Menu
00:00:00.000 : en:Chapter 01
00:09:36.367 : en:Chapter 02
00:18:34.863 : en:Chapter 03
00:30:42.966 : en:Chapter 04
00:38:47.491 : en:Chapter 05
00:49:01.939 : en:Chapter 06
01:00:24.037 : en:Chapter 07
01:10:13.834 : en:Chapter 08
01:19:26.887 : en:Chapter 09
01:28:07.699 : en:Chapter 10
01:38:40.539 : en:Chapter 11
01:46:38.725 : en:Chapter 12
Загрузка...Cкриншот1 Годзилла и Конг: Новая империя / Godzilla x Kong: The New Empire (2024) BDRip 1080p [HEVC] 10 bit от HANNIBAL (RG HEVC-CLUB)Загрузка...Cкриншот2 Годзилла и Конг: Новая империя / Godzilla x Kong: The New Empire (2024) BDRip 1080p [HEVC] 10 bit от HANNIBAL (RG HEVC-CLUB)Загрузка...Cкриншот3 Годзилла и Конг: Новая империя / Godzilla x Kong: The New Empire (2024) BDRip 1080p [HEVC] 10 bit от HANNIBAL (RG HEVC-CLUB)Загрузка...Cкриншот4 Годзилла и Конг: Новая империя / Godzilla x Kong: The New Empire (2024) BDRip 1080p [HEVC] 10 bit от HANNIBAL (RG HEVC-CLUB)
Поблагодарили: 7AndresUA, bronsonw200, gotgame1, IRIT, Kilop77, Kiran, qq
Файлы: 1
  • Godzilla x Kong The New Empire (2024) BDRip 1080p [HEVC] 10bit.mkv

Рейтинги КП и IMDB, кнопки "Раздайте, пожалуйста" и "Спасибо", а также мультитрекерная статистика доступны только зарегистрированным/авторизованным пользователям!

HANNIBAL
205307.99 ГБ

💬︎ Комментарии

Добавление комментариев доступно только зарегистрированным/авторизованным пользователям.