Чат

⚫︎
Список изменений сайта - https://rips.club/changelog.html (обновлен 24.05.2024)
  • arwis
  • justmkr
  • Денис
Онлайн (за 10 мин.): 3
Отправка сообщений доступна только зарегистрированным/авторизованным пользователям.

🎥︎Операция «Фортуна»: Искусство побеждать / Operation Fortune: Ruse de Guerre (2023) BDRip 1080p [HEVC] 10 bit от OldGamer (RG RIPS CLUB)


Обложка Операция «Фортуна»: Искусство побеждать / Operation Fortune: Ruse de Guerre (2023) BDRip 1080p [HEVC] 10 bit от OldGamer (RG RIPS CLUB)
HEVC
10 bit
✂︎Сэмпл⤓︎Торрент🧲︎Магнет$Пожертвования

При перезаливке на другие сайты просьба указать автора и релиз-группу.


Год: 2023
Страна: Великобритания, США
Студия: AZ Celtic Films, Miramax Films, STX Films, Tencent Pictures
Жанр: Боевик, Комедия
Длительность: 01:53:50

Режиссер: Гай Ричи
В ролях: Джейсон Стэйтем, Обри Плаза, Джош Хартнетт, Кэри Элвес, Багзи Мэлоун, Хью Грант, Эдди Марсан, Питер Фердинандо, Николас Фэйси, Лурдес Фаберес

Описание: Суперагент британской разведки Орсон Форчун наслаждался заслуженным отпуском, когда родине срочно понадобились его услуги. Из секретной лаборатории похищено предположительно смертельное оружие, поэтому, собрав команду из лучших оперативников, Орсон выходит на посредника в готовящейся сделке продажи — миллиардера и большого поклонника знаменитостей Грэга Симмондса. А чтобы подобраться к нему, в качестве прикрытия решает использовать известного голливудского актёра Дэнни Франческо.


Релиз-группа: RIPS CLUB
Исходник: Blu-Ray Remux 1080p (rutracker)
Видео: 1920x804, ~7710 Kbps
Аудио1: AC3, 6 ch, 448 Kbps - РусскийРусский, DUB (CPI Films)
Аудио2: AC3, 6 ch, 448 Kbps - РусскийРусский, MVO (Jaskier)
Аудио3: AC3, 2 ch, 192 Kbps - РусскийРусский, MVO (TVShows)
Аудио4: AC3, 6 ch, 640 Kbps - РусскийРусский, АVO (Юрий Сербин, без цензуры)
Аудио5: AC3, 6 ch, 384 Kbps - РусскийРусский, VO (Дмитрий Есарев, без цензуры)
Аудио6: AC3, 6 ch, 384 Kbps - УкраинскийУкраинский, MVO (DniproFilm / HDRezka Studio)
Аудио7: AC3, 6 ch, 640 Kbps - АнглийскийАнглийский
Субтитры: русские (SDH), украинские (forced), английские

Как за несколько секунд удалить ненужные аудиодорожки и субтитры (Внимание! После удаления вы не сможете поддержать раздачу)


Лог (x265 info)x265 [info]: frame I: 688, Avg QP:18.13 kb/s: 21681.96
x265 [info]: frame P: 24814, Avg QP:19.46 kb/s: 15808.57
x265 [info]: frame B: 138419, Avg QP:21.04 kb/s: 6187.57
x265 [info]: Weighted P-Frames: Y:7.7% UV:6.2%
x265 [info]: Weighted B-Frames: Y:7.8% UV:5.9%
x265 [info]: encoded 163921 frames in 114651.87s (1.43 fps), 7709.01 kb/s, Avg QP:20.79
МедиаинфоОбщее
Уникальный идентификатор : 101780219647937748608788357820626796235 (0x4C92284347F2D982C9C94EF4385C7ECB)
Полное имя : \\.\Операция.«Фортуна».Искусство.побеждать.Operation.Fortune.Ruse.de.Guerre.2023.BDRip-HEVC.1080p.mkv
Формат : Matroska
Версия формата : Version 4
Размер файла : 8,63 Гбайт
Продолжительность : 1 ч. 53 мин.
Общий битрейт : 10,9 Мбит/сек
Частота кадров : 24,000 кадра/сек
Название фильма : Операция «Фортуна»: Искусство побеждать / Операция «Фортуна»: Искусство побеждать
Кодирование выполнил : OldGamer
Тип содержимого : Movie
Описание : В этой операции у каждого своя роль.
Дата выпуска : 2023-01-04
Дата записи : 2023-01-04
Программа кодирования : mkvmerge v85.0 ('Shame For You') 64-bit
Библиотека кодирования : libebml v1.4.5 + libmatroska v1.7.1 / xvid4psp5
Обложка : Yes
Attachments : cover.jpg
ACTOR : Джейсон Стейтем, Обри Плаза, Джош Хартнетт, Хью Грант, Кэри Элвис, Bugzy Malone, Peter Ferdinando, Эдди Марсан, Lourdes Faberes, Max Beesley, Сэм Дуглас, Aksel Üstün, Oliver Maltman, Ergun Kuyucu, Eugenia Kuzmina, Vincent Wang, Kaan Urgancıoğlu, Tim ...
ARTIST : Джейсон Стейтем, Обри Плаза, Джош Хартнетт, Хью Грант, Кэри Элвис, Bugzy Malone, Peter Ferdinando, Эдди Марсан, Lourdes Faberes, Max Beesley, Сэм Дуглас, Aksel Üstün, Oliver Maltman, Ergun Kuyucu, Eugenia Kuzmina, Vincent Wang, Kaan Urgancıoğlu, Tim ...
DIRECTOR : Гай Ричи
GENRE : боевик, триллер, комедия, приключения
LAW_RATING : R
PRODUCER : Bill Block, Ivan Atkinson, Steven Chasman, Джейсон Стейтем, Гай Ричи
PRODUCTION_STUDIO : AZ Celtic Films
RATING : R
SUMMARY : В этой операции у каждого своя роль.
SYNOPSIS : Суперагент британской разведки Орсон Форчун наслаждался заслуженным отпуском, когда родине срочно понадобились его услуги. Из секретной лаборатории похищено предположительно смертельное оружие, поэтому собрав команду из лучших оперативников, Орсон выходит на посредника в готовящейся сделке продажи — миллиардера и большого поклонника знаменитостей Грэга Симмондса. А чтобы подобраться к нему, в качестве прикрытия решает использовать известного голливудского актёра Дэнни Франческо.

Видео
Идентификатор : 1
Формат : HEVC
Формат/Информация : High Efficiency Video Coding
Профиль формата : Main 10@L4.1@High
Идентификатор кодека : V_MPEGH/ISO/HEVC
Продолжительность : 1 ч. 53 мин.
Битрейт : 7 710 Кбит/сек
Ширина : 1 920 пикселей
Высота : 804 пикселя
Соотношение сторон дисплея : 2,39:1
Режим частоты кадров : Постоянный
Частота кадров : 24,000 кадра/сек
Цветовое пространство : YUV
Цветовая субдискретизация : 4:2:0
Битовая глубина : 10 бит
Бит/(Пиксели*Кадры) : 0.208
Размер потока : 6,13 Гбайт (71%)
Заголовок : Operation Fortune: Ruse de Guerre / Rip by OldGamer
Библиотека кодирования : x265 3.6+27-8787e8702:[Windows][GCC 13.3.0][64 bit] 10bit
Параметры библиотеки кодирования : cpuid=1111039 / frame-threads=3 / numa-pools=8 / wpp / no-pmode / no-pme / no-psnr / no-ssim / log-level=2 / input-csp=1 / input-res=1920x804 / interlace=0 / total-frames=163921 / level-idc=41 / high-tier=1 / uhd-bd=0 / ref=5 / no-allow-non-conformance / no-repeat-headers / annexb / no-aud / no-eob / no-eos / no-hrd / info / hash=0 / temporal-layers=0 / open-gop / min-keyint=23 / keyint=240 / gop-lookahead=0 / bframes=16 / b-adapt=2 / b-pyramid / bframe-bias=0 / rc-lookahead=60 / lookahead-slices=0 / scenecut=40 / no-hist-scenecut / radl=0 / no-splice / no-intra-refresh / ctu=32 / min-cu-size=8 / rect / amp / max-tu-size=32 / tu-inter-depth=4 / tu-intra-depth=4 / limit-tu=1 / rdoq-level=2 / dynamic-rd=0.00 / no-ssim-rd / signhide / no-tskip / nr-intra=0 / nr-inter=0 / no-constrained-intra / no-strong-intra-smoothing / max-merge=5 / limit-refs=3 / no-limit-modes / me=3 / subme=7 / merange=57 / temporal-mvp / no-frame-dup / no-hme / weightp / weightb / no-analyze-src-pics / deblock=-2:-2 / no-sao / no-sao-non-deblock / rd=6 / selective-sao=0 / no-early-skip / no-rskip / no-fast-intra / no-tskip-fast / no-cu-lossless / b-intra / no-splitrd-skip / rdpenalty=0 / psy-rd=2.00 / psy-rdoq=1.00 / no-rd-refine / no-lossless / cbqpoffs=0 / crqpoffs=0 / rc=crf / crf=19.7 / qcomp=0.60 / qpstep=4 / stats-write=0 / stats-read=0 / vbv-maxrate=50000 / vbv-bufsize=50000 / vbv-init=0.9 / min-vbv-fullness=50.0 / max-vbv-fullness=80.0 / crf-max=0.0 / crf-min=0.0 / ipratio=1.40 / pbratio=1.30 / aq-mode=1 / aq-strength=1.00 / no-cutree / zone-count=1 / zones: / start-frame=156176 / end-frame=163921 / qp=36 / no-strict-cbr / qg-size=32 / no-rc-grain / qpmax=69 / qpmin=0 / no-const-vbv / sar=1 / overscan=0 / videoformat=5 / range=0 / colorprim=2 / transfer=2 / colormatrix=2 / chromaloc=0 / display-window=0 / cll=0,0 / min-luma=0 / max-luma=1023 / log2-max-poc-lsb=8 / vui-timing-info / vui-hrd-info / slices=1 / no-opt-qp-pps / no-opt-ref-list-length-pps / no-multi-pass-opt-rps / scenecut-bias=0.00 / no-opt-cu-delta-qp / no-aq-motion / no-hdr10 / no-hdr10-opt / no-dhdr10-opt / no-idr-recovery-sei / analysis-reuse-level=0 / analysis-save-reuse-level=0 / analysis-load-reuse-level=0 / scale-factor=0 / refine-intra=0 / refine-inter=0 / refine-mv=1 / refine-ctu-distortion=0 / no-limit-sao / ctu-info=0 / no-lowpass-dct / refine-analysis-type=0 / copy-pic=1 / max-ausize-factor=1.0 / no-dynamic-refine / no-single-sei / no-hevc-aq / no-svt / no-field / qp-adaptation-range=1.00 / scenecut-aware-qp=0conformance-window-offsets / right=0 / bottom=0 / decoder-max-rate=0 / no-vbv-live-multi-pass / no-mcstf / no-sbrc
Язык : Английский
По умолчанию : Да
Принудительно : Нет

Аудио #1
Идентификатор : 2
Формат : AC-3
Формат/Информация : Audio Coding 3
Коммерческое название : Dolby Digital
Идентификатор кодека : A_AC3
Продолжительность : 1 ч. 53 мин.
Вид битрейта : Постоянный
Битрейт : 448 Кбит/сек
Канал(-ы) : 6 каналов
Расположение каналов : L R C LFE Ls Rs
Частота дискретизации : 48,0 КГц
Частота кадров : 31,250 кадров/сек (1536 SPF)
Метод сжатия : С потерями
Размер потока : 365 Мбайт (4%)
Заголовок : DUB (CPI Films)
Язык : Русский
Вид сервиса : Complete Main
По умолчанию : Да
Принудительно : Нет
Нормализация звука речи : -31 dB
cmixlev : -3.0 dB
surmixlev : -6 dB
dialnorm_Average : -31 dB
dialnorm_Minimum : -31 dB
dialnorm_Maximum : -31 dB

Аудио #2
Идентификатор : 3
Формат : AC-3
Формат/Информация : Audio Coding 3
Коммерческое название : Dolby Digital
Идентификатор кодека : A_AC3
Продолжительность : 1 ч. 53 мин.
Вид битрейта : Постоянный
Битрейт : 448 Кбит/сек
Канал(-ы) : 6 каналов
Расположение каналов : L R C LFE Ls Rs
Частота дискретизации : 48,0 КГц
Частота кадров : 31,250 кадров/сек (1536 SPF)
Метод сжатия : С потерями
Размер потока : 365 Мбайт (4%)
Заголовок : MVO (Jaskier)
Язык : Русский
Вид сервиса : Complete Main
По умолчанию : Нет
Принудительно : Нет
Нормализация звука речи : -31 dB
cmixlev : -4.5 dB
surmixlev : -6 dB
dialnorm_Average : -31 dB
dialnorm_Minimum : -31 dB
dialnorm_Maximum : -31 dB

Аудио #3
Идентификатор : 4
Формат : AC-3
Формат/Информация : Audio Coding 3
Коммерческое название : Dolby Digital
Идентификатор кодека : A_AC3
Продолжительность : 1 ч. 53 мин.
Вид битрейта : Постоянный
Битрейт : 192 Кбит/сек
Канал(-ы) : 2 канала
Расположение каналов : L R
Частота дискретизации : 48,0 КГц
Частота кадров : 31,250 кадров/сек (1536 SPF)
Метод сжатия : С потерями
Размер потока : 156 Мбайт (2%)
Заголовок : MVO (TVShows)
Язык : Русский
Вид сервиса : Complete Main
По умолчанию : Нет
Принудительно : Нет
Нормализация звука речи : -31 dB
dialnorm_Average : -31 dB
dialnorm_Minimum : -31 dB
dialnorm_Maximum : -31 dB

Аудио #4
Идентификатор : 5
Формат : AC-3
Формат/Информация : Audio Coding 3
Коммерческое название : Dolby Digital
Идентификатор кодека : A_AC3
Продолжительность : 1 ч. 53 мин.
Вид битрейта : Постоянный
Битрейт : 640 Кбит/сек
Канал(-ы) : 6 каналов
Расположение каналов : L R C LFE Ls Rs
Частота дискретизации : 48,0 КГц
Частота кадров : 31,250 кадров/сек (1536 SPF)
Метод сжатия : С потерями
Размер потока : 521 Мбайт (6%)
Заголовок : АVO (Юрий Сербин, без цензуры)
Язык : Русский
Вид сервиса : Complete Main
По умолчанию : Нет
Принудительно : Нет
Нормализация звука речи : -27 dB
compr : -0.28 dB
dynrng : 16.42 dB
cmixlev : -3.0 dB
surmixlev : -3 dB
mixlevel : 285 dB
roomtyp : Small
dialnorm_Average : -27 dB
dialnorm_Minimum : -27 dB
dialnorm_Maximum : -27 dB

Аудио #5
Идентификатор : 6
Формат : AC-3
Формат/Информация : Audio Coding 3
Коммерческое название : Dolby Digital
Идентификатор кодека : A_AC3
Продолжительность : 1 ч. 53 мин.
Вид битрейта : Постоянный
Битрейт : 384 Кбит/сек
Канал(-ы) : 6 каналов
Расположение каналов : L R C LFE Ls Rs
Частота дискретизации : 48,0 КГц
Частота кадров : 31,250 кадров/сек (1536 SPF)
Метод сжатия : С потерями
Размер потока : 313 Мбайт (4%)
Заголовок : VO (Дмитрий Есарев, без цензуры)
Язык : Русский
Вид сервиса : Complete Main
По умолчанию : Нет
Принудительно : Нет
Нормализация звука речи : -31 dB
cmixlev : -4.5 dB
surmixlev : -6 dB
dialnorm_Average : -31 dB
dialnorm_Minimum : -31 dB
dialnorm_Maximum : -31 dB

Аудио #6
Идентификатор : 7
Формат : AC-3
Формат/Информация : Audio Coding 3
Коммерческое название : Dolby Digital
Идентификатор кодека : A_AC3
Продолжительность : 1 ч. 53 мин.
Вид битрейта : Постоянный
Битрейт : 384 Кбит/сек
Канал(-ы) : 6 каналов
Расположение каналов : L R C LFE Ls Rs
Частота дискретизации : 48,0 КГц
Частота кадров : 31,250 кадров/сек (1536 SPF)
Метод сжатия : С потерями
Размер потока : 313 Мбайт (4%)
Заголовок : MVO (DniproFilm / HDRezka Studio)
Язык : Украинский
Вид сервиса : Complete Main
По умолчанию : Нет
Принудительно : Нет
Нормализация звука речи : -31 dB
cmixlev : -4.5 dB
surmixlev : -6 dB
dialnorm_Average : -31 dB
dialnorm_Minimum : -31 dB
dialnorm_Maximum : -31 dB

Аудио #7
Идентификатор : 8
Формат : AC-3
Формат/Информация : Audio Coding 3
Коммерческое название : Dolby Digital
Идентификатор кодека : A_AC3
Продолжительность : 1 ч. 53 мин.
Вид битрейта : Постоянный
Битрейт : 640 Кбит/сек
Канал(-ы) : 6 каналов
Расположение каналов : L R C LFE Ls Rs
Частота дискретизации : 48,0 КГц
Частота кадров : 31,250 кадров/сек (1536 SPF)
Метод сжатия : С потерями
Размер потока : 521 Мбайт (6%)
Язык : Английский
Вид сервиса : Complete Main
По умолчанию : Нет
Принудительно : Нет
Нормализация звука речи : -27 dB
compr : -0.28 dB
cmixlev : -3.0 dB
surmixlev : -3 dB
mixlevel : 285 dB
roomtyp : Small
dialnorm_Average : -27 dB
dialnorm_Minimum : -27 dB
dialnorm_Maximum : -27 dB

Текст #1
Идентификатор : 9
Формат : UTF-8
Идентификатор кодека : S_TEXT/UTF8
Идентификатор кодека/Информация : UTF-8 Plain Text
Продолжительность : 1 ч. 47 мин.
Битрейт : 124 бит/сек
Частота кадров : 0,296 кадр/сек
Число элементов : 1910
Размер потока : 97,8 КиБ (0%)
Язык : Русский
По умолчанию : Нет
Принудительно : Нет

Текст #2
Идентификатор : 10
Формат : UTF-8
Идентификатор кодека : S_TEXT/UTF8
Идентификатор кодека/Информация : UTF-8 Plain Text
Продолжительность : 1 ч. 47 мин.
Битрейт : 139 бит/сек
Частота кадров : 0,319 кадр/сек
Число элементов : 2057
Размер потока : 110 КиБ (0%)
Заголовок : SDH
Язык : Русский
По умолчанию : Нет
Принудительно : Нет

Текст #3
Идентификатор : 11
Формат : UTF-8
Идентификатор кодека : S_TEXT/UTF8
Идентификатор кодека/Информация : UTF-8 Plain Text
Продолжительность : 1 ч. 43 мин.
Битрейт : 1 бит/сек
Частота кадров : 0,003 кадр/сек
Число элементов : 18
Размер потока : 780 байт (0%)
Заголовок : forced
Язык : Украинский
По умолчанию : Нет
Принудительно : Нет

Текст #4
Идентификатор : 12
Формат : UTF-8
Идентификатор кодека : S_TEXT/UTF8
Идентификатор кодека/Информация : UTF-8 Plain Text
Продолжительность : 1 ч. 46 мин.
Битрейт : 86 бит/сек
Частота кадров : 0,295 кадр/сек
Число элементов : 1884
Размер потока : 67,7 КиБ (0%)
Язык : Английский
По умолчанию : Нет
Принудительно : Нет

Меню
00:00:00.000 : en:Chapter 01
00:08:10.667 : en:Chapter 02
00:18:03.000 : en:Chapter 03
00:26:45.167 : en:Chapter 04
00:37:47.792 : en:Chapter 05
00:46:01.042 : en:Chapter 06
00:55:17.083 : en:Chapter 07
01:04:43.833 : en:Chapter 08
01:15:13.333 : en:Chapter 09
01:25:08.250 : en:Chapter 10
01:34:33.083 : en:Chapter 11
01:44:30.458 : en:Chapter 12
Загрузка...Cкриншот1 Операция «Фортуна»: Искусство побеждать / Operation Fortune: Ruse de Guerre (2023) BDRip 1080p [HEVC] 10 bit от OldGamer (RG RIPS CLUB)Загрузка...Cкриншот2 Операция «Фортуна»: Искусство побеждать / Operation Fortune: Ruse de Guerre (2023) BDRip 1080p [HEVC] 10 bit от OldGamer (RG RIPS CLUB)Загрузка...Cкриншот3 Операция «Фортуна»: Искусство побеждать / Operation Fortune: Ruse de Guerre (2023) BDRip 1080p [HEVC] 10 bit от OldGamer (RG RIPS CLUB)Загрузка...Cкриншот4 Операция «Фортуна»: Искусство побеждать / Operation Fortune: Ruse de Guerre (2023) BDRip 1080p [HEVC] 10 bit от OldGamer (RG RIPS CLUB)
Поблагодарили: 11A1eksandr1, AlexsBond, AndresUA, D16T, indicom, Kiran, Niflung, slavjanin, stickstoff, vserginbox, Рокер2024
Файлы: 1
  • Операция.«Фортуна».Искусство.побеждать.Operation.Fortune.Ruse.de.Guerre.2023.BDRip-HEVC.1080p.mkv

Рейтинги КП и IMDB, кнопки "Раздайте, пожалуйста" и "Спасибо", а также мультитрекерная статистика доступны только зарегистрированным/авторизованным пользователям!

OldGamer
43060118.63 ГБ

💬︎ Комментарии

Добавление комментариев доступно только зарегистрированным/авторизованным пользователям.

Всего: 1
Аватар не указан
Niflung
Есть еще перевод от Кубиков.