Чат

⚫︎
Список изменений сайта - https://rips.club/changelog.html (обновлен 24.05.2024)
  • arwis
  • Kiran
Онлайн (за 10 мин.): 2
Отправка сообщений доступна только зарегистрированным/авторизованным пользователям.

🎥︎Крокодил Данди в Лос-Анджелесе / Crocodile Dundee in Los Angeles (2001) BDRip 1080p [HEVC] 10 bit от OldGamer (RG RIPS CLUB)


Обложка Крокодил Данди в Лос-Анджелесе / Crocodile Dundee in Los Angeles (2001) BDRip 1080p [HEVC] 10 bit от OldGamer (RG RIPS CLUB)
HEVC
10 bit
✂︎Сэмпл⤓︎Торрент🧲︎Магнет$Пожертвования

При перезаливке на другие сайты просьба указать автора и релиз-группу.


Год: 2001
Страна: Австралия, США
Студия: Bungalow Productions, Silver Lion Films, Vision View Entertainment
Жанр: Боевик, Комедия, Криминал, Приключения
Длительность: 01:34:54

Режиссер: Саймон Уинсер
В ролях: Пол Хоган, Линда Козловски, Джер Бернс, Джонатан Бэнкс, Алек Уилсон, Джерри Скилтон, Дональд Керр, Серж Кокберн, Аида Туртурро, Пол Родригес

Описание: Вы готовы к возвращению Крокодила Данди? В третьей части этого безумно популярного фильма Мик Данди, следуя за своей подругой, журналисткой Сью Чарльстон, переселяется из деревенской глуши Австралии в модный и суетливый Лос-Анджелес. Сью возглавляет лос-анжелесский офис газеты своего отца и пытается выяснить причины гибели одного из лучших журналистов. Данди, которому надоело беспрерывно попадать в глупые и комичные ситуации, включается в журналистское расследование Сью...


Релиз-группа: RIPS CLUB
Исходник: Blu-Ray Remux 1080p (kinozal)
Видео: 1920x1080, ~8715 Kbps
Аудио1: AC3, 6 ch, 640 Kbps - РусскийРусский, DUB (R5)
Аудио2: AC3, 2 ch, 192 Kbps - РусскийРусский, MVO (ТК Россия)
Аудио3: AC3, 2 ch, 192 Kbps - РусскийРусский, DVO (SDI Media)
Аудио4: AC3, 6 ch, 640 Kbps - РусскийРусский, AVO (Юрий Живов)
Аудио5: AC3, 2 ch, 192 Kbps - УкраинскийУкраинский, DVO (Новый канал)
Аудио6: AC3, 6 ch, 640 Kbps - АнглийскийАнглийский
Субтитры: русские, английские (SDH)

Как за несколько секунд удалить ненужные аудиодорожки и субтитры (Внимание! После удаления вы не сможете поддержать раздачу)


Лог (x265 info)x265 [info]: frame I: 570, Avg QP:18.51 kb/s: 23196.96
x265 [info]: frame P: 24226, Avg QP:19.76 kb/s: 17071.61
x265 [info]: frame B: 111739, Avg QP:21.82 kb/s: 6828.71
x265 [info]: Weighted P-Frames: Y:5.3% UV:4.1%
x265 [info]: Weighted B-Frames: Y:3.3% UV:2.4%
x265 [info]: encoded 136535 frames in 129034.88s (1.06 fps), 8714.49 kb/s, Avg QP:21.44
МедиаинфоОбщее
Уникальный идентификатор : 45998671706406208268951350131133969727 (0x229B059CD20AB5CB91DA755E63F2F53F)
Полное имя : \\.\Крокодил.Данди.в.Лос-Анджелесе.Crocodile.Dundee.in.Los.Angeles.2001.BDRip-HEVC.1080p.mkv
Формат : Matroska
Версия формата : Version 4
Размер файла : 7,44 Гбайт
Продолжительность : 1 ч. 34 мин.
Общий битрейт : 11,2 Мбит/сек
Частота кадров : 23,976 кадра/сек
Название фильма : Крокодил Данди в Лос-Анджелесе / Крокодил Данди в Лос-Анджелесе
Кодирование выполнил : OldGamer
Тип содержимого : Movie
Дата выпуска : 2001-04-12
Дата записи : 2001-04-12
Программа кодирования : mkvmerge v85.0 ('Shame For You') 64-bit
Библиотека кодирования : libebml v1.4.5 + libmatroska v1.7.1 / xvid4psp5
Обложка : Yes
Attachments : cover.jpg
ACTOR : Paul Hogan, Linda Kozlowski, Jere Burns, Джонатан Бэнкс, Alec Wilson, Gerry Skilton, Steve Rackman, Serge Cockburn, Aida Turturro, Paul Rodríguez, Kaitlin Hopkins, Patrick Dargan, Matt Winston, Morgan O'Neill, Clare Carey, David Ngoombujarra, Buddy D...
ARTIST : Paul Hogan, Linda Kozlowski, Jere Burns, Джонатан Бэнкс, Alec Wilson, Gerry Skilton, Steve Rackman, Serge Cockburn, Aida Turturro, Paul Rodríguez, Kaitlin Hopkins, Patrick Dargan, Matt Winston, Morgan O'Neill, Clare Carey, David Ngoombujarra, Buddy D...
DIRECTOR : Simon Wincer
GENRE : приключения, комедия
LAW_RATING : PG
PRODUCER : Conrad Hool, Paul Hogan, Perry Katz, Lance Hool
PRODUCTION_STUDIO : Paramount
RATING : PG
SCREENPLAY_BY : Eric Abrams
SYNOPSIS : В третьей части этого безумно популярного фильма Мик Данди, следуя за своей подругой, журналисткой Сью Чарльстон, переселяется из деревенской глуши Австралии в модный и суетливый Лос-Анджелес. Сью возглавляет лос-анжелесский офис газеты своего отца и пытается выяснить причины гибели одного из лучших журналистов. Данди, которому надоело беспрерывно попадать в глупые и комичные ситуации, включается в журналистское расследование Сью...
WRITTEN_BY : Eric Abrams

Видео
Идентификатор : 1
Формат : HEVC
Формат/Информация : High Efficiency Video Coding
Профиль формата : Main 10@L4.1@High
Идентификатор кодека : V_MPEGH/ISO/HEVC
Продолжительность : 1 ч. 34 мин.
Битрейт : 8 715 Кбит/сек
Ширина : 1 920 пикселей
Высота : 1 080 пикселей
Соотношение сторон дисплея : 16:9
Режим частоты кадров : Постоянный
Частота кадров : 23,976 (24000/1001) кадра/сек
Цветовое пространство : YUV
Цветовая субдискретизация : 4:2:0
Битовая глубина : 10 бит
Бит/(Пиксели*Кадры) : 0.175
Размер потока : 5,78 Гбайт (78%)
Заголовок : Crocodile Dundee in Los Angeles / Rip by OldGamer
Библиотека кодирования : x265 3.6+27-8787e8702:[Windows][GCC 13.3.0][64 bit] 10bit
Параметры библиотеки кодирования : cpuid=1111039 / frame-threads=3 / numa-pools=8 / wpp / no-pmode / no-pme / no-psnr / no-ssim / log-level=2 / input-csp=1 / input-res=1920x1080 / interlace=0 / total-frames=136535 / level-idc=41 / high-tier=1 / uhd-bd=0 / ref=5 / no-allow-non-conformance / no-repeat-headers / annexb / no-aud / no-eob / no-eos / no-hrd / info / hash=0 / temporal-layers=0 / open-gop / min-keyint=23 / keyint=240 / gop-lookahead=0 / bframes=16 / b-adapt=2 / b-pyramid / bframe-bias=0 / rc-lookahead=60 / lookahead-slices=0 / scenecut=40 / no-hist-scenecut / radl=0 / no-splice / no-intra-refresh / ctu=32 / min-cu-size=8 / rect / amp / max-tu-size=32 / tu-inter-depth=4 / tu-intra-depth=4 / limit-tu=1 / rdoq-level=2 / dynamic-rd=0.00 / no-ssim-rd / signhide / no-tskip / nr-intra=0 / nr-inter=0 / no-constrained-intra / no-strong-intra-smoothing / max-merge=5 / limit-refs=3 / no-limit-modes / me=3 / subme=7 / merange=57 / temporal-mvp / no-frame-dup / no-hme / weightp / weightb / no-analyze-src-pics / deblock=-2:-2 / no-sao / no-sao-non-deblock / rd=6 / selective-sao=0 / no-early-skip / no-rskip / no-fast-intra / no-tskip-fast / no-cu-lossless / b-intra / no-splitrd-skip / rdpenalty=0 / psy-rd=2.00 / psy-rdoq=1.00 / no-rd-refine / no-lossless / cbqpoffs=0 / crqpoffs=0 / rc=crf / crf=20.0 / qcomp=0.60 / qpstep=4 / stats-write=0 / stats-read=0 / vbv-maxrate=50000 / vbv-bufsize=50000 / vbv-init=0.9 / min-vbv-fullness=50.0 / max-vbv-fullness=80.0 / crf-max=0.0 / crf-min=0.0 / ipratio=1.40 / pbratio=1.30 / aq-mode=1 / aq-strength=1.00 / no-cutree / zone-count=1 / zones: / start-frame=129678 / end-frame=136536 / qp=36 / no-strict-cbr / qg-size=32 / no-rc-grain / qpmax=69 / qpmin=0 / no-const-vbv / sar=1 / overscan=0 / videoformat=5 / range=0 / colorprim=2 / transfer=2 / colormatrix=2 / chromaloc=0 / display-window=0 / cll=0,0 / min-luma=0 / max-luma=1023 / log2-max-poc-lsb=8 / vui-timing-info / vui-hrd-info / slices=1 / no-opt-qp-pps / no-opt-ref-list-length-pps / no-multi-pass-opt-rps / scenecut-bias=0.00 / no-opt-cu-delta-qp / no-aq-motion / no-hdr10 / no-hdr10-opt / no-dhdr10-opt / no-idr-recovery-sei / analysis-reuse-level=0 / analysis-save-reuse-level=0 / analysis-load-reuse-level=0 / scale-factor=0 / refine-intra=0 / refine-inter=0 / refine-mv=1 / refine-ctu-distortion=0 / no-limit-sao / ctu-info=0 / no-lowpass-dct / refine-analysis-type=0 / copy-pic=1 / max-ausize-factor=1.0 / no-dynamic-refine / no-single-sei / no-hevc-aq / no-svt / no-field / qp-adaptation-range=1.00 / scenecut-aware-qp=0conformance-window-offsets / right=0 / bottom=0 / decoder-max-rate=0 / no-vbv-live-multi-pass / no-mcstf / no-sbrc
Язык : Английский
По умолчанию : Да
Принудительно : Нет

Аудио #1
Идентификатор : 2
Идентификатор в исходном носителе информ : 4352 (0x1100)
Формат : AC-3
Формат/Информация : Audio Coding 3
Коммерческое название : Dolby Digital
Идентификатор кодека : A_AC3
Продолжительность : 1 ч. 34 мин.
Вид битрейта : Постоянный
Битрейт : 640 Кбит/сек
Канал(-ы) : 6 каналов
Расположение каналов : L R C LFE Ls Rs
Частота дискретизации : 48,0 КГц
Частота кадров : 31,250 кадров/сек (1536 SPF)
Метод сжатия : С потерями
Размер потока : 434 Мбайт (6%)
Заголовок : DUB (R5)
Язык : Русский
Вид сервиса : Complete Main
По умолчанию : Да
Принудительно : Нет
Носитель оригинала : Blu-ray
Нормализация звука речи : -31 dB
compr : -0.28 dB
cmixlev : -3.0 dB
surmixlev : -3 dB
mixlevel : 329 dB
roomtyp : 3
ltrtcmixlev : -3.0 dB
ltrtsurmixlev : -3.0 dB
lorocmixlev : -3.0 dB
lorosurmixlev : -4.5 dB
dialnorm_Average : -31 dB
dialnorm_Minimum : -31 dB
dialnorm_Maximum : -31 dB

Аудио #2
Идентификатор : 3
Идентификатор в исходном носителе информ : 4353 (0x1101)
Формат : AC-3
Формат/Информация : Audio Coding 3
Коммерческое название : Dolby Digital
Идентификатор кодека : A_AC3
Продолжительность : 1 ч. 34 мин.
Вид битрейта : Постоянный
Битрейт : 192 Кбит/сек
Канал(-ы) : 2 канала
Расположение каналов : L R
Частота дискретизации : 48,0 КГц
Частота кадров : 31,250 кадров/сек (1536 SPF)
Метод сжатия : С потерями
Размер потока : 130 Мбайт (2%)
Заголовок : MVO (ТК Россия)
Язык : Русский
Вид сервиса : Complete Main
По умолчанию : Нет
Принудительно : Нет
Носитель оригинала : Blu-ray
Нормализация звука речи : -27 dB
compr : -0.28 dB
dialnorm_Average : -27 dB
dialnorm_Minimum : -27 dB
dialnorm_Maximum : -27 dB

Аудио #3
Идентификатор : 4
Идентификатор в исходном носителе информ : 4354 (0x1102)
Формат : AC-3
Формат/Информация : Audio Coding 3
Коммерческое название : Dolby Digital
Идентификатор кодека : A_AC3
Продолжительность : 1 ч. 34 мин.
Вид битрейта : Постоянный
Битрейт : 192 Кбит/сек
Канал(-ы) : 2 канала
Расположение каналов : L R
Частота дискретизации : 48,0 КГц
Частота кадров : 31,250 кадров/сек (1536 SPF)
Метод сжатия : С потерями
Размер потока : 130 Мбайт (2%)
Заголовок : DVO (SDI Media)
Язык : Русский
Вид сервиса : Complete Main
По умолчанию : Нет
Принудительно : Нет
Носитель оригинала : Blu-ray
Нормализация звука речи : -31 dB
compr : -0.28 dB
dsurmod : Not Dolby Surround encoded
mixlevel : 329 dB
roomtyp : 3
ltrtcmixlev : -3.0 dB
ltrtsurmixlev : -3.0 dB
lorocmixlev : -3.0 dB
lorosurmixlev : -3.0 dB
dialnorm_Average : -31 dB
dialnorm_Minimum : -31 dB
dialnorm_Maximum : -31 dB

Аудио #4
Идентификатор : 5
Формат : AC-3
Формат/Информация : Audio Coding 3
Коммерческое название : Dolby Digital
Идентификатор кодека : A_AC3
Продолжительность : 1 ч. 34 мин.
Вид битрейта : Постоянный
Битрейт : 640 Кбит/сек
Канал(-ы) : 6 каналов
Расположение каналов : L R C LFE Ls Rs
Частота дискретизации : 48,0 КГц
Частота кадров : 31,250 кадров/сек (1536 SPF)
Метод сжатия : С потерями
Размер потока : 434 Мбайт (6%)
Заголовок : AVO (Юрий Живов)
Язык : Русский
Вид сервиса : Complete Main
По умолчанию : Нет
Принудительно : Нет
Нормализация звука речи : -27 dB
compr : -0.28 dB
cmixlev : -3.0 dB
surmixlev : -3 dB
mixlevel : 285 dB
roomtyp : Small
dialnorm_Average : -27 dB
dialnorm_Minimum : -27 dB
dialnorm_Maximum : -27 dB

Аудио #5
Идентификатор : 6
Идентификатор в исходном носителе информ : 4356 (0x1104)
Формат : AC-3
Формат/Информация : Audio Coding 3
Коммерческое название : Dolby Digital
Идентификатор кодека : A_AC3
Продолжительность : 1 ч. 34 мин.
Вид битрейта : Постоянный
Битрейт : 192 Кбит/сек
Канал(-ы) : 2 канала
Расположение каналов : L R
Частота дискретизации : 48,0 КГц
Частота кадров : 31,250 кадров/сек (1536 SPF)
Метод сжатия : С потерями
Размер потока : 130 Мбайт (2%)
Заголовок : DVO (Новый канал)
Язык : Украинский
Вид сервиса : Complete Main
По умолчанию : Нет
Принудительно : Нет
Носитель оригинала : Blu-ray
Нормализация звука речи : -27 dB
compr : -0.28 dB
dialnorm_Average : -27 dB
dialnorm_Minimum : -27 dB
dialnorm_Maximum : -27 dB

Аудио #6
Идентификатор : 7
Формат : AC-3
Формат/Информация : Audio Coding 3
Коммерческое название : Dolby Digital
Идентификатор кодека : A_AC3
Продолжительность : 1 ч. 34 мин.
Вид битрейта : Постоянный
Битрейт : 640 Кбит/сек
Канал(-ы) : 6 каналов
Расположение каналов : L R C LFE Ls Rs
Частота дискретизации : 48,0 КГц
Частота кадров : 31,250 кадров/сек (1536 SPF)
Метод сжатия : С потерями
Размер потока : 434 Мбайт (6%)
Язык : Английский
Вид сервиса : Complete Main
По умолчанию : Нет
Принудительно : Нет
Нормализация звука речи : -27 dB
compr : -0.28 dB
cmixlev : -3.0 dB
surmixlev : -3 dB
mixlevel : 285 dB
roomtyp : Small
dialnorm_Average : -27 dB
dialnorm_Minimum : -27 dB
dialnorm_Maximum : -27 dB

Текст #1
Идентификатор : 8
Формат : UTF-8
Идентификатор кодека : S_TEXT/UTF8
Идентификатор кодека/Информация : UTF-8 Plain Text
Продолжительность : 1 ч. 29 мин.
Битрейт : 96 бит/сек
Частота кадров : 0,141 кадр/сек
Число элементов : 757
Размер потока : 63,3 КиБ (0%)
Язык : Русский
По умолчанию : Нет
Принудительно : Нет

Текст #2
Идентификатор : 9
Формат : UTF-8
Идентификатор кодека : S_TEXT/UTF8
Идентификатор кодека/Информация : UTF-8 Plain Text
Продолжительность : 1 ч. 29 мин.
Битрейт : 71 бит/сек
Частота кадров : 0,231 кадр/сек
Число элементов : 1239
Размер потока : 46,9 КиБ (0%)
Язык : Английский
По умолчанию : Нет
Принудительно : Нет

Текст #3
Идентификатор : 10
Формат : UTF-8
Идентификатор кодека : S_TEXT/UTF8
Идентификатор кодека/Информация : UTF-8 Plain Text
Продолжительность : 1 ч. 30 мин.
Битрейт : 74 бит/сек
Частота кадров : 0,244 кадр/сек
Число элементов : 1322
Размер потока : 49,2 КиБ (0%)
Заголовок : SDH
Язык : Английский
По умолчанию : Нет
Принудительно : Нет

Меню
00:00:00.000 : en:Chapter 01
00:04:25.890 : en:Chapter 02
00:10:09.859 : en:Chapter 03
00:17:49.276 : en:Chapter 04
00:25:15.972 : en:Chapter 05
00:29:20.216 : en:Chapter 06
00:36:02.702 : en:Chapter 07
00:42:49.775 : en:Chapter 08
00:48:30.407 : en:Chapter 09
00:53:14.316 : en:Chapter 10
00:58:08.776 : en:Chapter 11
01:05:47.485 : en:Chapter 12
01:13:19.686 : en:Chapter 13
01:25:37.674 : en:Chapter 14
Загрузка...Cкриншот1 Крокодил Данди в Лос-Анджелесе / Crocodile Dundee in Los Angeles (2001) BDRip 1080p [HEVC] 10 bit от OldGamer (RG RIPS CLUB)Загрузка...Cкриншот2 Крокодил Данди в Лос-Анджелесе / Crocodile Dundee in Los Angeles (2001) BDRip 1080p [HEVC] 10 bit от OldGamer (RG RIPS CLUB)Загрузка...Cкриншот3 Крокодил Данди в Лос-Анджелесе / Crocodile Dundee in Los Angeles (2001) BDRip 1080p [HEVC] 10 bit от OldGamer (RG RIPS CLUB)Загрузка...Cкриншот4 Крокодил Данди в Лос-Анджелесе / Crocodile Dundee in Los Angeles (2001) BDRip 1080p [HEVC] 10 bit от OldGamer (RG RIPS CLUB)
Поблагодарили: 8AlexsBond, and50, AndresUA, arwis, Askarida666, Kiran, Niflung, Winsent
Файлы: 1
  • Крокодил.Данди.в.Лос-Анджелесе.Crocodile.Dundee.in.Los.Angeles.2001.BDRip-HEVC.1080p.mkv

Рейтинги КП и IMDB, кнопки "Раздайте, пожалуйста" и "Спасибо", а также мультитрекерная статистика доступны только зарегистрированным/авторизованным пользователям!

OldGamer
10114907.44 ГБ

💬︎ Комментарии

Добавление комментариев доступно только зарегистрированным/авторизованным пользователям.