Чат

⚫︎
Список изменений сайта - https://rips.club/changelog.html (обновлен 24.05.2024)
  • arwis
Онлайн (за 10 мин.): 1
Отправка сообщений доступна только зарегистрированным/авторизованным пользователям.

🎥︎Детективное агентство Дирка Джентли / Dirk Gently's Holistic Detective Agency (2017) [2 сезон] BDRip 1080p [HEVC] 10 bit от OldGamer (RG RIPS CLUB)


Обложка Детективное агентство Дирка Джентли / Dirk Gently's Holistic Detective Agency (2017) [2 сезон] BDRip 1080p [HEVC] 10 bit от OldGamer (RG RIPS CLUB)
HEVC
10 bit
✂︎Сэмпл⤓︎Торрент🧲︎Магнет$Пожертвования

При перезаливке на другие сайты просьба указать автора и релиз-группу.


Год: 2017
Страна: США
Студия: AMC Studios, BBC America, Circle of Confusion, Ideate Media, IDW Entertainment, Netflix
Жанр: Фантастика, Детектив, Фэнтези, Боевик
Длительность: ~00:42:00 серия

Режиссер: Майкл Патрик Джэнн, Пако Кабесас, Тамра Дэвис
В ролях: Сэмюэл Барнетт, Элайджа Вуд, Ханна Маркс, Джейд Эшете, Мфо Коахо, Дастин Миллиган, Фиона Дуриф, Осрик Чау, Майкл Эклунд, Бентли

Описание: О приключениях эксцентричного «холистического детектива» Дирка Джентли и его вынужденного напарника Тодда Бротцмана, которые расследуют необычные дела.


Релиз-группа: RIPS CLUB
Исходник: Dirk Gentlys Holistic Detective Agency S02 1080p BluRay REMUX AVC DTS-HD MA 5 1-EPSiLON
Видео: 1920x1080, ~6986 Kbps
Аудио1: AC3, 6 ch, 384 Kbps - РусскийРусский, MVO (NewStudio)
Аудио2: AC3, 2 ch, 384 Kbps - РусскийРусский, MVO (LostFilm)
Аудио3: AC3, 6 ch, 640 Kbps - АнглийскийАнглийский
Субтитры: русские, английские

Как за несколько секунд удалить ненужные аудиодорожки и субтитры (Внимание! После удаления вы не сможете поддержать раздачу)


Лог (x265 info)x265 [info]: frame I: 260, Avg QP:18.36 kb/s: 17965.38
x265 [info]: frame P: 10302, Avg QP:19.60 kb/s: 14308.84
x265 [info]: frame B: 49692, Avg QP:21.43 kb/s: 5409.96
x265 [info]: Weighted P-Frames: Y:7.0% UV:6.0%
x265 [info]: Weighted B-Frames: Y:8.1% UV:6.0%
x265 [info]: encoded 60254 frames in 45414.84s (1.33 fps), 6985.63 kb/s, Avg QP:21.10
МедиаинфоОбщее
Уникальный идентификатор : 215981443031163507332134375101369824276 (0xA27C834A916CAE29946DA81AAF5E3414)
Полное имя : \\.\Dirk.Gentlys.Holistic.Detective.Agency.S02E05.Shapes.and.Colors.mkv
Формат : Matroska
Версия формата : Version 4
Размер файла : 2,46 Гбайт
Продолжительность : 41 мин. 53 с.
Общий битрейт : 8 399 Кбит/сек
Частота кадров : 23,976 кадра/сек
Название фильма : Dirk.Gentlys.Holistic.Detective.Agency.S02E05.Shapes.and.Colors / Цветные узоры
Имя трека/Расположение : 2
Кодирование выполнил : OldGamer
Тип содержимого : TV Show
Описание : Повторный допрос Сюзи наводит Шерлока и получившую значок помощника шерифа Фару на сына женщины. По ее словам, именно он имеет непосредственное отношение к магической стране и творящимся в реальном мире странностям.
Дата выпуска : 2017-11-11
Дата записи : 2017-11-11
Программа кодирования : mkvmerge v85.0 ('Shame For You') 64-bit
Библиотека кодирования : libebml v1.4.5 + libmatroska v1.7.1 / xvid4psp5
Обложка : Yes
Attachments : cover.jpg
ACTOR : Samuel Barnett, Элайджа Вуд, Hannah Marks, Jade Eshete, Fiona Dourif, Amanda Walsh, Mpho Koaho, Dustin Milligan, Tony Amendola, Izzie Steele, Tyler Labine, Agam Darshi, Джон Ханна, Lee Majdoub, Christopher Russell, Osric Chau, Michael Eklund, Viv Lea...
ARTIST : Samuel Barnett, Элайджа Вуд, Hannah Marks, Jade Eshete, Fiona Dourif, Amanda Walsh, Mpho Koaho, Dustin Milligan, Tony Amendola, Izzie Steele, Tyler Labine, Agam Darshi, Джон Ханна, Lee Majdoub, Christopher Russell, Osric Chau, Michael Eklund, Viv Lea...
DIRECTOR : Richard Laxton
EPISODE.PART_NUM : 5
GENRE : комедия, НФ и Фэнтези, криминал
LAW_RATING : TV-14
RATING : TV-14
SCREENPLAY_BY : Max Landis
SEASON.PART_NUM : 2
SUMMARY : Повторный допрос Сюзи наводит Шерлока и получившую значок помощника шерифа Фару на сына женщины. По ее словам, именно он имеет непосредственное отношение к магической стране и творящимся в реальном мире странностям.
SYNOPSIS : Повторный допрос Сюзи наводит Шерлока и получившую значок помощника шерифа Фару на сына женщины. По ее словам, именно он имеет непосредственное отношение к магической стране и творящимся в реальном мире странностям. Тем временем Дирк и его помощники неожиданно сталкиваются с мужчиной, который узнает мир, изображенный на обоях. Он добавляет еще несколько деталей в головоломку. Аманда же оказывается в жилище загадочной колдуньи и с ее помощью начинает менять историю.
WRITTEN_BY : Max Landis

Видео
Идентификатор : 1
Формат : HEVC
Формат/Информация : High Efficiency Video Coding
Профиль формата : Main 10@L4.1@High
Идентификатор кодека : V_MPEGH/ISO/HEVC
Продолжительность : 41 мин. 53 с.
Битрейт : 6 986 Кбит/сек
Ширина : 1 920 пикселей
Высота : 1 080 пикселей
Соотношение сторон дисплея : 16:9
Режим частоты кадров : Постоянный
Частота кадров : 23,976 (24000/1001) кадра/сек
Цветовое пространство : YUV
Цветовая субдискретизация : 4:2:0
Битовая глубина : 10 бит
Бит/(Пиксели*Кадры) : 0.141
Размер потока : 2,04 Гбайт (83%)
Заголовок : Dirk Gently`s Holistic Detective Agency S02E05 / Rip by OldGamer
Библиотека кодирования : x265 3.6+27-8787e8702:[Windows][GCC 13.3.0][64 bit] 10bit
Параметры библиотеки кодирования : cpuid=1111039 / frame-threads=4 / numa-pools=16 / wpp / no-pmode / no-pme / no-psnr / no-ssim / log-level=2 / input-csp=1 / input-res=1920x1080 / interlace=0 / total-frames=60254 / level-idc=41 / high-tier=1 / uhd-bd=0 / ref=5 / no-allow-non-conformance / no-repeat-headers / annexb / no-aud / no-eob / no-eos / no-hrd / info / hash=0 / temporal-layers=0 / open-gop / min-keyint=23 / keyint=240 / gop-lookahead=0 / bframes=16 / b-adapt=2 / b-pyramid / bframe-bias=0 / rc-lookahead=40 / lookahead-slices=0 / scenecut=40 / no-hist-scenecut / radl=0 / no-splice / no-intra-refresh / ctu=32 / min-cu-size=8 / rect / amp / max-tu-size=32 / tu-inter-depth=4 / tu-intra-depth=4 / limit-tu=1 / rdoq-level=2 / dynamic-rd=0.00 / no-ssim-rd / signhide / no-tskip / nr-intra=0 / nr-inter=0 / no-constrained-intra / no-strong-intra-smoothing / max-merge=5 / limit-refs=3 / no-limit-modes / me=3 / subme=7 / merange=57 / temporal-mvp / no-frame-dup / no-hme / weightp / weightb / no-analyze-src-pics / deblock=-2:-2 / no-sao / no-sao-non-deblock / rd=6 / selective-sao=0 / no-early-skip / no-rskip / no-fast-intra / no-tskip-fast / no-cu-lossless / b-intra / no-splitrd-skip / rdpenalty=0 / psy-rd=2.00 / psy-rdoq=1.00 / no-rd-refine / no-lossless / cbqpoffs=0 / crqpoffs=0 / rc=crf / crf=21.2 / qcomp=0.60 / qpstep=4 / stats-write=0 / stats-read=0 / vbv-maxrate=50000 / vbv-bufsize=50000 / vbv-init=0.9 / min-vbv-fullness=50.0 / max-vbv-fullness=80.0 / crf-max=0.0 / crf-min=0.0 / ipratio=1.40 / pbratio=1.30 / aq-mode=1 / aq-strength=1.00 / no-cutree / zone-count=1 / zones: / start-frame=59460 / end-frame=60254 / qp=36 / no-strict-cbr / qg-size=32 / no-rc-grain / qpmax=69 / qpmin=0 / no-const-vbv / sar=1 / overscan=0 / videoformat=5 / range=0 / colorprim=2 / transfer=2 / colormatrix=2 / chromaloc=0 / display-window=0 / cll=0,0 / min-luma=0 / max-luma=1023 / log2-max-poc-lsb=8 / vui-timing-info / vui-hrd-info / slices=1 / no-opt-qp-pps / no-opt-ref-list-length-pps / no-multi-pass-opt-rps / scenecut-bias=0.00 / no-opt-cu-delta-qp / no-aq-motion / no-hdr10 / no-hdr10-opt / no-dhdr10-opt / no-idr-recovery-sei / analysis-reuse-level=0 / analysis-save-reuse-level=0 / analysis-load-reuse-level=0 / scale-factor=0 / refine-intra=0 / refine-inter=0 / refine-mv=1 / refine-ctu-distortion=0 / no-limit-sao / ctu-info=0 / no-lowpass-dct / refine-analysis-type=0 / copy-pic=1 / max-ausize-factor=1.0 / no-dynamic-refine / no-single-sei / no-hevc-aq / no-svt / no-field / qp-adaptation-range=1.00 / scenecut-aware-qp=0conformance-window-offsets / right=0 / bottom=0 / decoder-max-rate=0 / no-vbv-live-multi-pass / no-mcstf / no-sbrc
Язык : Английский
По умолчанию : Да
Принудительно : Нет

Аудио #1
Идентификатор : 2
Формат : AC-3
Формат/Информация : Audio Coding 3
Коммерческое название : Dolby Digital
Идентификатор кодека : A_AC3
Продолжительность : 41 мин. 53 с.
Вид битрейта : Постоянный
Битрейт : 384 Кбит/сек
Канал(-ы) : 6 каналов
Расположение каналов : L R C LFE Ls Rs
Частота дискретизации : 48,0 КГц
Частота кадров : 31,250 кадров/сек (1536 SPF)
Метод сжатия : С потерями
Размер потока : 115 Мбайт (5%)
Заголовок : MVO (NewStudio)
Язык : Русский
Вид сервиса : Complete Main
По умолчанию : Да
Принудительно : Нет
Нормализация звука речи : -31 dB
cmixlev : -4.5 dB
surmixlev : -6 dB
dialnorm_Average : -31 dB
dialnorm_Minimum : -31 dB
dialnorm_Maximum : -31 dB

Аудио #2
Идентификатор : 3
Формат : AC-3
Формат/Информация : Audio Coding 3
Коммерческое название : Dolby Digital
Идентификатор кодека : A_AC3
Продолжительность : 41 мин. 53 с.
Вид битрейта : Постоянный
Битрейт : 384 Кбит/сек
Канал(-ы) : 2 канала
Расположение каналов : L R
Частота дискретизации : 48,0 КГц
Частота кадров : 31,250 кадров/сек (1536 SPF)
Метод сжатия : С потерями
Размер потока : 115 Мбайт (5%)
Заголовок : MVO (LostFilm)
Язык : Русский
Вид сервиса : Complete Main
По умолчанию : Нет
Принудительно : Нет
Нормализация звука речи : -31 dB
dialnorm_Average : -31 dB
dialnorm_Minimum : -31 dB
dialnorm_Maximum : -31 dB

Аудио #3
Идентификатор : 4
Формат : AC-3
Формат/Информация : Audio Coding 3
Коммерческое название : Dolby Digital
Идентификатор кодека : A_AC3
Продолжительность : 41 мин. 53 с.
Вид битрейта : Постоянный
Битрейт : 640 Кбит/сек
Канал(-ы) : 6 каналов
Расположение каналов : L R C LFE Ls Rs
Частота дискретизации : 48,0 КГц
Частота кадров : 31,250 кадров/сек (1536 SPF)
Метод сжатия : С потерями
Размер потока : 192 Мбайт (8%)
Язык : Английский
Вид сервиса : Complete Main
По умолчанию : Нет
Принудительно : Нет
Нормализация звука речи : -27 dB
compr : -0.28 dB
cmixlev : -3.0 dB
surmixlev : -3 dB
mixlevel : 285 dB
roomtyp : Small
dialnorm_Average : -27 dB
dialnorm_Minimum : -27 dB
dialnorm_Maximum : -27 dB

Текст #1
Идентификатор : 5
Формат : UTF-8
Идентификатор кодека : S_TEXT/UTF8
Идентификатор кодека/Информация : UTF-8 Plain Text
Продолжительность : 41 мин. 5 с.
Битрейт : 124 бит/сек
Частота кадров : 0,332 кадр/сек
Число элементов : 818
Размер потока : 37,6 КиБ (0%)
Язык : Русский
По умолчанию : Нет
Принудительно : Нет

Текст #2
Идентификатор : 6
Формат : UTF-8
Идентификатор кодека : S_TEXT/UTF8
Идентификатор кодека/Информация : UTF-8 Plain Text
Продолжительность : 41 мин. 22 с.
Битрейт : 81 бит/сек
Частота кадров : 0,390 кадр/сек
Число элементов : 969
Размер потока : 24,7 КиБ (0%)
Язык : Английский
По умолчанию : Нет
Принудительно : Нет

Меню
00:00:00.000 : en:Chapter 1
00:08:18.206 : en:Chapter 2
00:14:54.727 : en:Chapter 3
00:24:17.790 : en:Chapter 4
00:32:10.137 : en:Chapter 5
00:41:21.771 : en:Chapter 6
Загрузка...Cкриншот1 Детективное агентство Дирка Джентли / Dirk Gently's Holistic Detective Agency (2017) [2 сезон] BDRip 1080p [HEVC] 10 bit от OldGamer (RG RIPS CLUB)Загрузка...Cкриншот2 Детективное агентство Дирка Джентли / Dirk Gently's Holistic Detective Agency (2017) [2 сезон] BDRip 1080p [HEVC] 10 bit от OldGamer (RG RIPS CLUB)Загрузка...Cкриншот3 Детективное агентство Дирка Джентли / Dirk Gently's Holistic Detective Agency (2017) [2 сезон] BDRip 1080p [HEVC] 10 bit от OldGamer (RG RIPS CLUB)Загрузка...Cкриншот4 Детективное агентство Дирка Джентли / Dirk Gently's Holistic Detective Agency (2017) [2 сезон] BDRip 1080p [HEVC] 10 bit от OldGamer (RG RIPS CLUB)
Поблагодарили: 1han-nik
Файлы: 10
  • Dirk.Gently's.S02.BDRip-HEVC.1080p
    • 2.1 ГБDirk.Gentlys.Holistic.Detective.Agency.S02E01.Space.Rabbit.mkv
    • 2.25 ГБDirk.Gentlys.Holistic.Detective.Agency.S02E02.Fans.of.Wet.Circles.mkv
    • 2.32 ГБDirk.Gentlys.Holistic.Detective.Agency.S02E03.Two.Broken.Fingers.mkv
    • 2.74 ГБDirk.Gentlys.Holistic.Detective.Agency.S02E04.The.House.Within.the.House.mkv
    • 2.46 ГБDirk.Gentlys.Holistic.Detective.Agency.S02E05.Shapes.and.Colors.mkv
    • 2.69 ГБDirk.Gentlys.Holistic.Detective.Agency.S02E06.Girl.Power.mkv
    • 3.23 ГБDirk.Gentlys.Holistic.Detective.Agency.S02E07.That.Is.Not.Miami.mkv
    • 2.68 ГБDirk.Gentlys.Holistic.Detective.Agency.S02E08.Little.Guy.Black.Hair.mkv
    • 2.23 ГБDirk.Gentlys.Holistic.Detective.Agency.S02E09.Trouble.Is.Bad.mkv
    • 1.86 ГБDirk.Gentlys.Holistic.Detective.Agency.S02E10.Nice.Jacket.mkv

Рейтинги КП и IMDB, кнопки "Раздайте, пожалуйста" и "Спасибо", а также мультитрекерная статистика доступны только зарегистрированным/авторизованным пользователям!

OldGamer
81660(10) 24.57 ГБ

💬︎ Комментарии

Добавление комментариев доступно только зарегистрированным/авторизованным пользователям.