Чат

⚫︎
Список изменений сайта - https://rips.club/changelog.html (обновлен 24.05.2024)
    Онлайн (за 10 мин.): 0
    Отправка сообщений доступна только зарегистрированным/авторизованным пользователям.

    🎥︎Волшебный кристалл / Mo fei cui / Magic Crystal (1986) [GBR Transfer Remastered] BDRip 1080p [HEVC] 10 bit от OldGamer (RG RIPS CLUB)


    Обложка Волшебный кристалл / Mo fei cui / Magic Crystal (1986) [GBR Transfer Remastered] BDRip 1080p [HEVC] 10 bit от OldGamer (RG RIPS CLUB)
    HEVC
    10 bit
    ✂︎Сэмпл⤓︎Торрент🧲︎Магнет$Пожертвования

    При перезаливке на другие сайты просьба указать автора и релиз-группу.


    Год: 1986
    Страна: Гонконг
    Студия: Long Shong Pictures, Movie Impact Limited, Win's Movie Productions Ltd.
    Жанр: Фантастика, Боевик, Комедия
    Длительность: 01:35:03

    Режиссер: Вон Цзин
    В ролях: Энди Лау, Синтия Ротрок, Чань Пак-Чун, Шарла Чун, Бин Бин, Вон Цзин, Макс Мок, Филлип Ко, Ши Кень, Ричард Нортон

    Описание: Частному детективу приходится ввязаться в самый центр международных разборок с участием Интерпола и даже КГБ, замешанных вокруг некоего волшебного кристалла, который содержит в себе что-то ценное. Но открыть, что же за ценность он собой представляет, удаётся лишь племяннику детектива — маленькому мальчику, понявшему, что кристалл — живое существо. И более того — пришелец с другой планеты, обладающий гипнозом.


    Релиз-группа: RIPS CLUB
    Исходник: Blu-Ray Remux 1080p (rutracker)
    Видео: 1920x1036, ~14.2 Mbps
    Аудио1: AC3, 2 ch, 448 Kbps - РусскийРусский, MVO (Марат Омаров, Любовь Тювилина, Михаил Яроцкий, Дмитрий Есарев, Переводман)
    Аудио2: AC3, 2 ch, 192 Kbps - РусскийРусский, AVO (Сергей Визгунов)
    Аудио3: AC3, 2 ch, 320 Kbps - АнглийскийАнглийский, DUB
    Аудио4: AC3, 2 ch, 320 Kbps - КитайскийКитайский
    Субтитры: русские, английские

    Как за несколько секунд удалить ненужные аудиодорожки и субтитры (Внимание! После удаления вы не сможете поддержать раздачу)


    Лог (x265 info)x265 [info]: frame I: 576, Avg QP:18.18 kb/s: 29880.71
    x265 [info]: frame P: 27513, Avg QP:19.52 kb/s: 23087.18
    x265 [info]: frame B: 108668, Avg QP:21.30 kb/s: 11927.98
    x265 [info]: Weighted P-Frames: Y:7.7% UV:4.8%
    x265 [info]: Weighted B-Frames: Y:4.8% UV:2.4%
    x265 [info]: encoded 136757 frames in 134141.90s (1.02 fps), 14248.62 kb/s, Avg QP:20.93
    МедиаинфоОбщее
    Уникальный идентификатор : 125578843934128258827844440727328925376 (0x5E799B080A2D46E2C38964F1DF9C26C0)
    Полное имя : \\.\Волшебный.кристалл.Mo.fei.cui.1986.GBR.Transfer.Remastered.BDRip-HEVC.1080p.mkv
    Формат : Matroska
    Версия формата : Version 4
    Размер файла : 10,3 Гбайт
    Продолжительность : 1 ч. 35 мин.
    Общий битрейт : 15,6 Мбит/сек
    Частота кадров : 23,976 кадра/сек
    Название фильма : Волшебный кристалл / Волшебный кристалл
    Кодирование выполнил : OldGamer
    Тип содержимого : Movie
    Дата выпуска : 1986-09-17
    Дата записи : 1986-09-17
    Программа кодирования : mkvmerge v83.0 ('Circle Of Friends') 64-bit
    Библиотека кодирования : libebml v1.4.5 + libmatroska v1.7.1 / xvid4psp5
    Обложка : Yes
    Attachments : cover.jpg
    ACTOR : Andy Lau, Cynthia Rothrock, Chan Pak-Cheung, Bin Bin, Wong Jing, Max Mok Siu-Chung, Sharla Cheung Man, Phillip Ko, Richard Norton, Sek Kin, Shum Wai, Paul Chung Fat, Hung San-Nam, Shing Fui-On, Wong Mei-Mei, Pauline Kwan, Tony Leung Siu-Hung, Eddie M...
    ARTIST : Andy Lau, Cynthia Rothrock, Chan Pak-Cheung, Bin Bin, Wong Jing, Max Mok Siu-Chung, Sharla Cheung Man, Phillip Ko, Richard Norton, Sek Kin, Shum Wai, Paul Chung Fat, Hung San-Nam, Shing Fui-On, Wong Mei-Mei, Pauline Kwan, Tony Leung Siu-Hung, Eddie M...
    DIRECTOR : Wong Jing
    GENRE : комедия, фэнтези, боевик, приключения
    PRODUCER : Wallace Cheung
    PRODUCTION_STUDIO : Long Shong Pictures Ltd.
    SCREENPLAY_BY : Wong Jing
    SYNOPSIS : Энди Лау в этом приключенческом боевике-комедии играет роль частного детектива, которому волею случая приходится ввязаться в самый центр международных разборок с участием Интерпола и даже КГБ, замешанных вокруг некоего магического кристалла, который очевидно содержит в себе что-то ценное. Но открыть, что же за ценность он собой представляет, удается лишь племяннику Энди - маленькому мальчику, понявшему, что кристалл - живое существо, более того, пришелец с другой планеты, обладающий даром гипноза.
    WRITTEN_BY : Wong Jing

    Видео
    Идентификатор : 1
    Формат : HEVC
    Формат/Информация : High Efficiency Video Coding
    Профиль формата : Main 10@L4.1@High
    Идентификатор кодека : V_MPEGH/ISO/HEVC
    Продолжительность : 1 ч. 35 мин.
    Битрейт : 14,2 Мбит/сек
    Ширина : 1 920 пикселей
    Высота : 1 036 пикселей
    Соотношение сторон дисплея : 1,85:1
    Режим частоты кадров : Постоянный
    Частота кадров : 23,976 (24000/1001) кадра/сек
    Цветовое пространство : YUV
    Цветовая субдискретизация : 4:2:0
    Битовая глубина : 10 бит
    Бит/(Пиксели*Кадры) : 0.299
    Размер потока : 9,46 Гбайт (92%)
    Заголовок : Magic Crystal / Rip by OldGamer
    Библиотека кодирования : x265 3.5+110-8ee01d45b:[Windows][GCC 13.2.0][64 bit] 10bit
    Параметры библиотеки кодирования : cpuid=1111039 / frame-threads=3 / numa-pools=8 / wpp / no-pmode / no-pme / no-psnr / no-ssim / log-level=2 / input-csp=1 / input-res=1920x1036 / interlace=0 / total-frames=136757 / level-idc=41 / high-tier=1 / uhd-bd=0 / ref=5 / no-allow-non-conformance / no-repeat-headers / annexb / no-aud / no-eob / no-eos / no-hrd / info / hash=0 / temporal-layers=0 / open-gop / min-keyint=23 / keyint=240 / gop-lookahead=0 / bframes=16 / b-adapt=2 / b-pyramid / bframe-bias=0 / rc-lookahead=60 / lookahead-slices=0 / scenecut=40 / no-hist-scenecut / radl=0 / no-splice / no-intra-refresh / ctu=32 / min-cu-size=8 / rect / amp / max-tu-size=32 / tu-inter-depth=4 / tu-intra-depth=4 / limit-tu=1 / rdoq-level=2 / dynamic-rd=0.00 / no-ssim-rd / signhide / no-tskip / nr-intra=0 / nr-inter=0 / no-constrained-intra / no-strong-intra-smoothing / max-merge=5 / limit-refs=3 / no-limit-modes / me=3 / subme=7 / merange=57 / temporal-mvp / no-frame-dup / no-hme / weightp / weightb / no-analyze-src-pics / deblock=-2:-2 / no-sao / no-sao-non-deblock / rd=6 / selective-sao=0 / no-early-skip / no-rskip / no-fast-intra / no-tskip-fast / no-cu-lossless / b-intra / no-splitrd-skip / rdpenalty=0 / psy-rd=2.00 / psy-rdoq=1.00 / no-rd-refine / no-lossless / cbqpoffs=0 / crqpoffs=0 / rc=crf / crf=19.7 / qcomp=0.70 / qpstep=4 / stats-write=0 / stats-read=0 / vbv-maxrate=50000 / vbv-bufsize=50000 / vbv-init=0.9 / min-vbv-fullness=50.0 / max-vbv-fullness=80.0 / crf-max=0.0 / crf-min=0.0 / ipratio=1.40 / pbratio=1.30 / aq-mode=1 / aq-strength=1.00 / no-cutree / zone-count=1 / zones: / start-frame=136756 / end-frame=136757 / qp=36 / no-strict-cbr / qg-size=32 / no-rc-grain / qpmax=69 / qpmin=0 / no-const-vbv / sar=1 / overscan=0 / videoformat=5 / range=0 / colorprim=2 / transfer=2 / colormatrix=2 / chromaloc=0 / display-window=0 / cll=0,0 / min-luma=0 / max-luma=1023 / log2-max-poc-lsb=8 / vui-timing-info / vui-hrd-info / slices=1 / no-opt-qp-pps / no-opt-ref-list-length-pps / no-multi-pass-opt-rps / scenecut-bias=0.00 / no-opt-cu-delta-qp / no-aq-motion / no-hdr10 / no-hdr10-opt / no-dhdr10-opt / no-idr-recovery-sei / analysis-reuse-level=0 / analysis-save-reuse-level=0 / analysis-load-reuse-level=0 / scale-factor=0 / refine-intra=0 / refine-inter=0 / refine-mv=1 / refine-ctu-distortion=0 / no-limit-sao / ctu-info=0 / no-lowpass-dct / refine-analysis-type=0 / copy-pic=1 / max-ausize-factor=1.0 / no-dynamic-refine / no-single-sei / no-hevc-aq / no-svt / no-field / qp-adaptation-range=1.00 / scenecut-aware-qp=0conformance-window-offsets / right=0 / bottom=0 / decoder-max-rate=0 / no-vbv-live-multi-pass / no-mcstf / no-sbrc
    Язык : Английский
    По умолчанию : Да
    Принудительно : Нет

    Аудио #1
    Идентификатор : 2
    Формат : AC-3
    Формат/Информация : Audio Coding 3
    Коммерческое название : Dolby Digital
    Идентификатор кодека : A_AC3
    Продолжительность : 1 ч. 35 мин.
    Вид битрейта : Постоянный
    Битрейт : 448 Кбит/сек
    Канал(-ы) : 2 канала
    Расположение каналов : L R
    Частота дискретизации : 48,0 КГц
    Частота кадров : 31,250 кадров/сек (1536 SPF)
    Метод сжатия : С потерями
    Размер потока : 305 Мбайт (3%)
    Заголовок : MVO (Марат Омаров, Любовь Тювилина, Михаил Яроцкий, Дмитрий Есарев, Переводман)
    Язык : Русский
    Вид сервиса : Complete Main
    По умолчанию : Да
    Принудительно : Нет
    Нормализация звука речи : -31 dB
    compr : -0.28 dB
    dsurmod : Not Dolby Surround encoded
    ltrtcmixlev : 3.0 dB
    ltrtsurmixlev : 3.0 dB
    lorocmixlev : 3.0 dB
    lorosurmixlev : 3.0 dB
    dialnorm_Average : -31 dB
    dialnorm_Minimum : -31 dB
    dialnorm_Maximum : -31 dB

    Аудио #2
    Идентификатор : 3
    Формат : AC-3
    Формат/Информация : Audio Coding 3
    Коммерческое название : Dolby Digital
    Идентификатор кодека : A_AC3
    Продолжительность : 1 ч. 35 мин.
    Вид битрейта : Постоянный
    Битрейт : 192 Кбит/сек
    Канал(-ы) : 2 канала
    Расположение каналов : L R
    Частота дискретизации : 48,0 КГц
    Частота кадров : 31,250 кадров/сек (1536 SPF)
    Метод сжатия : С потерями
    Размер потока : 131 Мбайт (1%)
    Заголовок : AVO (Сергей Визгунов)
    Язык : Русский
    Вид сервиса : Complete Main
    По умолчанию : Нет
    Принудительно : Нет
    Нормализация звука речи : -31 dB
    compr : -0.28 dB
    dsurmod : Not Dolby Surround encoded
    ltrtcmixlev : 3.0 dB
    ltrtsurmixlev : 3.0 dB
    lorocmixlev : 3.0 dB
    lorosurmixlev : 3.0 dB
    dialnorm_Average : -31 dB
    dialnorm_Minimum : -31 dB
    dialnorm_Maximum : -31 dB

    Аудио #3
    Идентификатор : 4
    Формат : AC-3
    Формат/Информация : Audio Coding 3
    Коммерческое название : Dolby Digital
    Идентификатор кодека : A_AC3
    Продолжительность : 1 ч. 35 мин.
    Вид битрейта : Постоянный
    Битрейт : 320 Кбит/сек
    Канал(-ы) : 2 канала
    Расположение каналов : L R
    Частота дискретизации : 48,0 КГц
    Частота кадров : 31,250 кадров/сек (1536 SPF)
    Метод сжатия : С потерями
    Размер потока : 218 Мбайт (2%)
    Заголовок : DUB
    Язык : Английский
    Вид сервиса : Complete Main
    По умолчанию : Нет
    Принудительно : Нет
    Нормализация звука речи : -27 dB
    compr : -0.28 dB
    dsurmod : Not Dolby Surround encoded
    mixlevel : 285 dB
    roomtyp : Small
    dialnorm_Average : -27 dB
    dialnorm_Minimum : -27 dB
    dialnorm_Maximum : -27 dB

    Аудио #4
    Идентификатор : 5
    Формат : AC-3
    Формат/Информация : Audio Coding 3
    Коммерческое название : Dolby Digital
    Идентификатор кодека : A_AC3
    Продолжительность : 1 ч. 35 мин.
    Вид битрейта : Постоянный
    Битрейт : 320 Кбит/сек
    Канал(-ы) : 2 канала
    Расположение каналов : L R
    Частота дискретизации : 48,0 КГц
    Частота кадров : 31,250 кадров/сек (1536 SPF)
    Метод сжатия : С потерями
    Размер потока : 218 Мбайт (2%)
    Заголовок : Original Cantonese
    Язык : Китайский
    Вид сервиса : Complete Main
    По умолчанию : Нет
    Принудительно : Нет
    Нормализация звука речи : -27 dB
    compr : -0.28 dB
    dynrng : -8.70 dB
    dsurmod : Not Dolby Surround encoded
    mixlevel : 285 dB
    roomtyp : Small
    dialnorm_Average : -27 dB
    dialnorm_Minimum : -27 dB
    dialnorm_Maximum : -27 dB

    Текст #1
    Идентификатор : 6
    Формат : UTF-8
    Идентификатор кодека : S_TEXT/UTF8
    Идентификатор кодека/Информация : UTF-8 Plain Text
    Продолжительность : 1 ч. 33 мин.
    Битрейт : 70 бит/сек
    Частота кадров : 0,183 кадр/сек
    Число элементов : 1022
    Размер потока : 47,9 КиБ (0%)
    Заголовок : Russian by Марат Омаров
    Язык : Русский
    По умолчанию : Нет
    Принудительно : Нет

    Текст #2
    Идентификатор : 7
    Формат : UTF-8
    Идентификатор кодека : S_TEXT/UTF8
    Идентификатор кодека/Информация : UTF-8 Plain Text
    Продолжительность : 1 ч. 34 мин.
    Битрейт : 42 бит/сек
    Частота кадров : 0,191 кадр/сек
    Число элементов : 1085
    Размер потока : 29,2 КиБ (0%)
    Заголовок : English
    Язык : Английский
    По умолчанию : Нет
    Принудительно : Нет

    Меню
    00:00:00.000 : en:Chapter 01
    00:07:44.922 : en:Chapter 02
    00:14:19.149 : en:Chapter 03
    00:21:28.161 : en:Chapter 04
    00:28:16.069 : en:Chapter 05
    00:35:04.602 : en:Chapter 06
    00:42:47.523 : en:Chapter 07
    00:48:29.906 : en:Chapter 08
    00:55:07.595 : en:Chapter 09
    01:10:46.367 : en:Chapter 10
    01:18:17.526 : en:Chapter 11
    01:25:09.354 : en:Chapter 12
    01:35:04.824 : en:Chapter 13
    Загрузка...Cкриншот1 Волшебный кристалл / Mo fei cui / Magic Crystal (1986) [GBR Transfer Remastered] BDRip 1080p [HEVC] 10 bit от OldGamer (RG RIPS CLUB)Загрузка...Cкриншот2 Волшебный кристалл / Mo fei cui / Magic Crystal (1986) [GBR Transfer Remastered] BDRip 1080p [HEVC] 10 bit от OldGamer (RG RIPS CLUB)Загрузка...Cкриншот3 Волшебный кристалл / Mo fei cui / Magic Crystal (1986) [GBR Transfer Remastered] BDRip 1080p [HEVC] 10 bit от OldGamer (RG RIPS CLUB)Загрузка...Cкриншот4 Волшебный кристалл / Mo fei cui / Magic Crystal (1986) [GBR Transfer Remastered] BDRip 1080p [HEVC] 10 bit от OldGamer (RG RIPS CLUB)
    Поблагодарили: 7AlexsBond, and50, Antilord90, Askarida666, indicom, Kiran, Niflung
    Файлы: 1
    • Волшебный.кристалл.Mo.fei.cui.1986.GBR.Transfer.Remastered.BDRip-HEVC.1080p.mkv

    Рейтинги КП и IMDB, кнопки "Раздайте, пожалуйста" и "Спасибо", а также мультитрекерная статистика доступны только зарегистрированным/авторизованным пользователям!

    OldGamer
    11076010.34 ГБ

    💬︎ Комментарии

    Добавление комментариев доступно только зарегистрированным/авторизованным пользователям.