Чат

⚫︎
Список изменений сайта - https://rips.club/changelog.html (обновлен 24.05.2024)
    Онлайн (за 10 мин.): 0
    Отправка сообщений доступна только зарегистрированным/авторизованным пользователям.

    🎥︎🎥︎Эммануэль: Квадрология / Emmanuelle: Quadrilogy (1974-1984) BDRip 1080p [HEVC] 10 bit от OldGamer (RG RIPS CLUB)


    Обложка Эммануэль: Квадрология / Emmanuelle: Quadrilogy (1974-1984) BDRip 1080p [HEVC] 10 bit от OldGamer (RG RIPS CLUB)
    HEVC
    10 bit
    ⤓︎Торрент🧲︎Магнет$Пожертвования

    При перезаливке на другие сайты просьба указать автора и релиз-группу.


    Год: 1974-1984
    Страна: Франция
    Жанр: Драма, Мелодрама


    Релиз-группа: RIPS CLUB
    1. Эммануэль / Emmanuelle (1974) BDRip 1080p [HEVC] 10 bit от OldGamer
    Обложка Эммануэль / Emmanuelle (1974) BDRip 1080p [HEVC] 10 bit от OldGamer
    HEVC
    10 bit
    ✂︎Сэмпл
    Год: 1974
    Страна: Франция
    Студия: Orphée Productions, Trinacra Films
    Жанр: Драма, Мелодрама
    Длительность: 01:34:13

    Режиссер: Жюст Жэкин
    В ролях: Сильвия Кристель, Ален Кюни, Марика Грин, Даниэль Сарки, Жанна Коллетен, Кристин Буассон, Саманта, Габриэль Бриан, Грегори

    Описание: Первый фильм о жрице любви Эммануэль. Сюжет служит канвой для описания сексуальных похождений героини в Юго-Восточной Азии. Муж Эммануэль, работающий в посольстве, поощряет в ней стремление к раскрепощённости в сексе, благо весь дипломатический корпус, особенно женщины, изнывают от скуки. За её воспитание берётся уже пожилой специалист. Эммануэль делает большие успехи в искусстве любви.


    Исходник: Blu-Ray Remux 1080p (kinozal)
    Видео: 1764x1080, ~8316 Kbps
    Аудио1: AC3, 2 ch, 256 Kbps - РусскийРусский, MVO (Twister)
    Аудио2: AC3, 2 ch, 192 Kbps - РусскийРусский, DVO (НТВ)
    Аудио3: AC3, 2 ch, 192 Kbps - РусскийРусский, AVO (Леонид Володарский)
    Аудио4: AC3, 2 ch, 192 Kbps - РусскийРусский, AVO (Павел Прямостанов)
    Аудио5: AC3, 2 ch, 192 Kbps - РусскийРусский, AVO (Юрий Живов)
    Аудио6: AC3, 2 ch, 192 Kbps - РусскийРусский, AVO (Владимир Сонькин)
    Аудио7: AC3, 2 ch, 192 Kbps - РусскийРусский, AVO (Андрей Дольский)
    Аудио8: AC3, 2 ch, 192 Kbps - РусскийРусский, VO (Неизвестный с VHS)
    Аудио9: AC3, 2 ch, 640 Kbps - АнглийскийАнглийский, DUB
    Аудио10: AC3, 2 ch, 640 Kbps - ФранцузскийФранцузский
    Субтитры: русские

    Как за несколько секунд удалить ненужные аудиодорожки и субтитры (Внимание! После удаления вы не сможете поддержать раздачу)


    Лог (x265 info)x265 [info]: frame I: 569, Avg QP:17.63 kb/s: 22910.03
    x265 [info]: frame P: 28821, Avg QP:19.05 kb/s: 16223.55
    x265 [info]: frame B: 106291, Avg QP:21.34 kb/s: 6092.33
    x265 [info]: Weighted P-Frames: Y:9.2% UV:6.0%
    x265 [info]: Weighted B-Frames: Y:5.7% UV:3.1%
    x265 [info]: encoded 135681 frames in 111671.68s (1.21 fps), 8314.91 kb/s, Avg QP:20.84
    МедиаинфоОбщее
    Уникальный идентификатор : 312955071907509788012605247446946905573 (0xEB70F455186EC5048983FCDE96AB7DE5)
    Полное имя : \\.\01.Эммануэль.Emmanuelle.1974.BDRip-HEVC.1080p.mkv
    Формат : Matroska
    Версия формата : Version 4
    Размер файла : 7,37 Гбайт
    Продолжительность : 1 ч. 34 мин.
    Общий битрейт : 11,2 Мбит/сек
    Частота кадров : 24,000 кадра/сек
    Название фильма : Эммануэль
    Кодирование выполнил : OldGamer
    Тип содержимого : Movie
    Описание : «X was never like this.»
    Дата выпуска : 1974-06-25
    Дата записи : 1974-06-25
    Дата кодирования : 2024-06-21 02:15:57 UTC
    Программа кодирования : mkvmerge v85.0 ('Shame For You') 64-bit
    Библиотека кодирования : libebml v1.4.5 + libmatroska v1.7.1 / xvid4psp5
    Обложка : Yes
    Attachments : cover.jpg / cover.jpg
    ACTOR : Сильвия Кристель, Alain Cuny, Marika Green, Daniel Sarky, Jeanne Colletin, Christine Boisson, Gabriel Briand
    ARTIST : Сильвия Кристель, Alain Cuny, Marika Green, Daniel Sarky, Jeanne Colletin, Christine Boisson, Gabriel Briand
    DIRECTOR : Just Jaeckin
    GENRE : драма, мелодрама
    LAW_RATING : NR
    PRODUCER : Yves Rousset-Rouard
    PRODUCTION_STUDIO : Trinacra Films
    RATING : NR
    SUMMARY : «X was never like this.»
    SYNOPSIS : Первый фильм о жрице любви Эммануэль. Сюжет служит канвой для описания сексуальных похождений героини в Юго-Восточной Азии.Муж Эммануэль, работающий в посольстве, поощряет в ней стремление к раскрепощённости в сексе, благо весь дипломатический корпус, особенно женщины, изнывают от скуки. За её воспитание берётся уже пожилой специалист. Эммануэль делает большие успехи в искусстве любви.

    Видео
    Идентификатор : 1
    Формат : HEVC
    Формат/Информация : High Efficiency Video Coding
    Профиль формата : Main 10@L4.1@High
    Идентификатор кодека : V_MPEGH/ISO/HEVC
    Продолжительность : 1 ч. 34 мин.
    Битрейт : 8 316 Кбит/сек
    Ширина : 1 764 пикселя
    Высота : 1 080 пикселей
    Соотношение сторон дисплея : 16:10
    Режим частоты кадров : Постоянный
    Частота кадров : 24,000 кадра/сек
    Цветовое пространство : YUV
    Цветовая субдискретизация : 4:2:0
    Битовая глубина : 10 бит
    Бит/(Пиксели*Кадры) : 0.182
    Размер потока : 5,47 Гбайт (74%)
    Заголовок : Emmanuelle / Rip by OldGamer
    Библиотека кодирования : x265 3.6+27-8787e8702:[Windows][GCC 13.3.0][64 bit] 10bit
    Параметры библиотеки кодирования : cpuid=1111039 / frame-threads=3 / numa-pools=8 / wpp / no-pmode / no-pme / no-psnr / no-ssim / log-level=2 / input-csp=1 / input-res=1764x1080 / interlace=0 / total-frames=135681 / level-idc=41 / high-tier=1 / uhd-bd=0 / ref=5 / no-allow-non-conformance / no-repeat-headers / annexb / no-aud / no-eob / no-eos / no-hrd / info / hash=0 / temporal-layers=0 / open-gop / min-keyint=23 / keyint=240 / gop-lookahead=0 / bframes=16 / b-adapt=2 / b-pyramid / bframe-bias=0 / rc-lookahead=60 / lookahead-slices=0 / scenecut=40 / no-hist-scenecut / radl=0 / no-splice / no-intra-refresh / ctu=32 / min-cu-size=8 / rect / amp / max-tu-size=32 / tu-inter-depth=4 / tu-intra-depth=4 / limit-tu=1 / rdoq-level=2 / dynamic-rd=0.00 / no-ssim-rd / signhide / no-tskip / nr-intra=0 / nr-inter=0 / no-constrained-intra / no-strong-intra-smoothing / max-merge=5 / limit-refs=3 / no-limit-modes / me=3 / subme=7 / merange=57 / temporal-mvp / no-frame-dup / no-hme / weightp / weightb / no-analyze-src-pics / deblock=-2:-2 / no-sao / no-sao-non-deblock / rd=6 / selective-sao=0 / no-early-skip / no-rskip / no-fast-intra / no-tskip-fast / no-cu-lossless / b-intra / no-splitrd-skip / rdpenalty=0 / psy-rd=2.00 / psy-rdoq=1.00 / no-rd-refine / no-lossless / cbqpoffs=0 / crqpoffs=0 / rc=crf / crf=20.0 / qcomp=0.60 / qpstep=4 / stats-write=0 / stats-read=0 / vbv-maxrate=50000 / vbv-bufsize=50000 / vbv-init=0.9 / min-vbv-fullness=50.0 / max-vbv-fullness=80.0 / crf-max=0.0 / crf-min=0.0 / ipratio=1.40 / pbratio=1.30 / aq-mode=1 / aq-strength=1.00 / no-cutree / zone-count=1 / zones: / start-frame=134422 / end-frame=135681 / qp=36 / no-strict-cbr / qg-size=32 / no-rc-grain / qpmax=69 / qpmin=0 / no-const-vbv / sar=1 / overscan=0 / videoformat=5 / range=0 / colorprim=2 / transfer=2 / colormatrix=2 / chromaloc=0 / display-window=0 / cll=0,0 / min-luma=0 / max-luma=1023 / log2-max-poc-lsb=8 / vui-timing-info / vui-hrd-info / slices=1 / no-opt-qp-pps / no-opt-ref-list-length-pps / no-multi-pass-opt-rps / scenecut-bias=0.00 / no-opt-cu-delta-qp / no-aq-motion / no-hdr10 / no-hdr10-opt / no-dhdr10-opt / no-idr-recovery-sei / analysis-reuse-level=0 / analysis-save-reuse-level=0 / analysis-load-reuse-level=0 / scale-factor=0 / refine-intra=0 / refine-inter=0 / refine-mv=1 / refine-ctu-distortion=0 / no-limit-sao / ctu-info=0 / no-lowpass-dct / refine-analysis-type=0 / copy-pic=1 / max-ausize-factor=1.0 / no-dynamic-refine / no-single-sei / no-hevc-aq / no-svt / no-field / qp-adaptation-range=1.00 / scenecut-aware-qp=0conformance-window-offsets / right=0 / bottom=0 / decoder-max-rate=0 / no-vbv-live-multi-pass / no-mcstf / no-sbrc
    Язык : Французский
    По умолчанию : Да
    Принудительно : Нет

    Аудио #1
    Идентификатор : 2
    Идентификатор в исходном носителе информ : 4354 (0x1102)
    Формат : AC-3
    Формат/Информация : Audio Coding 3
    Коммерческое название : Dolby Digital
    Идентификатор кодека : A_AC3
    Продолжительность : 1 ч. 34 мин.
    Вид битрейта : Постоянный
    Битрейт : 256 Кбит/сек
    Канал(-ы) : 2 канала
    Расположение каналов : L R
    Частота дискретизации : 48,0 КГц
    Частота кадров : 31,250 кадров/сек (1536 SPF)
    Метод сжатия : С потерями
    Размер потока : 173 Мбайт (2%)
    Заголовок : MVO (Twister)
    Язык : Русский
    Вид сервиса : Complete Main
    По умолчанию : Да
    Принудительно : Нет
    Носитель оригинала : Blu-ray
    Нормализация звука речи : -31 dB
    compr : -0.28 dB
    dynrng : -18.20 dB
    mixlevel : 285 dB
    roomtyp : Small
    dialnorm_Average : -31 dB
    dialnorm_Minimum : -31 dB
    dialnorm_Maximum : -31 dB

    Аудио #2
    Идентификатор : 3
    Формат : AC-3
    Формат/Информация : Audio Coding 3
    Коммерческое название : Dolby Digital
    Идентификатор кодека : A_AC3
    Продолжительность : 1 ч. 34 мин.
    Вид битрейта : Постоянный
    Битрейт : 192 Кбит/сек
    Канал(-ы) : 2 канала
    Расположение каналов : L R
    Частота дискретизации : 48,0 КГц
    Частота кадров : 31,250 кадров/сек (1536 SPF)
    Метод сжатия : С потерями
    Задержка видео : 23 мс.
    Размер потока : 129 Мбайт (2%)
    Заголовок : DVO (НТВ)
    Язык : Русский
    Вид сервиса : Complete Main
    По умолчанию : Нет
    Принудительно : Нет
    Нормализация звука речи : -31 dB
    compr : -0.28 dB
    dsurmod : Not Dolby Surround encoded
    mixlevel : 329 dB
    roomtyp : 3
    ltrtcmixlev : -3.0 dB
    ltrtsurmixlev : -3.0 dB
    lorocmixlev : -3.0 dB
    lorosurmixlev : -3.0 dB
    dialnorm_Average : -31 dB
    dialnorm_Minimum : -31 dB
    dialnorm_Maximum : -31 dB

    Аудио #3
    Идентификатор : 4
    Формат : AC-3
    Формат/Информация : Audio Coding 3
    Коммерческое название : Dolby Digital
    Идентификатор кодека : A_AC3
    Продолжительность : 1 ч. 34 мин.
    Вид битрейта : Постоянный
    Битрейт : 192 Кбит/сек
    Канал(-ы) : 2 канала
    Расположение каналов : L R
    Частота дискретизации : 48,0 КГц
    Частота кадров : 31,250 кадров/сек (1536 SPF)
    Метод сжатия : С потерями
    Размер потока : 129 Мбайт (2%)
    Заголовок : AVO (Леонид Володарский)
    Язык : Русский
    Вид сервиса : Complete Main
    По умолчанию : Нет
    Принудительно : Нет
    Нормализация звука речи : -27 dB
    compr : -0.28 dB
    dsurmod : Not Dolby Surround encoded
    dialnorm_Average : -27 dB
    dialnorm_Minimum : -27 dB
    dialnorm_Maximum : -27 dB

    Аудио #4
    Идентификатор : 5
    Формат : AC-3
    Формат/Информация : Audio Coding 3
    Коммерческое название : Dolby Digital
    Идентификатор кодека : A_AC3
    Продолжительность : 1 ч. 34 мин.
    Вид битрейта : Постоянный
    Битрейт : 192 Кбит/сек
    Канал(-ы) : 2 канала
    Расположение каналов : L R
    Частота дискретизации : 48,0 КГц
    Частота кадров : 31,250 кадров/сек (1536 SPF)
    Метод сжатия : С потерями
    Размер потока : 129 Мбайт (2%)
    Заголовок : AVO (Павел Прямостанов)
    Язык : Русский
    Вид сервиса : Complete Main
    По умолчанию : Нет
    Принудительно : Нет
    Нормализация звука речи : -27 dB
    compr : -0.28 dB
    dynrng : -18.20 dB
    mixlevel : 285 dB
    roomtyp : Small
    dialnorm_Average : -27 dB
    dialnorm_Minimum : -27 dB
    dialnorm_Maximum : -27 dB

    Аудио #5
    Идентификатор : 6
    Формат : AC-3
    Формат/Информация : Audio Coding 3
    Коммерческое название : Dolby Digital
    Идентификатор кодека : A_AC3
    Продолжительность : 1 ч. 34 мин.
    Вид битрейта : Постоянный
    Битрейт : 192 Кбит/сек
    Канал(-ы) : 2 канала
    Расположение каналов : L R
    Частота дискретизации : 48,0 КГц
    Частота кадров : 31,250 кадров/сек (1536 SPF)
    Метод сжатия : С потерями
    Размер потока : 129 Мбайт (2%)
    Заголовок : AVO (Юрий Живов)
    Язык : Русский
    Вид сервиса : Complete Main
    По умолчанию : Нет
    Принудительно : Нет
    Нормализация звука речи : -31 dB
    dialnorm_Average : -31 dB
    dialnorm_Minimum : -31 dB
    dialnorm_Maximum : -31 dB

    Аудио #6
    Идентификатор : 7
    Формат : AC-3
    Формат/Информация : Audio Coding 3
    Коммерческое название : Dolby Digital
    Идентификатор кодека : A_AC3
    Продолжительность : 1 ч. 34 мин.
    Вид битрейта : Постоянный
    Битрейт : 192 Кбит/сек
    Канал(-ы) : 2 канала
    Расположение каналов : L R
    Частота дискретизации : 48,0 КГц
    Частота кадров : 31,250 кадров/сек (1536 SPF)
    Метод сжатия : С потерями
    Размер потока : 129 Мбайт (2%)
    Заголовок : AVO (Владимир Сонькин)
    Язык : Русский
    Вид сервиса : Complete Main
    По умолчанию : Нет
    Принудительно : Нет
    Нормализация звука речи : -27 dB
    compr : -0.28 dB
    dynrng : 8.59 dB
    dsurmod : Not Dolby Surround encoded
    mixlevel : 285 dB
    roomtyp : Small
    dialnorm_Average : -27 dB
    dialnorm_Minimum : -27 dB
    dialnorm_Maximum : -27 dB

    Аудио #7
    Идентификатор : 8
    Формат : AC-3
    Формат/Информация : Audio Coding 3
    Коммерческое название : Dolby Digital
    Идентификатор кодека : A_AC3
    Продолжительность : 1 ч. 34 мин.
    Вид битрейта : Постоянный
    Битрейт : 192 Кбит/сек
    Канал(-ы) : 2 канала
    Расположение каналов : L R
    Частота дискретизации : 48,0 КГц
    Частота кадров : 31,250 кадров/сек (1536 SPF)
    Метод сжатия : С потерями
    Размер потока : 129 Мбайт (2%)
    Заголовок : AVO (Андрей Дольский)
    Язык : Русский
    Вид сервиса : Complete Main
    По умолчанию : Нет
    Принудительно : Нет
    Нормализация звука речи : -27 dB
    compr : -0.28 dB
    dsurmod : Not Dolby Surround encoded
    mixlevel : 285 dB
    roomtyp : Small
    dialnorm_Average : -27 dB
    dialnorm_Minimum : -27 dB
    dialnorm_Maximum : -27 dB

    Аудио #8
    Идентификатор : 9
    Формат : AC-3
    Формат/Информация : Audio Coding 3
    Коммерческое название : Dolby Digital
    Идентификатор кодека : A_AC3
    Продолжительность : 1 ч. 34 мин.
    Вид битрейта : Постоянный
    Битрейт : 192 Кбит/сек
    Канал(-ы) : 2 канала
    Расположение каналов : L R
    Частота дискретизации : 48,0 КГц
    Частота кадров : 31,250 кадров/сек (1536 SPF)
    Метод сжатия : С потерями
    Задержка видео : 30 мс.
    Размер потока : 129 Мбайт (2%)
    Заголовок : VO (Неизвестный с VHS)
    Язык : Русский
    Вид сервиса : Complete Main
    По умолчанию : Нет
    Принудительно : Нет
    Нормализация звука речи : -27 dB
    compr : -0.28 dB
    dynrng : -8.70 dB
    mixlevel : 285 dB
    roomtyp : Small
    dialnorm_Average : -27 dB
    dialnorm_Minimum : -27 dB
    dialnorm_Maximum : -27 dB

    Аудио #9
    Идентификатор : 10
    Формат : AC-3
    Формат/Информация : Audio Coding 3
    Коммерческое название : Dolby Digital
    Идентификатор кодека : A_AC3
    Продолжительность : 1 ч. 34 мин.
    Вид битрейта : Постоянный
    Битрейт : 640 Кбит/сек
    Канал(-ы) : 2 канала
    Расположение каналов : L R
    Частота дискретизации : 48,0 КГц
    Частота кадров : 31,250 кадров/сек (1536 SPF)
    Метод сжатия : С потерями
    Размер потока : 431 Мбайт (6%)
    Заголовок : DUB
    Язык : Английский
    Вид сервиса : Complete Main
    По умолчанию : Нет
    Принудительно : Нет
    Нормализация звука речи : -27 dB
    compr : -0.28 dB
    dynrng : -8.70 dB
    dsurmod : Not Dolby Surround encoded
    mixlevel : 285 dB
    roomtyp : Small
    dialnorm_Average : -27 dB
    dialnorm_Minimum : -27 dB
    dialnorm_Maximum : -27 dB

    Аудио #10
    Идентификатор : 11
    Формат : AC-3
    Формат/Информация : Audio Coding 3
    Коммерческое название : Dolby Digital
    Идентификатор кодека : A_AC3
    Продолжительность : 1 ч. 34 мин.
    Вид битрейта : Постоянный
    Битрейт : 640 Кбит/сек
    Канал(-ы) : 2 канала
    Расположение каналов : L R
    Частота дискретизации : 48,0 КГц
    Частота кадров : 31,250 кадров/сек (1536 SPF)
    Метод сжатия : С потерями
    Размер потока : 431 Мбайт (6%)
    Язык : Французский
    Вид сервиса : Complete Main
    По умолчанию : Нет
    Принудительно : Нет
    Нормализация звука речи : -27 dB
    compr : -0.28 dB
    dynrng : -8.70 dB
    dsurmod : Not Dolby Surround encoded
    mixlevel : 285 dB
    roomtyp : Small
    dialnorm_Average : -27 dB
    dialnorm_Minimum : -27 dB
    dialnorm_Maximum : -27 dB

    Текст
    Идентификатор : 12
    Формат : UTF-8
    Идентификатор кодека : S_TEXT/UTF8
    Идентификатор кодека/Информация : UTF-8 Plain Text
    Продолжительность : 1 ч. 30 мин.
    Битрейт : 62 бит/сек
    Частота кадров : 0,106 кадр/сек
    Число элементов : 578
    Размер потока : 41,6 КиБ (0%)
    Язык : Русский
    По умолчанию : Да
    Принудительно : Нет

    Меню
    00:00:00.000 : en:Chapter 01
    00:09:08.333 : en:Chapter 02
    00:13:55.583 : en:Chapter 03
    00:18:28.458 : en:Chapter 04
    00:30:11.875 : en:Chapter 05
    00:33:49.166 : en:Chapter 06
    00:36:25.625 : en:Chapter 07
    00:41:34.875 : en:Chapter 08
    00:48:35.333 : en:Chapter 09
    00:54:11.666 : en:Chapter 10
    00:57:44.791 : en:Chapter 11
    01:01:59.583 : en:Chapter 12
    01:07:46.666 : en:Chapter 13
    01:10:33.791 : en:Chapter 14
    01:16:30.291 : en:Chapter 15
    01:22:22.208 : en:Chapter 16
    01:24:13.625 : en:Chapter 17
    01:28:31.208 : en:Chapter 18
    01:32:05.666 : en:Chapter 19
    01:33:20.875 : en:Chapter 20
    Загрузка...Cкриншот1 Эммануэль / Emmanuelle (1974) BDRip 1080p [HEVC] 10 bit от OldGamerЗагрузка...Cкриншот2 Эммануэль / Emmanuelle (1974) BDRip 1080p [HEVC] 10 bit от OldGamerЗагрузка...Cкриншот3 Эммануэль / Emmanuelle (1974) BDRip 1080p [HEVC] 10 bit от OldGamerЗагрузка...Cкриншот4 Эммануэль / Emmanuelle (1974) BDRip 1080p [HEVC] 10 bit от OldGamer
    2. Эммануэль 2 / Emmanuelle: L'antivierge (1975) BDRip 1080p [HEVC] 10 bit от OldGamer
    Обложка Эммануэль 2 / Emmanuelle: L'antivierge (1975) BDRip 1080p [HEVC] 10 bit от OldGamer
    HEVC
    10 bit
    ✂︎Сэмпл
    Год: 1975
    Страна: Франция
    Студия: Orphée Arts, Parafrance Films, Trinacra Films
    Жанр: Драма, Мелодрама
    Длительность: 01:31:24

    Режиссер: Франсис Джакобетти
    В ролях: Сильвия Кристель, Умберто Орсини, Фредерик Лагаш, Катрин Риве, Анри Черняк, Том Кларк, Мэрион Уомбл, Florence Lafuma, Claire Richard, Лаура Гемсер

    Описание: Во втором фильме знаменитого сериала Эммануэль из прилежной ученицы, усваивающей уроки любви, превращается в неистовую и ненасытную охотницу за наслаждениями.


    Исходник: Blu-Ray Remux 1080p (kinozal)
    Видео: 1920x816, 5861 Kbps
    Аудио1: AC3, 2 ch, 640 Kbps - РусскийРусский, MVO (R5)
    Аудио2: AC3, 2 ch, 192 Kbps - РусскийРусский, DVO (НТВ)
    Аудио3: AC3, 2 ch, 192 Kbps - РусскийРусский, AVO (Алексей Мишин)
    Аудио4: AC3, 2 ch, 192 Kbps - РусскийРусский, AVO (Василий Горчаков)
    Аудио5: AC3, 2 ch, 192 Kbps - РусскийРусский, AVO (Михаил Иванов)
    Аудио6: AC3, 2 ch, 192 Kbps - УкраинскийУкраинский, DVO
    Аудио7: AC3, 2 ch, 640 Kbps - АнглийскийАнглийский, DUB
    Аудио8: AC3, 2 ch, 640 Kbps - ФранцузскийФранцузский
    Субтитры: русские, английские

    Как за несколько секунд удалить ненужные аудиодорожки и субтитры (Внимание! После удаления вы не сможете поддержать раздачу)


    Лог (x265 info)x265 [info]: frame I: 549, Avg QP:17.53 kb/s: 14443.34
    x265 [info]: frame P: 26320, Avg QP:18.87 kb/s: 10483.57
    x265 [info]: frame B: 104627, Avg QP:20.65 kb/s: 4651.57
    x265 [info]: Weighted P-Frames: Y:11.0% UV:8.0%
    x265 [info]: Weighted B-Frames: Y:7.7% UV:4.1%
    x265 [info]: encoded 131496 frames in 75340.59s (1.75 fps), 5859.78 kb/s, Avg QP:20.28
    МедиаинфоОбщее
    Уникальный идентификатор : 319110840122916526376381975006485415958 (0xF012832348815F9A930BCBD48A440816)
    Полное имя : \\.\02.Эммануэль.2.Emmanuelle.L’antivierge.1975.BDRip-HEVC.1080p.mkv
    Формат : Matroska
    Версия формата : Version 4
    Размер файла : 5,58 Гбайт
    Продолжительность : 1 ч. 31 мин.
    Общий битрейт : 8 745 Кбит/сек
    Частота кадров : 23,976 кадра/сек
    Название фильма : Эммануэль 2
    Кодирование выполнил : OldGamer
    Тип содержимого : Movie
    Дата выпуска : 1975-12-15
    Дата записи : 1975-12-15
    Дата кодирования : 2024-06-21 12:03:55 UTC
    Программа кодирования : mkvmerge v85.0 ('Shame For You') 64-bit
    Библиотека кодирования : libebml v1.4.5 + libmatroska v1.7.1 / xvid4psp5
    Обложка : Yes
    Attachments : cover.jpg
    ACTOR : Сильвия Кристель, Umberto Orsini, Frédéric Lagache, Catherine Rivet, Henri Czarniak, Caroline Laurence, Tom Clark, Florence L. Afuma, Claire Richard, Laura Gemser, Eva Hamel, Christiane Gibeline, Venantino Venantini, Florence Lafuma, Ysabelle Lacamp,...
    ARTIST : Сильвия Кристель, Umberto Orsini, Frédéric Lagache, Catherine Rivet, Henri Czarniak, Caroline Laurence, Tom Clark, Florence L. Afuma, Claire Richard, Laura Gemser, Eva Hamel, Christiane Gibeline, Venantino Venantini, Florence Lafuma, Ysabelle Lacamp,...
    DIRECTOR : Francis Giacobetti
    GENRE : драма, мелодрама
    LAW_RATING : NC-17
    PRODUCER : Yves Rousset-Rouard, Alain Siritzky
    PRODUCTION_STUDIO : Trinacra Films
    RATING : NC-17
    SYNOPSIS : Во втором фильме знаменитого сериала Эммануэль из прилежной ученицы, усваивающей уроки любви, превращается в неистовую и ненасытную охотницу за наслаждениями.

    Видео
    Идентификатор : 1
    Формат : HEVC
    Формат/Информация : High Efficiency Video Coding
    Профиль формата : Main 10@L4.1@High
    Идентификатор кодека : V_MPEGH/ISO/HEVC
    Продолжительность : 1 ч. 31 мин.
    Битрейт : 5 861 Кбит/сек
    Ширина : 1 920 пикселей
    Высота : 816 пикселей
    Соотношение сторон дисплея : 2,35:1
    Режим частоты кадров : Постоянный
    Частота кадров : 23,976 (24000/1001) кадра/сек
    Цветовое пространство : YUV
    Цветовая субдискретизация : 4:2:0
    Битовая глубина : 10 бит
    Бит/(Пиксели*Кадры) : 0.156
    Размер потока : 3,74 Гбайт (67%)
    Заголовок : Emmanuelle: L'antivierge / Rip by OldGamer
    Библиотека кодирования : x265 3.6+27-8787e8702:[Windows][GCC 13.3.0][64 bit] 10bit
    Параметры библиотеки кодирования : cpuid=1111039 / frame-threads=4 / numa-pools=16 / wpp / no-pmode / no-pme / no-psnr / no-ssim / log-level=2 / input-csp=1 / input-res=1920x816 / interlace=0 / total-frames=131496 / level-idc=41 / high-tier=1 / uhd-bd=0 / ref=5 / no-allow-non-conformance / no-repeat-headers / annexb / no-aud / no-eob / no-eos / no-hrd / info / hash=0 / temporal-layers=0 / open-gop / min-keyint=23 / keyint=240 / gop-lookahead=0 / bframes=16 / b-adapt=2 / b-pyramid / bframe-bias=0 / rc-lookahead=40 / lookahead-slices=0 / scenecut=40 / no-hist-scenecut / radl=0 / no-splice / no-intra-refresh / ctu=32 / min-cu-size=8 / rect / amp / max-tu-size=32 / tu-inter-depth=4 / tu-intra-depth=4 / limit-tu=1 / rdoq-level=2 / dynamic-rd=0.00 / no-ssim-rd / signhide / no-tskip / nr-intra=0 / nr-inter=0 / no-constrained-intra / no-strong-intra-smoothing / max-merge=5 / limit-refs=3 / no-limit-modes / me=3 / subme=7 / merange=57 / temporal-mvp / no-frame-dup / no-hme / weightp / weightb / no-analyze-src-pics / deblock=-2:-2 / no-sao / no-sao-non-deblock / rd=6 / selective-sao=0 / no-early-skip / no-rskip / no-fast-intra / no-tskip-fast / no-cu-lossless / b-intra / no-splitrd-skip / rdpenalty=0 / psy-rd=2.00 / psy-rdoq=1.00 / no-rd-refine / no-lossless / cbqpoffs=0 / crqpoffs=0 / rc=crf / crf=20.0 / qcomp=0.60 / qpstep=4 / stats-write=0 / stats-read=0 / vbv-maxrate=50000 / vbv-bufsize=50000 / vbv-init=0.9 / min-vbv-fullness=50.0 / max-vbv-fullness=80.0 / crf-max=0.0 / crf-min=0.0 / ipratio=1.40 / pbratio=1.30 / aq-mode=1 / aq-strength=1.00 / no-cutree / zone-count=1 / zones: / start-frame=129694 / end-frame=131496 / qp=36 / no-strict-cbr / qg-size=32 / no-rc-grain / qpmax=69 / qpmin=0 / no-const-vbv / sar=1 / overscan=0 / videoformat=5 / range=0 / colorprim=2 / transfer=2 / colormatrix=2 / chromaloc=0 / display-window=0 / cll=0,0 / min-luma=0 / max-luma=1023 / log2-max-poc-lsb=8 / vui-timing-info / vui-hrd-info / slices=1 / no-opt-qp-pps / no-opt-ref-list-length-pps / no-multi-pass-opt-rps / scenecut-bias=0.00 / no-opt-cu-delta-qp / no-aq-motion / no-hdr10 / no-hdr10-opt / no-dhdr10-opt / no-idr-recovery-sei / analysis-reuse-level=0 / analysis-save-reuse-level=0 / analysis-load-reuse-level=0 / scale-factor=0 / refine-intra=0 / refine-inter=0 / refine-mv=1 / refine-ctu-distortion=0 / no-limit-sao / ctu-info=0 / no-lowpass-dct / refine-analysis-type=0 / copy-pic=1 / max-ausize-factor=1.0 / no-dynamic-refine / no-single-sei / no-hevc-aq / no-svt / no-field / qp-adaptation-range=1.00 / scenecut-aware-qp=0conformance-window-offsets / right=0 / bottom=0 / decoder-max-rate=0 / no-vbv-live-multi-pass / no-mcstf / no-sbrc
    Язык : Французский
    По умолчанию : Да
    Принудительно : Нет

    Аудио #1
    Идентификатор : 2
    Формат : AC-3
    Формат/Информация : Audio Coding 3
    Коммерческое название : Dolby Digital
    Идентификатор кодека : A_AC3
    Продолжительность : 1 ч. 31 мин.
    Вид битрейта : Постоянный
    Битрейт : 640 Кбит/сек
    Канал(-ы) : 2 канала
    Расположение каналов : L R
    Частота дискретизации : 48,0 КГц
    Частота кадров : 31,250 кадров/сек (1536 SPF)
    Метод сжатия : С потерями
    Размер потока : 418 Мбайт (7%)
    Заголовок : MVO (R5)
    Язык : Русский
    Вид сервиса : Complete Main
    По умолчанию : Да
    Принудительно : Нет
    Нормализация звука речи : -27 dB
    compr : -0.28 dB
    dynrng : -8.70 dB
    dsurmod : Not Dolby Surround encoded
    mixlevel : 285 dB
    roomtyp : Small
    dialnorm_Average : -27 dB
    dialnorm_Minimum : -27 dB
    dialnorm_Maximum : -27 dB

    Аудио #2
    Идентификатор : 3
    Формат : AC-3
    Формат/Информация : Audio Coding 3
    Коммерческое название : Dolby Digital
    Идентификатор кодека : A_AC3
    Продолжительность : 1 ч. 31 мин.
    Вид битрейта : Постоянный
    Битрейт : 192 Кбит/сек
    Канал(-ы) : 2 канала
    Расположение каналов : L R
    Частота дискретизации : 48,0 КГц
    Частота кадров : 31,250 кадров/сек (1536 SPF)
    Метод сжатия : С потерями
    Размер потока : 126 Мбайт (2%)
    Заголовок : DVO (НТВ)
    Язык : Русский (RU)
    Вид сервиса : Complete Main
    По умолчанию : Нет
    Принудительно : Нет
    Нормализация звука речи : -27 dB
    compr : -0.28 dB
    dialnorm_Average : -27 dB
    dialnorm_Minimum : -27 dB
    dialnorm_Maximum : -27 dB

    Аудио #3
    Идентификатор : 4
    Формат : AC-3
    Формат/Информация : Audio Coding 3
    Коммерческое название : Dolby Digital
    Идентификатор кодека : A_AC3
    Продолжительность : 1 ч. 31 мин.
    Вид битрейта : Постоянный
    Битрейт : 192 Кбит/сек
    Канал(-ы) : 2 канала
    Расположение каналов : L R
    Частота дискретизации : 48,0 КГц
    Частота кадров : 31,250 кадров/сек (1536 SPF)
    Метод сжатия : С потерями
    Размер потока : 126 Мбайт (2%)
    Заголовок : AVO (Алексей Мишин)
    Язык : Русский
    Вид сервиса : Complete Main
    По умолчанию : Нет
    Принудительно : Нет
    Нормализация звука речи : -31 dB
    compr : -0.28 dB
    dialnorm_Average : -31 dB
    dialnorm_Minimum : -31 dB
    dialnorm_Maximum : -31 dB

    Аудио #4
    Идентификатор : 5
    Формат : AC-3
    Формат/Информация : Audio Coding 3
    Коммерческое название : Dolby Digital
    Идентификатор кодека : A_AC3
    Продолжительность : 1 ч. 31 мин.
    Вид битрейта : Постоянный
    Битрейт : 192 Кбит/сек
    Канал(-ы) : 2 канала
    Расположение каналов : L R
    Частота дискретизации : 48,0 КГц
    Частота кадров : 31,250 кадров/сек (1536 SPF)
    Метод сжатия : С потерями
    Задержка видео : 2 мс.
    Размер потока : 126 Мбайт (2%)
    Заголовок : AVO (Василий Горчаков)
    Язык : Русский (RU)
    Вид сервиса : Complete Main
    По умолчанию : Нет
    Принудительно : Нет
    Нормализация звука речи : -31 dB
    compr : -0.28 dB
    dialnorm_Average : -31 dB
    dialnorm_Minimum : -31 dB
    dialnorm_Maximum : -31 dB

    Аудио #5
    Идентификатор : 6
    Формат : AC-3
    Формат/Информация : Audio Coding 3
    Коммерческое название : Dolby Digital
    Идентификатор кодека : A_AC3
    Продолжительность : 1 ч. 31 мин.
    Вид битрейта : Постоянный
    Битрейт : 192 Кбит/сек
    Канал(-ы) : 2 канала
    Расположение каналов : L R
    Частота дискретизации : 48,0 КГц
    Частота кадров : 31,250 кадров/сек (1536 SPF)
    Метод сжатия : С потерями
    Задержка видео : 2 мс.
    Размер потока : 126 Мбайт (2%)
    Заголовок : AVO (Михаил Иванов)
    Язык : Русский (RU)
    Вид сервиса : Complete Main
    По умолчанию : Нет
    Принудительно : Нет
    Нормализация звука речи : -31 dB
    compr : -0.28 dB
    dialnorm_Average : -31 dB
    dialnorm_Minimum : -31 dB
    dialnorm_Maximum : -31 dB

    Аудио #6
    Идентификатор : 7
    Формат : AC-3
    Формат/Информация : Audio Coding 3
    Коммерческое название : Dolby Digital
    Идентификатор кодека : A_AC3
    Продолжительность : 1 ч. 31 мин.
    Вид битрейта : Постоянный
    Битрейт : 192 Кбит/сек
    Канал(-ы) : 2 канала
    Расположение каналов : L R
    Частота дискретизации : 48,0 КГц
    Частота кадров : 31,250 кадров/сек (1536 SPF)
    Метод сжатия : С потерями
    Размер потока : 126 Мбайт (2%)
    Заголовок : DVO
    Язык : Украинский
    Вид сервиса : Complete Main
    По умолчанию : Нет
    Принудительно : Нет
    Нормализация звука речи : -27 dB
    compr : -0.28 dB
    dynrng : -8.70 dB
    mixlevel : 285 dB
    roomtyp : Small
    dialnorm_Average : -27 dB
    dialnorm_Minimum : -27 dB
    dialnorm_Maximum : -27 dB

    Аудио #7
    Идентификатор : 8
    Формат : AC-3
    Формат/Информация : Audio Coding 3
    Коммерческое название : Dolby Digital
    Идентификатор кодека : A_AC3
    Продолжительность : 1 ч. 31 мин.
    Вид битрейта : Постоянный
    Битрейт : 640 Кбит/сек
    Канал(-ы) : 2 канала
    Расположение каналов : L R
    Частота дискретизации : 48,0 КГц
    Частота кадров : 31,250 кадров/сек (1536 SPF)
    Метод сжатия : С потерями
    Размер потока : 418 Мбайт (7%)
    Заголовок : DUB
    Язык : Английский
    Вид сервиса : Complete Main
    По умолчанию : Нет
    Принудительно : Нет
    Нормализация звука речи : -27 dB
    compr : -0.28 dB
    dynrng : -8.70 dB
    dsurmod : Not Dolby Surround encoded
    mixlevel : 285 dB
    roomtyp : Small
    dialnorm_Average : -27 dB
    dialnorm_Minimum : -27 dB
    dialnorm_Maximum : -27 dB

    Аудио #8
    Идентификатор : 9
    Формат : AC-3
    Формат/Информация : Audio Coding 3
    Коммерческое название : Dolby Digital
    Идентификатор кодека : A_AC3
    Продолжительность : 1 ч. 31 мин.
    Вид битрейта : Постоянный
    Битрейт : 640 Кбит/сек
    Канал(-ы) : 2 канала
    Расположение каналов : L R
    Частота дискретизации : 48,0 КГц
    Частота кадров : 31,250 кадров/сек (1536 SPF)
    Метод сжатия : С потерями
    Размер потока : 418 Мбайт (7%)
    Язык : Французский
    Вид сервиса : Complete Main
    По умолчанию : Нет
    Принудительно : Нет
    Нормализация звука речи : -27 dB
    compr : -0.28 dB
    dynrng : -8.70 dB
    dsurmod : Not Dolby Surround encoded
    mixlevel : 285 dB
    roomtyp : Small
    dialnorm_Average : -27 dB
    dialnorm_Minimum : -27 dB
    dialnorm_Maximum : -27 dB

    Текст #1
    Идентификатор : 10
    Формат : UTF-8
    Идентификатор кодека : S_TEXT/UTF8
    Идентификатор кодека/Информация : UTF-8 Plain Text
    Продолжительность : 1 ч. 29 мин.
    Битрейт : 36 бит/сек
    Частота кадров : 0,121 кадр/сек
    Число элементов : 648
    Размер потока : 23,7 КиБ (0%)
    Язык : Русский
    По умолчанию : Нет
    Принудительно : Нет

    Текст #2
    Идентификатор : 11
    Формат : UTF-8
    Идентификатор кодека : S_TEXT/UTF8
    Идентификатор кодека/Информация : UTF-8 Plain Text
    Продолжительность : 1 ч. 30 мин.
    Битрейт : 25 бит/сек
    Частота кадров : 0,120 кадр/сек
    Число элементов : 651
    Размер потока : 16,9 КиБ (0%)
    Язык : Английский
    По умолчанию : Нет
    Принудительно : Нет

    Меню
    00:00:00.000 : en:00:00:00.000
    00:05:55.355 : en:00:05:55.355
    00:12:00.678 : en:00:12:00.678
    00:18:04.333 : en:00:18:04.333
    00:26:11.236 : en:00:26:11.236
    00:31:43.944 : en:00:31:43.944
    00:36:00.325 : en:00:36:00.325
    00:42:01.936 : en:00:42:01.936
    00:47:56.332 : en:00:47:56.332
    00:56:26.883 : en:00:56:26.883
    01:05:05.527 : en:01:05:05.527
    01:07:26.167 : en:01:07:26.167
    01:11:47.345 : en:01:11:47.345
    01:17:49.582 : en:01:17:49.582
    01:23:45.437 : en:01:23:45.437
    01:29:38.456 : en:01:29:38.456
    Загрузка...Cкриншот1 Эммануэль 2 / Emmanuelle: L'antivierge (1975) BDRip 1080p [HEVC] 10 bit от OldGamerЗагрузка...Cкриншот2 Эммануэль 2 / Emmanuelle: L'antivierge (1975) BDRip 1080p [HEVC] 10 bit от OldGamerЗагрузка...Cкриншот3 Эммануэль 2 / Emmanuelle: L'antivierge (1975) BDRip 1080p [HEVC] 10 bit от OldGamerЗагрузка...Cкриншот4 Эммануэль 2 / Emmanuelle: L'antivierge (1975) BDRip 1080p [HEVC] 10 bit от OldGamer
    3. Прощай, Эммануэль / Goodbye Emmanuelle (1977) BDRip 1080p [HEVC] 10 bit от OldGamer
    Обложка Прощай, Эммануэль / Goodbye Emmanuelle (1977) BDRip 1080p [HEVC] 10 bit от OldGamer
    HEVC
    10 bit
    ✂︎Сэмпл
    Год: 1977
    Страна: Франция
    Студия: Parafrance Films, Trinacra Films
    Жанр: Драма, Мелодрама
    Длительность: 01:38:10

    Режиссер: Франсуа Летерье
    В ролях: Сильвия Кристель, Умберто Орсини, Жан-Пьер Бувье, Александра Стюарт, Ольга Жорж-Пико, Шарлотт Александра, Каролин Лоранс, Сильви Феннек, Радиа Фрай, Жак Дониоль-Валькроз

    Описание: Она была рьяной искательницей эротических приключений, никогда не прекращающей своей неистовой гонки за наслаждением. И вдруг произошло совершенно невероятное. Исполненная сексуальной свободы, Эммануэль попадает в классическую, но парадоксальную ситуацию - ситуацию Любви с большой буквы. Страстно и безоглядно она порывает с привычной жизнью, влекомая этим неведомым доселе чувством.


    Исходник: Blu-Ray Remux 1080p (kinozal)
    Видео: 1920x816, 5592 Kbps
    Аудио1: AC3, 2 ch, 192 Kbps - РусскийРусский, DVO (НТВ)
    Аудио2: AC3, 2 ch, 192 Kbps - РусскийРусский, AVO (Андрей Дольский)
    Аудио3: AC3, 2 ch, 192 Kbps - РусскийРусский, VO (Центр СКИП-фильм)
    Аудио4: AC3, 2 ch, 192 Kbps - РусскийРусский, VO #1
    Аудио5: AC3, 2 ch, 192 Kbps - РусскийРусский, VO #2
    Аудио6: AC3, 2 ch, 192 Kbps - РусскийРусский, VO #2
    Аудио7: AC3, 2 ch, 640 Kbps - ФранцузскийФранцузский
    Субтитры: английские

    Как за несколько секунд удалить ненужные аудиодорожки и субтитры (Внимание! После удаления вы не сможете поддержать раздачу)


    Лог (x265 info)x265 [info]: frame I: 590, Avg QP:18.00 kb/s: 16979.30
    x265 [info]: frame P: 28339, Avg QP:19.37 kb/s: 10698.09
    x265 [info]: frame B: 112311, Avg QP:21.10 kb/s: 4242.59
    x265 [info]: Weighted P-Frames: Y:9.4% UV:7.7%
    x265 [info]: Weighted B-Frames: Y:6.4% UV:4.7%
    x265 [info]: encoded 141240 frames in 78348.61s (1.80 fps), 5591.06 kb/s, Avg QP:20.74
    МедиаинфоОбщее
    Уникальный идентификатор : 152248451853340784199819579161770187109 (0x7289FC38C2A8924A8F4B2BF2475BD965)
    Полное имя : \\.\03.Прощай.Эммануэль.Goodbye.Emmanuelle.1977.BDRip-HEVC.1080p.mkv
    Формат : Matroska
    Версия формата : Version 4
    Размер файла : 5,07 Гбайт
    Продолжительность : 1 ч. 38 мин.
    Общий битрейт : 7 388 Кбит/сек
    Частота кадров : 23,976 кадра/сек
    Название фильма : Прощай, Эммануэль / Прощай, Эммануэль
    Кодирование выполнил : OldGamer
    Тип содержимого : Movie
    Дата выпуска : 1977-10-14
    Дата записи : 1977-10-14
    Программа кодирования : mkvmerge v85.0 ('Shame For You') 64-bit
    Библиотека кодирования : libebml v1.4.5 + libmatroska v1.7.1 / xvid4psp5
    Обложка : Yes
    Attachments : cover.jpg
    ACTOR : Сильвия Кристель, Umberto Orsini, Jean-Pierre Bouvier, Alexandra Stewart, Olga Georges-Picot, Charlotte Alexandra, Caroline Laurence, Sylvie Fennec, Radiah Frye, Jacques Doniol-Valcroze, Erik Colin, Bob Asklöf, Greg Germain
    ARTIST : Сильвия Кристель, Umberto Orsini, Jean-Pierre Bouvier, Alexandra Stewart, Olga Georges-Picot, Charlotte Alexandra, Caroline Laurence, Sylvie Fennec, Radiah Frye, Jacques Doniol-Valcroze, Erik Colin, Bob Asklöf, Greg Germain
    DIRECTOR : François Leterrier
    GENRE : драма, мелодрама
    LAW_RATING : NC-17
    PRODUCER : Yves Rousset-Rouard
    PRODUCTION_STUDIO : Parafrance Films
    RATING : NC-17
    SYNOPSIS : Она была рьяной искательницей эротических приключений, никогда не прекращающей своей неистовой гонки за наслаждением. И вдруг произошло совершенно невероятное. Исполненная сексуальной свободы, Эммануэль попадает в классическую, но парадоксальную ситуацию — ситуацию Любви с большой буквы. Страстно и безоглядно она порывает с привычной жизнью, влекомая этим неведомым доселе чувством.

    Видео
    Идентификатор : 1
    Формат : HEVC
    Формат/Информация : High Efficiency Video Coding
    Профиль формата : Main 10@L4.1@High
    Идентификатор кодека : V_MPEGH/ISO/HEVC
    Продолжительность : 1 ч. 38 мин.
    Битрейт : 5 592 Кбит/сек
    Ширина : 1 920 пикселей
    Высота : 816 пикселей
    Соотношение сторон дисплея : 2,35:1
    Режим частоты кадров : Постоянный
    Частота кадров : 23,976 (24000/1001) кадра/сек
    Цветовое пространство : YUV
    Цветовая субдискретизация : 4:2:0
    Битовая глубина : 10 бит
    Бит/(Пиксели*Кадры) : 0.149
    Размер потока : 3,83 Гбайт (76%)
    Заголовок : Goodbye Emmanuelle / Rip by OldGamer
    Библиотека кодирования : x265 3.6+27-8787e8702:[Windows][GCC 13.3.0][64 bit] 10bit
    Параметры библиотеки кодирования : cpuid=1111039 / frame-threads=4 / numa-pools=16 / wpp / no-pmode / no-pme / no-psnr / no-ssim / log-level=2 / input-csp=1 / input-res=1920x816 / interlace=0 / total-frames=141240 / level-idc=41 / high-tier=1 / uhd-bd=0 / ref=5 / no-allow-non-conformance / no-repeat-headers / annexb / no-aud / no-eob / no-eos / no-hrd / info / hash=0 / temporal-layers=0 / open-gop / min-keyint=23 / keyint=240 / gop-lookahead=0 / bframes=16 / b-adapt=2 / b-pyramid / bframe-bias=0 / rc-lookahead=40 / lookahead-slices=0 / scenecut=40 / no-hist-scenecut / radl=0 / no-splice / no-intra-refresh / ctu=32 / min-cu-size=8 / rect / amp / max-tu-size=32 / tu-inter-depth=4 / tu-intra-depth=4 / limit-tu=1 / rdoq-level=2 / dynamic-rd=0.00 / no-ssim-rd / signhide / no-tskip / nr-intra=0 / nr-inter=0 / no-constrained-intra / no-strong-intra-smoothing / max-merge=5 / limit-refs=3 / no-limit-modes / me=3 / subme=7 / merange=57 / temporal-mvp / no-frame-dup / no-hme / weightp / weightb / no-analyze-src-pics / deblock=-2:-2 / no-sao / no-sao-non-deblock / rd=6 / selective-sao=0 / no-early-skip / no-rskip / no-fast-intra / no-tskip-fast / no-cu-lossless / b-intra / no-splitrd-skip / rdpenalty=0 / psy-rd=2.00 / psy-rdoq=1.00 / no-rd-refine / no-lossless / cbqpoffs=0 / crqpoffs=0 / rc=crf / crf=20.0 / qcomp=0.60 / qpstep=4 / stats-write=0 / stats-read=0 / vbv-maxrate=50000 / vbv-bufsize=50000 / vbv-init=0.9 / min-vbv-fullness=50.0 / max-vbv-fullness=80.0 / crf-max=0.0 / crf-min=0.0 / ipratio=1.40 / pbratio=1.30 / aq-mode=1 / aq-strength=1.00 / no-cutree / zone-count=1 / zones: / start-frame=138995 / end-frame=141240 / qp=36 / no-strict-cbr / qg-size=32 / no-rc-grain / qpmax=69 / qpmin=0 / no-const-vbv / sar=1 / overscan=0 / videoformat=5 / range=0 / colorprim=2 / transfer=2 / colormatrix=2 / chromaloc=0 / display-window=0 / cll=0,0 / min-luma=0 / max-luma=1023 / log2-max-poc-lsb=8 / vui-timing-info / vui-hrd-info / slices=1 / no-opt-qp-pps / no-opt-ref-list-length-pps / no-multi-pass-opt-rps / scenecut-bias=0.00 / no-opt-cu-delta-qp / no-aq-motion / no-hdr10 / no-hdr10-opt / no-dhdr10-opt / no-idr-recovery-sei / analysis-reuse-level=0 / analysis-save-reuse-level=0 / analysis-load-reuse-level=0 / scale-factor=0 / refine-intra=0 / refine-inter=0 / refine-mv=1 / refine-ctu-distortion=0 / no-limit-sao / ctu-info=0 / no-lowpass-dct / refine-analysis-type=0 / copy-pic=1 / max-ausize-factor=1.0 / no-dynamic-refine / no-single-sei / no-hevc-aq / no-svt / no-field / qp-adaptation-range=1.00 / scenecut-aware-qp=0conformance-window-offsets / right=0 / bottom=0 / decoder-max-rate=0 / no-vbv-live-multi-pass / no-mcstf / no-sbrc
    Язык : Английский
    По умолчанию : Да
    Принудительно : Нет

    Аудио #1
    Идентификатор : 2
    Формат : AC-3
    Формат/Информация : Audio Coding 3
    Коммерческое название : Dolby Digital
    Идентификатор кодека : A_AC3
    Продолжительность : 1 ч. 38 мин.
    Вид битрейта : Постоянный
    Битрейт : 192 Кбит/сек
    Канал(-ы) : 2 канала
    Расположение каналов : L R
    Частота дискретизации : 48,0 КГц
    Частота кадров : 31,250 кадров/сек (1536 SPF)
    Метод сжатия : С потерями
    Задержка видео : 100 мс.
    Размер потока : 135 Мбайт (3%)
    Заголовок : DVO (НТВ)
    Язык : Русский
    Вид сервиса : Complete Main
    По умолчанию : Да
    Принудительно : Нет
    Нормализация звука речи : -27 dB
    compr : -0.28 dB
    dialnorm_Average : -27 dB
    dialnorm_Minimum : -27 dB
    dialnorm_Maximum : -27 dB

    Аудио #2
    Идентификатор : 3
    Формат : AC-3
    Формат/Информация : Audio Coding 3
    Коммерческое название : Dolby Digital
    Идентификатор кодека : A_AC3
    Продолжительность : 1 ч. 38 мин.
    Вид битрейта : Постоянный
    Битрейт : 192 Кбит/сек
    Канал(-ы) : 2 канала
    Расположение каналов : L R
    Частота дискретизации : 48,0 КГц
    Частота кадров : 31,250 кадров/сек (1536 SPF)
    Метод сжатия : С потерями
    Размер потока : 135 Мбайт (3%)
    Заголовок : AVO (Андрей Дольский)
    Язык : Русский
    Вид сервиса : Complete Main
    По умолчанию : Нет
    Принудительно : Нет
    Нормализация звука речи : -27 dB
    compr : -0.28 dB
    dsurmod : Not Dolby Surround encoded
    mixlevel : 285 dB
    roomtyp : Small
    dialnorm_Average : -27 dB
    dialnorm_Minimum : -27 dB
    dialnorm_Maximum : -27 dB

    Аудио #3
    Идентификатор : 4
    Формат : AC-3
    Формат/Информация : Audio Coding 3
    Коммерческое название : Dolby Digital
    Идентификатор кодека : A_AC3
    Продолжительность : 1 ч. 38 мин.
    Вид битрейта : Постоянный
    Битрейт : 192 Кбит/сек
    Канал(-ы) : 2 канала
    Расположение каналов : L R
    Частота дискретизации : 48,0 КГц
    Частота кадров : 31,250 кадров/сек (1536 SPF)
    Метод сжатия : С потерями
    Размер потока : 135 Мбайт (3%)
    Заголовок : VO (Центр СКИП-фильм)
    Язык : Русский
    Вид сервиса : Complete Main
    По умолчанию : Нет
    Принудительно : Нет
    Нормализация звука речи : -27 dB
    compr : -0.28 dB
    dsurmod : Not Dolby Surround encoded
    mixlevel : 285 dB
    roomtyp : Small
    dialnorm_Average : -27 dB
    dialnorm_Minimum : -27 dB
    dialnorm_Maximum : -27 dB

    Аудио #4
    Идентификатор : 5
    Формат : AC-3
    Формат/Информация : Audio Coding 3
    Коммерческое название : Dolby Digital
    Идентификатор кодека : A_AC3
    Продолжительность : 1 ч. 38 мин.
    Вид битрейта : Постоянный
    Битрейт : 192 Кбит/сек
    Канал(-ы) : 2 канала
    Расположение каналов : L R
    Частота дискретизации : 48,0 КГц
    Частота кадров : 31,250 кадров/сек (1536 SPF)
    Метод сжатия : С потерями
    Размер потока : 135 Мбайт (3%)
    Заголовок : VO #1
    Язык : Русский
    Вид сервиса : Complete Main
    По умолчанию : Нет
    Принудительно : Нет
    Нормализация звука речи : -27 dB
    compr : -0.28 dB
    dynrng : -8.70 dB
    dsurmod : Not Dolby Surround encoded
    mixlevel : 285 dB
    roomtyp : Small
    dialnorm_Average : -27 dB
    dialnorm_Minimum : -27 dB
    dialnorm_Maximum : -27 dB

    Аудио #5
    Идентификатор : 6
    Формат : AC-3
    Формат/Информация : Audio Coding 3
    Коммерческое название : Dolby Digital
    Идентификатор кодека : A_AC3
    Продолжительность : 1 ч. 38 мин.
    Вид битрейта : Постоянный
    Битрейт : 192 Кбит/сек
    Канал(-ы) : 2 канала
    Расположение каналов : L R
    Частота дискретизации : 48,0 КГц
    Частота кадров : 31,250 кадров/сек (1536 SPF)
    Метод сжатия : С потерями
    Размер потока : 135 Мбайт (3%)
    Заголовок : VO #2
    Язык : Русский
    Вид сервиса : Complete Main
    По умолчанию : Нет
    Принудительно : Нет
    Нормализация звука речи : -27 dB
    compr : -0.28 dB
    dialnorm_Average : -27 dB
    dialnorm_Minimum : -27 dB
    dialnorm_Maximum : -27 dB

    Аудио #6
    Идентификатор : 7
    Формат : AC-3
    Формат/Информация : Audio Coding 3
    Коммерческое название : Dolby Digital
    Идентификатор кодека : A_AC3
    Продолжительность : 1 ч. 38 мин.
    Вид битрейта : Постоянный
    Битрейт : 192 Кбит/сек
    Канал(-ы) : 2 канала
    Расположение каналов : L R
    Частота дискретизации : 48,0 КГц
    Частота кадров : 31,250 кадров/сек (1536 SPF)
    Метод сжатия : С потерями
    Размер потока : 135 Мбайт (3%)
    Заголовок : VO #3
    Язык : Русский
    Вид сервиса : Complete Main
    По умолчанию : Нет
    Принудительно : Нет
    Нормализация звука речи : -27 dB
    compr : -0.28 dB
    dynrng : -23.06 dB
    dsurmod : Not Dolby Surround encoded
    mixlevel : 285 dB
    roomtyp : Small
    dialnorm_Average : -27 dB
    dialnorm_Minimum : -27 dB
    dialnorm_Maximum : -27 dB

    Аудио #7
    Идентификатор : 8
    Формат : AC-3
    Формат/Информация : Audio Coding 3
    Коммерческое название : Dolby Digital
    Идентификатор кодека : A_AC3
    Продолжительность : 1 ч. 38 мин.
    Вид битрейта : Постоянный
    Битрейт : 640 Кбит/сек
    Канал(-ы) : 2 канала
    Расположение каналов : L R
    Частота дискретизации : 48,0 КГц
    Частота кадров : 31,250 кадров/сек (1536 SPF)
    Метод сжатия : С потерями
    Размер потока : 449 Мбайт (9%)
    Язык : Французский
    Вид сервиса : Complete Main
    По умолчанию : Нет
    Принудительно : Нет
    Нормализация звука речи : -27 dB
    compr : -0.28 dB
    dynrng : -8.70 dB
    dsurmod : Not Dolby Surround encoded
    mixlevel : 285 dB
    roomtyp : Small
    dialnorm_Average : -27 dB
    dialnorm_Minimum : -27 dB
    dialnorm_Maximum : -27 dB

    Текст
    Идентификатор : 9
    Формат : UTF-8
    Идентификатор кодека : S_TEXT/UTF8
    Идентификатор кодека/Информация : UTF-8 Plain Text
    Продолжительность : 1 ч. 32 мин.
    Битрейт : 39 бит/сек
    Частота кадров : 0,117 кадр/сек
    Число элементов : 650
    Размер потока : 26,4 КиБ (0%)
    Язык : Английский
    По умолчанию : Нет
    Принудительно : Нет

    Меню
    00:00:00.000 : en:Chapter 1
    Загрузка...Cкриншот1 Прощай, Эммануэль / Goodbye Emmanuelle (1977) BDRip 1080p [HEVC] 10 bit от OldGamerЗагрузка...Cкриншот2 Прощай, Эммануэль / Goodbye Emmanuelle (1977) BDRip 1080p [HEVC] 10 bit от OldGamerЗагрузка...Cкриншот3 Прощай, Эммануэль / Goodbye Emmanuelle (1977) BDRip 1080p [HEVC] 10 bit от OldGamerЗагрузка...Cкриншот4 Прощай, Эммануэль / Goodbye Emmanuelle (1977) BDRip 1080p [HEVC] 10 bit от OldGamer
    4. Эммануэль 4 / Emmanuelle IV (1984) BDRip 1080p [HEVC] 10 bit от OldGamer
    Обложка Эммануэль 4 / Emmanuelle IV (1984) BDRip 1080p [HEVC] 10 bit от OldGamer
    HEVC
    10 bit
    ✂︎Сэмпл
    Год: 1984
    Страна: Франция
    Студия: AS Productions, Sara Films
    Жанр: Драма, Мелодрама
    Длительность: 01:32:26

    Режиссер: Франсис Леруа, Айрис Летанс
    В ролях: Сильвия Кристель, Миа Нюгрен, Патрик Бошо, Дебора Пауэр, Софи Бержер, Жерар Димильо, Соня Мартин, Кристиан Маркан, Мэрилин Джесс, Изабель Эстелль

    Описание: Благодаря чудесам пластической хирургии легендарная Эммануэль преображается в юную прекрасную фотомодель и решительно меняет свой привычный круг общения. Используя чарующие изменения в своем внешнем облике, Эммануэль открывает на фоне романтических пейзажей Бразилии новые секреты своей сексуальности...


    Исходник: Blu-Ray Remux 1080p (kinozal)
    Видео: 1800x1080, ~9792 Kbps
    Аудио1: AC3, 2 ch, 192 Kbps - РусскийРусский, MVO (Студия Ракурс)
    Аудио2: AC3, 2 ch, 192 Kbps - РусскийРусский, MVO
    Аудио3: AC3, 2 ch, 192 Kbps - РусскийРусский, VO
    Аудио4: AC3, 2 ch, 192 Kbps - АнглийскийАнглийский, DUB
    Аудио5: AC3, 2 ch, 192 Kbps - ФранцузскийФранцузский
    Субтитры: английские

    Как за несколько секунд удалить ненужные аудиодорожки и субтитры (Внимание! После удаления вы не сможете поддержать раздачу)


    Лог (x265 info)x265 [info]: frame I: 559, Avg QP:18.09 kb/s: 21118.47
    x265 [info]: frame P: 23339, Avg QP:19.47 kb/s: 15549.47
    x265 [info]: frame B: 109086, Avg QP:21.34 kb/s: 8501.32
    x265 [info]: Weighted P-Frames: Y:6.6% UV:4.2%
    x265 [info]: Weighted B-Frames: Y:5.8% UV:2.8%
    x265 [info]: encoded 132984 frames in 116629.66s (1.14 fps), 9791.32 kb/s, Avg QP:21.00
    МедиаинфоОбщее
    Уникальный идентификатор : 312377431272667352083315996066215755698 (0xEB01B473451A489E72AA7B8599A1FFB2)
    Полное имя : \\.\04.Эммануэль.4.Emmanuelle IV.1984.BDRip-HEVC.1080p.mkv
    Формат : Matroska
    Версия формата : Version 4
    Размер файла : 6,94 Гбайт
    Продолжительность : 1 ч. 32 мин.
    Общий битрейт : 10,8 Мбит/сек
    Частота кадров : 23,976 кадра/сек
    Название фильма : Эммануэль 4 / Эммануэль 4
    Кодирование выполнил : OldGamer
    Тип содержимого : Movie
    Дата выпуска : 1984-02-15
    Дата записи : 1984-02-15
    Программа кодирования : mkvmerge v85.0 ('Shame For You') 64-bit
    Библиотека кодирования : libebml v1.4.5 + libmatroska v1.7.1 / xvid4psp5
    Обложка : Yes
    Attachments : cover.jpg
    ACTOR : Сильвия Кристель, Mia Nygren, Patrick Bauchau, Deborah Power, Sophie Berger, Gérard Dimiglio, Sonja Martin, Christian Marquand, Marilyn Jess, Isabelle Estelle, Christoph Clark, Gérard-Antoine Huart, David Jalil, Fabrice Luchini, Xavier Fultot, Christ...
    ARTIST : Сильвия Кристель, Mia Nygren, Patrick Bauchau, Deborah Power, Sophie Berger, Gérard Dimiglio, Sonja Martin, Christian Marquand, Marilyn Jess, Isabelle Estelle, Christoph Clark, Gérard-Antoine Huart, David Jalil, Fabrice Luchini, Xavier Fultot, Christ...
    DIRECTOR : Francis Leroi, Iris Letans
    GENRE : драма, мелодрама
    LAW_RATING : R
    PRODUCER : Francis Giacobetti
    PRODUCTION_STUDIO : The Cannon Group
    RATING : R
    SYNOPSIS : Благодаря чудесам пластической хирургии легендарная Эммануэль преображается в юную прекрасную фотомодель и решительно меняет свой привычный круг общения. Используя чарующие изменения в своем внешнем облике, Эммануэль открывает на фоне романтических пейзажей Бразилии новые секреты своей сексуальности…

    Видео
    Идентификатор : 1
    Формат : HEVC
    Формат/Информация : High Efficiency Video Coding
    Профиль формата : Main 10@L4.1@High
    Идентификатор кодека : V_MPEGH/ISO/HEVC
    Продолжительность : 1 ч. 32 мин.
    Битрейт : 9 792 Кбит/сек
    Ширина : 1 800 пикселей
    Высота : 1 080 пикселей
    Соотношение сторон дисплея : 5:3
    Режим частоты кадров : Постоянный
    Частота кадров : 23,976 (24000/1001) кадра/сек
    Цветовое пространство : YUV
    Цветовая субдискретизация : 4:2:0
    Битовая глубина : 10 бит
    Бит/(Пиксели*Кадры) : 0.210
    Размер потока : 6,32 Гбайт (91%)
    Заголовок : Emmanuelle IV / Rip by OldGamer
    Библиотека кодирования : x265 3.6+27-8787e8702:[Windows][GCC 13.3.0][64 bit] 10bit
    Параметры библиотеки кодирования : cpuid=1111039 / frame-threads=3 / numa-pools=8 / wpp / no-pmode / no-pme / no-psnr / no-ssim / log-level=2 / input-csp=1 / input-res=1800x1080 / interlace=0 / total-frames=132984 / level-idc=41 / high-tier=1 / uhd-bd=0 / ref=5 / no-allow-non-conformance / no-repeat-headers / annexb / no-aud / no-eob / no-eos / no-hrd / info / hash=0 / temporal-layers=0 / open-gop / min-keyint=23 / keyint=240 / gop-lookahead=0 / bframes=16 / b-adapt=2 / b-pyramid / bframe-bias=0 / rc-lookahead=60 / lookahead-slices=0 / scenecut=40 / no-hist-scenecut / radl=0 / no-splice / no-intra-refresh / ctu=32 / min-cu-size=8 / rect / amp / max-tu-size=32 / tu-inter-depth=4 / tu-intra-depth=4 / limit-tu=1 / rdoq-level=2 / dynamic-rd=0.00 / no-ssim-rd / signhide / no-tskip / nr-intra=0 / nr-inter=0 / no-constrained-intra / no-strong-intra-smoothing / max-merge=5 / limit-refs=3 / no-limit-modes / me=3 / subme=7 / merange=57 / temporal-mvp / no-frame-dup / no-hme / weightp / weightb / no-analyze-src-pics / deblock=-2:-2 / no-sao / no-sao-non-deblock / rd=6 / selective-sao=0 / no-early-skip / no-rskip / no-fast-intra / no-tskip-fast / no-cu-lossless / b-intra / no-splitrd-skip / rdpenalty=0 / psy-rd=2.00 / psy-rdoq=1.00 / no-rd-refine / no-lossless / cbqpoffs=0 / crqpoffs=0 / rc=crf / crf=20.2 / qcomp=0.60 / qpstep=4 / stats-write=0 / stats-read=0 / vbv-maxrate=50000 / vbv-bufsize=50000 / vbv-init=0.9 / min-vbv-fullness=50.0 / max-vbv-fullness=80.0 / crf-max=0.0 / crf-min=0.0 / ipratio=1.40 / pbratio=1.30 / aq-mode=1 / aq-strength=1.00 / no-cutree / zone-count=1 / zones: / start-frame=129984 / end-frame=132984 / qp=36 / no-strict-cbr / qg-size=32 / no-rc-grain / qpmax=69 / qpmin=0 / no-const-vbv / sar=1 / overscan=0 / videoformat=5 / range=0 / colorprim=2 / transfer=2 / colormatrix=2 / chromaloc=0 / display-window=0 / cll=0,0 / min-luma=0 / max-luma=1023 / log2-max-poc-lsb=8 / vui-timing-info / vui-hrd-info / slices=1 / no-opt-qp-pps / no-opt-ref-list-length-pps / no-multi-pass-opt-rps / scenecut-bias=0.00 / no-opt-cu-delta-qp / no-aq-motion / no-hdr10 / no-hdr10-opt / no-dhdr10-opt / no-idr-recovery-sei / analysis-reuse-level=0 / analysis-save-reuse-level=0 / analysis-load-reuse-level=0 / scale-factor=0 / refine-intra=0 / refine-inter=0 / refine-mv=1 / refine-ctu-distortion=0 / no-limit-sao / ctu-info=0 / no-lowpass-dct / refine-analysis-type=0 / copy-pic=1 / max-ausize-factor=1.0 / no-dynamic-refine / no-single-sei / no-hevc-aq / no-svt / no-field / qp-adaptation-range=1.00 / scenecut-aware-qp=0conformance-window-offsets / right=0 / bottom=0 / decoder-max-rate=0 / no-vbv-live-multi-pass / no-mcstf / no-sbrc
    Язык : Английский
    По умолчанию : Да
    Принудительно : Нет

    Аудио #1
    Идентификатор : 2
    Формат : AC-3
    Формат/Информация : Audio Coding 3
    Коммерческое название : Dolby Digital
    Идентификатор кодека : A_AC3
    Продолжительность : 1 ч. 32 мин.
    Вид битрейта : Постоянный
    Битрейт : 192 Кбит/сек
    Канал(-ы) : 2 канала
    Расположение каналов : L R
    Частота дискретизации : 48,0 КГц
    Частота кадров : 31,250 кадров/сек (1536 SPF)
    Метод сжатия : С потерями
    Размер потока : 127 Мбайт (2%)
    Заголовок : MVO (Студия Ракурс)
    Язык : Русский
    Вид сервиса : Complete Main
    По умолчанию : Да
    Принудительно : Нет
    Нормализация звука речи : -27 dB
    compr : -0.28 dB
    dialnorm_Average : -27 dB
    dialnorm_Minimum : -27 dB
    dialnorm_Maximum : -27 dB

    Аудио #2
    Идентификатор : 3
    Формат : AC-3
    Формат/Информация : Audio Coding 3
    Коммерческое название : Dolby Digital
    Идентификатор кодека : A_AC3
    Продолжительность : 1 ч. 32 мин.
    Вид битрейта : Постоянный
    Битрейт : 192 Кбит/сек
    Канал(-ы) : 2 канала
    Расположение каналов : L R
    Частота дискретизации : 48,0 КГц
    Частота кадров : 31,250 кадров/сек (1536 SPF)
    Метод сжатия : С потерями
    Размер потока : 127 Мбайт (2%)
    Заголовок : MVO
    Язык : Русский
    Вид сервиса : Complete Main
    По умолчанию : Нет
    Принудительно : Нет
    Нормализация звука речи : -27 dB
    compr : -0.28 dB
    dialnorm_Average : -27 dB
    dialnorm_Minimum : -27 dB
    dialnorm_Maximum : -27 dB

    Аудио #3
    Идентификатор : 4
    Формат : AC-3
    Формат/Информация : Audio Coding 3
    Коммерческое название : Dolby Digital
    Идентификатор кодека : A_AC3
    Продолжительность : 1 ч. 32 мин.
    Вид битрейта : Постоянный
    Битрейт : 192 Кбит/сек
    Канал(-ы) : 2 канала
    Расположение каналов : L R
    Частота дискретизации : 48,0 КГц
    Частота кадров : 31,250 кадров/сек (1536 SPF)
    Метод сжатия : С потерями
    Размер потока : 127 Мбайт (2%)
    Заголовок : VO
    Язык : Русский
    Вид сервиса : Complete Main
    По умолчанию : Нет
    Принудительно : Нет
    Нормализация звука речи : -27 dB
    compr : -0.28 dB
    dialnorm_Average : -27 dB
    dialnorm_Minimum : -27 dB
    dialnorm_Maximum : -27 dB

    Аудио #4
    Идентификатор : 5
    Формат : AC-3
    Формат/Информация : Audio Coding 3
    Коммерческое название : Dolby Digital
    Идентификатор кодека : A_AC3
    Продолжительность : 1 ч. 32 мин.
    Вид битрейта : Постоянный
    Битрейт : 192 Кбит/сек
    Канал(-ы) : 2 канала
    Расположение каналов : L R
    Частота дискретизации : 48,0 КГц
    Частота кадров : 31,250 кадров/сек (1536 SPF)
    Метод сжатия : С потерями
    Размер потока : 127 Мбайт (2%)
    Язык : Английский
    Вид сервиса : Complete Main
    По умолчанию : Нет
    Принудительно : Нет
    Нормализация звука речи : -27 dB
    compr : -0.28 dB
    dsurmod : Not Dolby Surround encoded
    mixlevel : 285 dB
    roomtyp : Small
    dialnorm_Average : -27 dB
    dialnorm_Minimum : -27 dB
    dialnorm_Maximum : -27 dB

    Аудио #5
    Идентификатор : 6
    Формат : AC-3
    Формат/Информация : Audio Coding 3
    Коммерческое название : Dolby Digital
    Идентификатор кодека : A_AC3
    Продолжительность : 1 ч. 32 мин.
    Вид битрейта : Постоянный
    Битрейт : 192 Кбит/сек
    Канал(-ы) : 2 канала
    Расположение каналов : L R
    Частота дискретизации : 48,0 КГц
    Частота кадров : 31,250 кадров/сек (1536 SPF)
    Метод сжатия : С потерями
    Размер потока : 127 Мбайт (2%)
    Язык : Французский
    Вид сервиса : Complete Main
    По умолчанию : Нет
    Принудительно : Нет
    Нормализация звука речи : -27 dB
    compr : -0.28 dB
    dynrng : 1.94 dB
    dsurmod : Not Dolby Surround encoded
    mixlevel : 285 dB
    roomtyp : Small
    dialnorm_Average : -27 dB
    dialnorm_Minimum : -27 dB
    dialnorm_Maximum : -27 dB

    Текст
    Идентификатор : 7
    Формат : UTF-8
    Идентификатор кодека : S_TEXT/UTF8
    Идентификатор кодека/Информация : UTF-8 Plain Text
    Продолжительность : 1 ч. 28 мин.
    Битрейт : 39 бит/сек
    Частота кадров : 0,118 кадр/сек
    Число элементов : 626
    Размер потока : 25,6 КиБ (0%)
    Язык : Английский
    По умолчанию : Нет
    Принудительно : Нет

    Меню
    00:00:00.000 : en:Глава 01
    00:06:12.706 : en:Глава 02
    00:17:19.413 : en:Глава 03
    00:22:42.778 : en:Глава 04
    00:28:25.954 : en:Глава 05
    00:32:17.602 : en:Глава 06
    00:38:41.486 : en:Глава 07
    00:46:55.938 : en:Глава 08
    00:50:52.174 : en:Глава 09
    00:56:26.174 : en:Глава 10
    01:01:01.700 : en:Глава 11
    01:08:17.635 : en:Глава 12
    01:11:39.504 : en:Глава 13
    01:14:23.876 : en:Глава 14
    01:24:08.252 : en:Глава 15
    01:30:21.291 : en:Глава 16
    Загрузка...Cкриншот1 Эммануэль 4 / Emmanuelle IV (1984) BDRip 1080p [HEVC] 10 bit от OldGamerЗагрузка...Cкриншот2 Эммануэль 4 / Emmanuelle IV (1984) BDRip 1080p [HEVC] 10 bit от OldGamerЗагрузка...Cкриншот3 Эммануэль 4 / Emmanuelle IV (1984) BDRip 1080p [HEVC] 10 bit от OldGamerЗагрузка...Cкриншот4 Эммануэль 4 / Emmanuelle IV (1984) BDRip 1080p [HEVC] 10 bit от OldGamer

    Поблагодарили: 11AlexsBond, aquarius, Art1967, BalU, barmaley, Brooklyn, InSpector, kotkosten, nazarpavluwun, vserginbox, Winsent
    Файлы: 4
    • Emmanuelle
      • 7.37 ГБ01.Эммануэль.Emmanuelle.1974.BDRip-HEVC.1080p.mkv
      • 5.58 ГБ02.Эммануэль.2.Emmanuelle.L’antivierge.1975.BDRip-HEVC.1080p.mkv
      • 5.07 ГБ03.Прощай.Эммануэль.Goodbye.Emmanuelle.1977.BDRip-HEVC.1080p.mkv
      • 6.94 ГБ04.Эммануэль.4.Emmanuelle IV.1984.BDRip-HEVC.1080p.mkv

    Рейтинги КП и IMDB, кнопки "Раздайте, пожалуйста" и "Спасибо", а также мультитрекерная статистика доступны только зарегистрированным/авторизованным пользователям!

    OldGamer
    2133220(4) 24.97 ГБ

    💬︎ Комментарии

    Добавление комментариев доступно только зарегистрированным/авторизованным пользователям.