Чат

⚫︎
Список изменений сайта - https://rips.club/changelog.html (обновлен 24.05.2024)
  • arwis
Онлайн (за 10 мин.): 1
Отправка сообщений доступна только зарегистрированным/авторизованным пользователям.

🎥︎Жил-был Тигр / Ek Tha Tiger (2012) BDRip 1080p [HEVC] 10 bit от OldGamer (RG RIPS CLUB)


Обложка Жил-был Тигр / Ek Tha Tiger (2012) BDRip 1080p [HEVC] 10 bit от OldGamer (RG RIPS CLUB)
HEVC
10 bit
✂︎Сэмпл⤓︎Торрент🧲︎Магнет$Пожертвования

При перезаливке на другие сайты просьба указать автора и релиз-группу.


Год: 2012
Страна: Индия
Студия: CounterPunch Studios, Fantastic Films Ltd., Prime Focus, Yash Raj Films Pvt. Ltd.
Жанр: Боевик, Мелодрама
Длительность: 02:13:00

Режиссер: Кабир Кхан
В ролях: Салман Кхан, Катрина Каиф, Гириш Карнад, Ранвир Шори, Рошан Сет, Гави Чахал, Раджендра Сетхи, Авинаш Бадал, Бхупеш Сингх, Санджай Гурбаксани

Описание: Индийский спецагент по прозвищу Тигр во время очередной миссии влюбляется в очаровательную танцовщицу Зою — помощницу учёного, который подозревается в продаже секретных технологий пакистанской разведке.


Релиз-группа: RIPS CLUB
Исходник: Blu-Ray Remux 1080p (kinozal)
Видео: 1920x816, ~11.6 Mbps
Аудио1: AC3, 6 ch, 384 Kbps - РусскийРусский, DUB (RuFilms)
Аудио2: AC3, 2 ch, 192 Kbps - РусскийРусский, MVO (SDI Media)
Аудио3: AC3, 6 ch, 448 Kbps - РусскийРусский, MVO (ICG), любительский
Аудио4: AC3, 6 ch, 448 Kbps - РусскийРусский, VO (Вячеслав Замез)
Аудио5: AC3, 6 ch, 640 Kbps - Индийский
Субтитры: русские (full, forced), английские

Как за несколько секунд удалить ненужные аудиодорожки и субтитры (Внимание! После удаления вы не сможете поддержать раздачу)


Лог (x265 info)x265 [info]: frame I: 811, Avg QP:18.31 kb/s: 28929.34
x265 [info]: frame P: 40779, Avg QP:19.77 kb/s: 21787.39
x265 [info]: frame B: 149931, Avg QP:21.80 kb/s: 8785.40
x265 [info]: Weighted P-Frames: Y:3.6% UV:3.0%
x265 [info]: Weighted B-Frames: Y:3.0% UV:2.4%
x265 [info]: encoded 191521 frames in 155941.26s (1.23 fps), 11639.10 kb/s, Avg QP:21.35
МедиаинфоОбщее
Уникальный идентификатор : 242498916470871271234723577481846023106 (0xB66F97AC327CCA4DAF5A0BA238AF63C2)
Полное имя : \\.\Жил-был.Тигр.Ek.Tha.Tiger.2012.BDRip-HEVC.1080p.mkv
Формат : Matroska
Версия формата : Version 4
Размер файла : 12,8 Гбайт
Продолжительность : 2 ч. 13 мин.
Общий битрейт : 13,8 Мбит/сек
Частота кадров : 24,000 кадра/сек
Название фильма : Жил-был Тигр / Жил-был Тигр
Кодирование выполнил : OldGamer
Тип содержимого : Movie
Дата выпуска : 2012-08-15
Дата записи : 2012-08-15
Программа кодирования : mkvmerge v85.0 ('Shame For You') 64-bit
Библиотека кодирования : libebml v1.4.5 + libmatroska v1.7.1 / xvid4psp5
Обложка : Yes
Attachments : cover.jpg
ACTOR : Salman Khan, Katrina Kaif, Girish Karnad, Ranvir Shorey, Gavie Chahal, Roshan Seth, Rajendra Sethi, Ahran Chaudhary, Bhupesh Singh, Sanjay Gurbaxani, Troi Ge, Avinash Badal, Ashok Awasthi, Samar Jaisingh, Juhi Parmar, Zarksis Khandhadia, Yogi Raj, Ra...
ARTIST : Salman Khan, Katrina Kaif, Girish Karnad, Ranvir Shorey, Gavie Chahal, Roshan Seth, Rajendra Sethi, Ahran Chaudhary, Bhupesh Singh, Sanjay Gurbaxani, Troi Ge, Avinash Badal, Ashok Awasthi, Samar Jaisingh, Juhi Parmar, Zarksis Khandhadia, Yogi Raj, Ra...
DIRECTOR : Kabir Khan
GENRE : боевик, приключения, триллер, драма, мелодрама
PRODUCER : Aditya Chopra
PRODUCTION_STUDIO : Prime Focus
SCREENPLAY_BY : Kabir Khan, Neelesh Misra
SYNOPSIS : Индийский спецагент по прозвищу Тигр во время очередной миссии влюбляется в очаровательную танцовщицу Зою — помощницу учёного, который подозревается в продаже секретных технологий пакистанской разведке.
WRITTEN_BY : Kabir Khan, Neelesh Misra

Видео
Идентификатор : 1
Формат : HEVC
Формат/Информация : High Efficiency Video Coding
Профиль формата : Main 10@L4.1@High
Идентификатор кодека : V_MPEGH/ISO/HEVC
Продолжительность : 2 ч. 13 мин.
Битрейт : 11,6 Мбит/сек
Ширина : 1 920 пикселей
Высота : 816 пикселей
Соотношение сторон дисплея : 2,35:1
Режим частоты кадров : Постоянный
Частота кадров : 24,000 кадра/сек
Цветовое пространство : YUV
Цветовая субдискретизация : 4:2:0
Битовая глубина : 10 бит
Бит/(Пиксели*Кадры) : 0.310
Размер потока : 10,8 Гбайт (85%)
Заголовок : Ek Tha Tiger / Rip by OldGamer
Библиотека кодирования : x265 3.6+12-f3c5fbaff:[Windows][GCC 14.1.0][64 bit] 10bit
Параметры библиотеки кодирования : cpuid=1111039 / frame-threads=3 / numa-pools=8 / wpp / no-pmode / no-pme / no-psnr / no-ssim / log-level=2 / input-csp=1 / input-res=1920x816 / interlace=0 / total-frames=191521 / level-idc=41 / high-tier=1 / uhd-bd=0 / ref=5 / no-allow-non-conformance / no-repeat-headers / annexb / no-aud / no-eob / no-eos / no-hrd / info / hash=0 / temporal-layers=0 / open-gop / min-keyint=23 / keyint=240 / gop-lookahead=0 / bframes=16 / b-adapt=2 / b-pyramid / bframe-bias=0 / rc-lookahead=60 / lookahead-slices=0 / scenecut=40 / no-hist-scenecut / radl=0 / no-splice / no-intra-refresh / ctu=32 / min-cu-size=8 / rect / amp / max-tu-size=32 / tu-inter-depth=4 / tu-intra-depth=4 / limit-tu=1 / rdoq-level=2 / dynamic-rd=0.00 / no-ssim-rd / signhide / no-tskip / nr-intra=0 / nr-inter=0 / no-constrained-intra / no-strong-intra-smoothing / max-merge=5 / limit-refs=3 / no-limit-modes / me=3 / subme=7 / merange=57 / temporal-mvp / no-frame-dup / no-hme / weightp / weightb / no-analyze-src-pics / deblock=-2:-2 / no-sao / no-sao-non-deblock / rd=6 / selective-sao=0 / no-early-skip / no-rskip / no-fast-intra / no-tskip-fast / no-cu-lossless / b-intra / no-splitrd-skip / rdpenalty=0 / psy-rd=2.00 / psy-rdoq=1.00 / no-rd-refine / no-lossless / cbqpoffs=0 / crqpoffs=0 / rc=crf / crf=19.5 / qcomp=0.60 / qpstep=4 / stats-write=0 / stats-read=0 / vbv-maxrate=50000 / vbv-bufsize=50000 / vbv-init=0.9 / min-vbv-fullness=50.0 / max-vbv-fullness=80.0 / crf-max=0.0 / crf-min=0.0 / ipratio=1.40 / pbratio=1.30 / aq-mode=1 / aq-strength=1.00 / no-cutree / zone-count=1 / zones: / start-frame=191245 / end-frame=191521 / qp=36 / no-strict-cbr / qg-size=32 / no-rc-grain / qpmax=69 / qpmin=0 / no-const-vbv / sar=1 / overscan=0 / videoformat=5 / range=0 / colorprim=2 / transfer=2 / colormatrix=2 / chromaloc=0 / display-window=0 / cll=0,0 / min-luma=0 / max-luma=1023 / log2-max-poc-lsb=8 / vui-timing-info / vui-hrd-info / slices=1 / no-opt-qp-pps / no-opt-ref-list-length-pps / no-multi-pass-opt-rps / scenecut-bias=0.00 / no-opt-cu-delta-qp / no-aq-motion / no-hdr10 / no-hdr10-opt / no-dhdr10-opt / no-idr-recovery-sei / analysis-reuse-level=0 / analysis-save-reuse-level=0 / analysis-load-reuse-level=0 / scale-factor=0 / refine-intra=0 / refine-inter=0 / refine-mv=1 / refine-ctu-distortion=0 / no-limit-sao / ctu-info=0 / no-lowpass-dct / refine-analysis-type=0 / copy-pic=1 / max-ausize-factor=1.0 / no-dynamic-refine / no-single-sei / no-hevc-aq / no-svt / no-field / qp-adaptation-range=1.00 / scenecut-aware-qp=0conformance-window-offsets / right=0 / bottom=0 / decoder-max-rate=0 / no-vbv-live-multi-pass / no-mcstf / no-sbrc
Язык : Хинди
По умолчанию : Да
Принудительно : Нет

Аудио #1
Идентификатор : 2
Формат : AC-3
Формат/Информация : Audio Coding 3
Коммерческое название : Dolby Digital
Идентификатор кодека : A_AC3
Продолжительность : 2 ч. 12 мин.
Вид битрейта : Постоянный
Битрейт : 384 Кбит/сек
Канал(-ы) : 6 каналов
Расположение каналов : L R C LFE Ls Rs
Частота дискретизации : 48,0 КГц
Частота кадров : 31,250 кадров/сек (1536 SPF)
Метод сжатия : С потерями
Размер потока : 365 Мбайт (3%)
Заголовок : DUB (RuFilms)
Язык : Русский
Вид сервиса : Complete Main
По умолчанию : Да
Принудительно : Нет
Нормализация звука речи : -31 dB
cmixlev : -4.5 dB
surmixlev : -6 dB
dialnorm_Average : -31 dB
dialnorm_Minimum : -31 dB
dialnorm_Maximum : -31 dB

Аудио #2
Идентификатор : 3
Формат : AC-3
Формат/Информация : Audio Coding 3
Коммерческое название : Dolby Digital
Идентификатор кодека : A_AC3
Продолжительность : 2 ч. 13 мин.
Вид битрейта : Постоянный
Битрейт : 192 Кбит/сек
Канал(-ы) : 2 канала
Расположение каналов : L R
Частота дискретизации : 48,0 КГц
Частота кадров : 31,250 кадров/сек (1536 SPF)
Метод сжатия : С потерями
Размер потока : 183 Мбайт (1%)
Заголовок : MVO (SDI Media)
Язык : Русский
Вид сервиса : Complete Main
По умолчанию : Нет
Принудительно : Нет
Нормализация звука речи : -27 dB
compr : -0.28 dB
dialnorm_Average : -27 dB
dialnorm_Minimum : -27 dB
dialnorm_Maximum : -27 dB

Аудио #3
Идентификатор : 4
Формат : AC-3
Формат/Информация : Audio Coding 3
Коммерческое название : Dolby Digital
Идентификатор кодека : A_AC3
Продолжительность : 2 ч. 12 мин.
Вид битрейта : Постоянный
Битрейт : 448 Кбит/сек
Канал(-ы) : 6 каналов
Расположение каналов : L R C LFE Ls Rs
Частота дискретизации : 48,0 КГц
Частота кадров : 31,250 кадров/сек (1536 SPF)
Метод сжатия : С потерями
Размер потока : 426 Мбайт (3%)
Заголовок : MVO (ICG), любительский
Язык : Русский
Вид сервиса : Complete Main
По умолчанию : Нет
Принудительно : Нет
Нормализация звука речи : -27 dB
compr : -0.28 dB
cmixlev : -3.0 dB
surmixlev : -3 dB
dialnorm_Average : -27 dB
dialnorm_Minimum : -27 dB
dialnorm_Maximum : -27 dB

Аудио #4
Идентификатор : 5
Формат : AC-3
Формат/Информация : Audio Coding 3
Коммерческое название : Dolby Digital
Идентификатор кодека : A_AC3
Продолжительность : 2 ч. 13 мин.
Вид битрейта : Постоянный
Битрейт : 448 Кбит/сек
Канал(-ы) : 6 каналов
Расположение каналов : L R C LFE Ls Rs
Частота дискретизации : 48,0 КГц
Частота кадров : 31,250 кадров/сек (1536 SPF)
Метод сжатия : С потерями
Размер потока : 426 Мбайт (3%)
Заголовок : VO (Вячеслав Замез)
Язык : Русский
Вид сервиса : Complete Main
По умолчанию : Нет
Принудительно : Нет
Нормализация звука речи : -31 dB
compr : -0.28 dB
cmixlev : -3.0 dB
surmixlev : -3 dB
dialnorm_Average : -31 dB
dialnorm_Minimum : -31 dB
dialnorm_Maximum : -31 dB

Аудио #5
Идентификатор : 6
Формат : AC-3
Формат/Информация : Audio Coding 3
Коммерческое название : Dolby Digital
Идентификатор кодека : A_AC3
Продолжительность : 2 ч. 12 мин.
Вид битрейта : Постоянный
Битрейт : 640 Кбит/сек
Канал(-ы) : 6 каналов
Расположение каналов : L R C LFE Ls Rs
Частота дискретизации : 48,0 КГц
Частота кадров : 31,250 кадров/сек (1536 SPF)
Метод сжатия : С потерями
Размер потока : 608 Мбайт (5%)
Язык : Хинди
Вид сервиса : Complete Main
По умолчанию : Нет
Принудительно : Нет
Нормализация звука речи : -27 dB
compr : -0.28 dB
cmixlev : -3.0 dB
surmixlev : -3 dB
mixlevel : 285 dB
roomtyp : Small
dialnorm_Average : -27 dB
dialnorm_Minimum : -27 dB
dialnorm_Maximum : -27 dB

Текст #1
Идентификатор : 7
Формат : UTF-8
Идентификатор кодека : S_TEXT/UTF8
Идентификатор кодека/Информация : UTF-8 Plain Text
Продолжительность : 1 ч. 29 мин.
Битрейт : 13 бит/сек
Частота кадров : 0,026 кадр/сек
Число элементов : 139
Размер потока : 9,16 КиБ (0%)
Заголовок : На песни
Язык : Русский
По умолчанию : Да
Принудительно : Нет

Текст #2
Идентификатор : 8
Формат : UTF-8
Идентификатор кодека : S_TEXT/UTF8
Идентификатор кодека/Информация : UTF-8 Plain Text
Продолжительность : 2 ч. 12 мин.
Битрейт : 66 бит/сек
Частота кадров : 0,146 кадр/сек
Число элементов : 1155
Размер потока : 64,6 КиБ (0%)
Заголовок : Полные 1
Язык : Русский
По умолчанию : Нет
Принудительно : Нет

Текст #3
Идентификатор : 9
Формат : UTF-8
Идентификатор кодека : S_TEXT/UTF8
Идентификатор кодека/Информация : UTF-8 Plain Text
Продолжительность : 2 ч. 12 мин.
Битрейт : 71 бит/сек
Частота кадров : 0,149 кадр/сек
Число элементов : 1179
Размер потока : 68,7 КиБ (0%)
Заголовок : Полные 2
Язык : Русский
По умолчанию : Нет
Принудительно : Нет

Текст #4
Идентификатор : 10
Формат : UTF-8
Идентификатор кодека : S_TEXT/UTF8
Идентификатор кодека/Информация : UTF-8 Plain Text
Продолжительность : 2 ч. 7 мин.
Битрейт : 38 бит/сек
Частота кадров : 0,151 кадр/сек
Число элементов : 1156
Размер потока : 36,1 КиБ (0%)
Язык : Английский
По умолчанию : Нет
Принудительно : Нет

Меню
00:00:00.000 : en:00:00:00.000
00:03:16.625 : en:00:03:16.625
00:12:35.083 : en:00:12:35.083
00:19:20.167 : en:00:19:20.167
00:33:11.750 : en:00:33:11.750
00:37:31.792 : en:00:37:31.792
00:42:09.833 : en:00:42:09.833
00:45:54.000 : en:00:45:54.000
00:53:28.958 : en:00:53:28.958
00:59:31.917 : en:00:59:31.917
01:06:14.792 : en:01:06:14.792
01:16:52.625 : en:01:16:52.625
01:19:11.833 : en:01:19:11.833
01:36:18.792 : en:01:36:18.792
01:40:29.917 : en:01:40:29.917
01:54:36.875 : en:01:54:36.875
01:57:42.000 : en:01:57:42.000
02:08:06.458 : en:02:08:06.458
Загрузка...Cкриншот1 Жил-был Тигр / Ek Tha Tiger (2012) BDRip 1080p [HEVC] 10 bit от OldGamer (RG RIPS CLUB)Загрузка...Cкриншот2 Жил-был Тигр / Ek Tha Tiger (2012) BDRip 1080p [HEVC] 10 bit от OldGamer (RG RIPS CLUB)Загрузка...Cкриншот3 Жил-был Тигр / Ek Tha Tiger (2012) BDRip 1080p [HEVC] 10 bit от OldGamer (RG RIPS CLUB)Загрузка...Cкриншот4 Жил-был Тигр / Ek Tha Tiger (2012) BDRip 1080p [HEVC] 10 bit от OldGamer (RG RIPS CLUB)
Поблагодарили: 2Antilord90, Niflung
Файлы: 1
  • Жил-был.Тигр.Ek.Tha.Tiger.2012.BDRip-HEVC.1080p.mkv

Рейтинги КП и IMDB, кнопки "Раздайте, пожалуйста" и "Спасибо", а также мультитрекерная статистика доступны только зарегистрированным/авторизованным пользователям!

OldGamer
6037012.78 ГБ

💬︎ Комментарии

Добавление комментариев доступно только зарегистрированным/авторизованным пользователям.