Чат

⚫︎
Список изменений сайта - https://rips.club/changelog.html (обновлен 24.05.2024)
    Онлайн (за 10 мин.): 0
    Отправка сообщений доступна только зарегистрированным/авторизованным пользователям.

    🎥︎Доспехи Бога 2: Операция Кондор / The Armour Of God 2: Operation Condor / Fei ying gai wak (1991) [UK Hong Kong Version] BDRip 1080p [HEVC] 10 bit от OldGamer (RG RIPS CLUB)


    Обложка Доспехи Бога 2: Операция Кондор / The Armour Of God 2: Operation Condor / Fei ying gai wak (1991) [UK Hong Kong Version] BDRip 1080p [HEVC] 10 bit от OldGamer (RG RIPS CLUB)
    HEVC
    10 bit
    ✂︎Сэмпл⤓︎Торрент🧲︎Магнет$Пожертвования

    При перезаливке на другие сайты просьба указать автора и релиз-группу.


    Год: 1991
    Страна: Гонконг
    Студия: Golden Harvest Company Ltd., Golden Way Films Ltd., Paragon Films Ltd.
    Жанр: Боевик, Триллер, Комедия, Криминал
    Длительность: 01:47:12

    Режиссер: Джеки Чан
    В ролях: Джеки Чан, Кэрол Чэн, Ева Кобо, Сёко Икэда, Альдо Самбрель, Кен Гудман, Стиви Тарталия, Лин Персивал, Брюс Фонтейн, Уэйн Арчер

    Описание: Азиатский Ястреб возвращается! На этот раз ему предстоит новая работа, из-за которой наш герой опять приезжает в Мадрид. Некий загадочный миллионер предлагает Ястребу заняться поисками нацистских сокровищ, которые спрятаны в глубине африканской пустыни. Он передаёт ключ к сокровищнице, соглашается финансировать экспедицию и отправляет с Ястребом попутчицу - специалиста по Африке Аду. Во время своего пребывания в Мадриде Ястреб знакомится с немецкой девушкой Эльзой, которая разыскивает своего деда, пропавшего во время войны в Африке. После ряда приключений Эльза тоже присоединяется к экспедиции.


    Релиз-группа: RIPS CLUB
    Исходник: Blu-Ray Remux 1080p (kinozal)
    Видео: 1920x804, ~9834 Kbps
    Аудио1: AC3, 2 ch, 192 Kbps - РусскийРусский, MVO (Союз Видео)
    Аудио2: AC3, 2 ch, 192 Kbps - РусскийРусский, MVO (НТВ+)
    Аудио3: AC3, 2 ch, 192 Kbps - РусскийРусский, MVO (РТР)
    Аудио4: AC3, 6 ch, 448 Kbps - РусскийРусский, DVO (Пётр Гланц и Инна Королёва)
    Аудио5: AC3, 2 ch, 192 Kbps - РусскийРусский, DVO (НТВ)
    Аудио6: AC3, 2 ch, 192 Kbps - РусскийРусский, DVO (REN-TV)
    Аудио7: AC3, 2 ch, 640 Kbps - РусскийРусский, AVO (Андрей Гаврилов)
    Аудио8: AC3, 2 ch, 640 Kbps - РусскийРусский, AVO (Юрий Сербин)
    Аудио9: AC3, 2 ch, 192 Kbps - РусскийРусский, AVO (Андрей Дольский)
    Аудио10: AC3, 2 ch, 192 Kbps - РусскийРусский, AVO (Александр Кашкин)
    Аудио11: AC3, 2 ch, 192 Kbps - РусскийРусский, AVO (Владимир Сонькин)
    Аудио12: AC3, 2 ch, 192 Kbps - РусскийРусский, AVO (Неизвестный переводчик студии "Поликорн", Санкт-Петербург)
    Аудио13: AC3, 2 ch, 192 Kbps - РусскийРусский, AVO (Неизвестный переводчик "Мужчина №1", студия "Action studio", Ленинград)
    Аудио14: AC3, 2 ch, 192 Kbps - РусскийРусский, VO
    Аудио15: AC3, 2 ch, 640 Kbps - АнглийскийАнглийский, DUB
    Аудио16: AC3, 2 ch, 640 Kbps - КитайскийКитайский
    Субтитры: английские

    Как за несколько секунд удалить ненужные аудиодорожки и субтитры (Внимание! После удаления вы не сможете поддержать раздачу)


    Лог (x265 info)x265 [info]: frame I: 650, Avg QP:15.98 kb/s: 24375.06
    x265 [info]: frame P: 31032, Avg QP:17.36 kb/s: 18345.03
    x265 [info]: frame B: 122542, Avg QP:19.15 kb/s: 7600.36
    x265 [info]: Weighted P-Frames: Y:9.8% UV:8.1%
    x265 [info]: Weighted B-Frames: Y:8.6% UV:6.7%
    x265 [info]: encoded 154224 frames in 107630.24s (1.43 fps), 9833.04 kb/s, Avg QP:18.78
    МедиаинфоОбщее
    Уникальный идентификатор : 247279109468961911300007755604601938735 (0xBA08396234F719891116BFCE8EE1232F)
    Полное имя : \\.\Доспехи.Бога.2.Операция.Кондор.Fei.ying.gai.wak.1991.UK.Hong.Kong.Version.BDRip-HEVC.1080p.mkv
    Формат : Matroska
    Версия формата : Version 4
    Размер файла : 11,2 Гбайт
    Продолжительность : 1 ч. 47 мин.
    Общий битрейт : 15,0 Мбит/сек
    Частота кадров : 23,976 кадра/сек
    Название фильма : Доспехи Бога 2: Операция Кондор / Доспехи Бога 2: Операция Кондор
    Кодирование выполнил : OldGamer
    Тип содержимого : Movie
    Дата выпуска : 1991-02-07
    Дата записи : 1991-02-07
    Программа кодирования : mkvmerge v83.0 ('Circle Of Friends') 64-bit
    Библиотека кодирования : libebml v1.4.5 + libmatroska v1.7.1 / xvid4psp5
    Обложка : Yes
    Attachments : cover.jpg
    ACTOR : Джеки Чан, Carol Cheng, Eva Cobo, Shôko Ikeda, Vincent Lyn, Jonathan Isgar, Božidar Smiljanić, Aldo Sambrell, Ken Lo, Winston Ellis, Steve Tartalia, John Ladalski, Mark King, Dan Mintz, Ken Goodman, Wayne Archer, Bruce Fontaine, Chen Chi-Hwa, Charles...
    ARTIST : Джеки Чан, Carol Cheng, Eva Cobo, Shôko Ikeda, Vincent Lyn, Jonathan Isgar, Božidar Smiljanić, Aldo Sambrell, Ken Lo, Winston Ellis, Steve Tartalia, John Ladalski, Mark King, Dan Mintz, Ken Goodman, Wayne Archer, Bruce Fontaine, Chen Chi-Hwa, Charles...
    DIRECTOR : Джеки Чан
    GENRE : боевик, приключения, криминал, триллер
    LAW_RATING : PG-13
    PRODUCER : Leonard Ho
    PRODUCTION_STUDIO : Orange Sky Golden Harvest
    RATING : PG-13
    SCREENPLAY_BY : Джеки Чан, Edward Tang
    SYNOPSIS : Азиатский Ястреб возвращается! На этот раз ему предстоит новая работа, из-за которой наш герой опять приезжает в Мадрид. Некий загадочный миллионер предлагает Ястребу заняться поисками нацистских сокровищ, которые спрятаны в глубине африканской пустыни. Он передает ключ к сокровищнице, соглашается финансировать экспедицию и отправляет с Ястребом попутчицу — специалиста по Африке Аду.Во-время, своего пребывания в Мадриде, Ястреб знакомится с немецкой девушкой Эльзой, которая разыскивает своего деда, пропавшего во время войны в Африке. После ряда приключений Эльза тоже присоединяется к экспедиции.
    WRITTEN_BY : Джеки Чан, Edward Tang

    Видео
    Идентификатор : 1
    Формат : HEVC
    Формат/Информация : High Efficiency Video Coding
    Профиль формата : Main 10@L4.1@High
    Идентификатор кодека : V_MPEGH/ISO/HEVC
    Продолжительность : 1 ч. 47 мин.
    Битрейт : 9 834 Кбит/сек
    Ширина : 1 920 пикселей
    Высота : 804 пикселя
    Соотношение сторон дисплея : 2,39:1
    Режим частоты кадров : Постоянный
    Частота кадров : 23,976 (24000/1001) кадра/сек
    Цветовое пространство : YUV
    Цветовая субдискретизация : 4:2:0
    Битовая глубина : 10 бит
    Бит/(Пиксели*Кадры) : 0.266
    Размер потока : 7,36 Гбайт (66%)
    Заголовок : Armour Of God 2 / Rip by OldGamer
    Библиотека кодирования : x265 3.5+110-8ee01d45b:[Windows][GCC 13.2.0][64 bit] 10bit
    Параметры библиотеки кодирования : cpuid=1111039 / frame-threads=4 / numa-pools=16 / wpp / no-pmode / no-pme / no-psnr / no-ssim / log-level=2 / input-csp=1 / input-res=1920x804 / interlace=0 / total-frames=154224 / level-idc=41 / high-tier=1 / uhd-bd=0 / ref=5 / no-allow-non-conformance / no-repeat-headers / annexb / no-aud / no-eob / no-eos / no-hrd / info / hash=0 / temporal-layers=0 / open-gop / min-keyint=23 / keyint=240 / gop-lookahead=0 / bframes=16 / b-adapt=2 / b-pyramid / bframe-bias=0 / rc-lookahead=40 / lookahead-slices=0 / scenecut=40 / no-hist-scenecut / radl=0 / no-splice / no-intra-refresh / ctu=32 / min-cu-size=8 / rect / amp / max-tu-size=32 / tu-inter-depth=4 / tu-intra-depth=4 / limit-tu=1 / rdoq-level=2 / dynamic-rd=0.00 / no-ssim-rd / signhide / no-tskip / nr-intra=0 / nr-inter=0 / no-constrained-intra / no-strong-intra-smoothing / max-merge=5 / limit-refs=3 / no-limit-modes / me=3 / subme=7 / merange=57 / temporal-mvp / no-frame-dup / no-hme / weightp / weightb / no-analyze-src-pics / deblock=-2:-2 / no-sao / no-sao-non-deblock / rd=6 / selective-sao=0 / no-early-skip / no-rskip / no-fast-intra / no-tskip-fast / no-cu-lossless / b-intra / no-splitrd-skip / rdpenalty=0 / psy-rd=2.00 / psy-rdoq=1.00 / no-rd-refine / no-lossless / cbqpoffs=0 / crqpoffs=0 / rc=crf / crf=19.0 / qcomp=0.70 / qpstep=4 / stats-write=0 / stats-read=0 / vbv-maxrate=50000 / vbv-bufsize=50000 / vbv-init=0.9 / min-vbv-fullness=50.0 / max-vbv-fullness=80.0 / crf-max=0.0 / crf-min=0.0 / ipratio=1.40 / pbratio=1.30 / aq-mode=1 / aq-strength=1.00 / no-cutree / zone-count=0 / no-strict-cbr / qg-size=32 / no-rc-grain / qpmax=69 / qpmin=0 / no-const-vbv / sar=1 / overscan=0 / videoformat=5 / range=0 / colorprim=2 / transfer=2 / colormatrix=2 / chromaloc=0 / display-window=0 / cll=0,0 / min-luma=0 / max-luma=1023 / log2-max-poc-lsb=8 / vui-timing-info / vui-hrd-info / slices=1 / no-opt-qp-pps / no-opt-ref-list-length-pps / no-multi-pass-opt-rps / scenecut-bias=0.00 / no-opt-cu-delta-qp / no-aq-motion / no-hdr10 / no-hdr10-opt / no-dhdr10-opt / no-idr-recovery-sei / analysis-reuse-level=0 / analysis-save-reuse-level=0 / analysis-load-reuse-level=0 / scale-factor=0 / refine-intra=0 / refine-inter=0 / refine-mv=1 / refine-ctu-distortion=0 / no-limit-sao / ctu-info=0 / no-lowpass-dct / refine-analysis-type=0 / copy-pic=1 / max-ausize-factor=1.0 / no-dynamic-refine / no-single-sei / no-hevc-aq / no-svt / no-field / qp-adaptation-range=1.00 / scenecut-aware-qp=0conformance-window-offsets / right=0 / bottom=0 / decoder-max-rate=0 / no-vbv-live-multi-pass / no-mcstf / no-sbrc
    Язык : Английский
    По умолчанию : Да
    Принудительно : Нет

    Аудио #1
    Идентификатор : 2
    Формат : AC-3
    Формат/Информация : Audio Coding 3
    Коммерческое название : Dolby Digital
    Идентификатор кодека : A_AC3
    Продолжительность : 1 ч. 47 мин.
    Вид битрейта : Постоянный
    Битрейт : 192 Кбит/сек
    Канал(-ы) : 2 канала
    Расположение каналов : L R
    Частота дискретизации : 48,0 КГц
    Частота кадров : 31,250 кадров/сек (1536 SPF)
    Метод сжатия : С потерями
    Размер потока : 147 Мбайт (1%)
    Заголовок : MVO (Союз Видео)
    Язык : Русский
    Вид сервиса : Complete Main
    По умолчанию : Нет
    Принудительно : Нет
    Нормализация звука речи : -27 dB
    compr : -0.28 dB
    dialnorm_Average : -27 dB
    dialnorm_Minimum : -27 dB
    dialnorm_Maximum : -27 dB

    Аудио #2
    Идентификатор : 3
    Формат : AC-3
    Формат/Информация : Audio Coding 3
    Коммерческое название : Dolby Digital
    Идентификатор кодека : A_AC3
    Продолжительность : 1 ч. 47 мин.
    Вид битрейта : Постоянный
    Битрейт : 192 Кбит/сек
    Канал(-ы) : 2 канала
    Расположение каналов : L R
    Частота дискретизации : 48,0 КГц
    Частота кадров : 31,250 кадров/сек (1536 SPF)
    Метод сжатия : С потерями
    Размер потока : 147 Мбайт (1%)
    Заголовок : MVO (НТВ+)
    Язык : Русский
    Вид сервиса : Complete Main
    По умолчанию : Нет
    Принудительно : Нет
    Нормализация звука речи : -27 dB
    compr : -0.28 dB
    dialnorm_Average : -27 dB
    dialnorm_Minimum : -27 dB
    dialnorm_Maximum : -27 dB

    Аудио #3
    Идентификатор : 4
    Формат : AC-3
    Формат/Информация : Audio Coding 3
    Коммерческое название : Dolby Digital
    Идентификатор кодека : A_AC3
    Продолжительность : 1 ч. 47 мин.
    Вид битрейта : Постоянный
    Битрейт : 192 Кбит/сек
    Канал(-ы) : 2 канала
    Расположение каналов : L R
    Частота дискретизации : 48,0 КГц
    Частота кадров : 31,250 кадров/сек (1536 SPF)
    Метод сжатия : С потерями
    Размер потока : 147 Мбайт (1%)
    Заголовок : MVO (РТР)
    Язык : Русский
    Вид сервиса : Complete Main
    По умолчанию : Нет
    Принудительно : Нет
    Нормализация звука речи : -27 dB
    compr : -0.28 dB
    dialnorm_Average : -27 dB
    dialnorm_Minimum : -27 dB
    dialnorm_Maximum : -27 dB

    Аудио #4
    Идентификатор : 5
    Формат : AC-3
    Формат/Информация : Audio Coding 3
    Коммерческое название : Dolby Digital
    Идентификатор кодека : A_AC3
    Продолжительность : 1 ч. 47 мин.
    Вид битрейта : Постоянный
    Битрейт : 448 Кбит/сек
    Канал(-ы) : 6 каналов
    Расположение каналов : L R C LFE Ls Rs
    Частота дискретизации : 48,0 КГц
    Частота кадров : 31,250 кадров/сек (1536 SPF)
    Метод сжатия : С потерями
    Размер потока : 344 Мбайт (3%)
    Заголовок : DVO (Пётр Гланц и Инна Королёва)
    Язык : Русский
    Вид сервиса : Complete Main
    По умолчанию : Нет
    Принудительно : Нет
    Нормализация звука речи : -27 dB
    compr : -0.28 dB
    cmixlev : -3.0 dB
    surmixlev : -3 dB
    dialnorm_Average : -27 dB
    dialnorm_Minimum : -27 dB
    dialnorm_Maximum : -27 dB

    Аудио #5
    Идентификатор : 6
    Формат : AC-3
    Формат/Информация : Audio Coding 3
    Коммерческое название : Dolby Digital
    Идентификатор кодека : A_AC3
    Продолжительность : 1 ч. 47 мин.
    Вид битрейта : Постоянный
    Битрейт : 192 Кбит/сек
    Канал(-ы) : 2 канала
    Расположение каналов : L R
    Частота дискретизации : 48,0 КГц
    Частота кадров : 31,250 кадров/сек (1536 SPF)
    Метод сжатия : С потерями
    Размер потока : 147 Мбайт (1%)
    Заголовок : DVO (НТВ)
    Язык : Русский
    Вид сервиса : Complete Main
    По умолчанию : Да
    Принудительно : Нет
    Нормализация звука речи : -27 dB
    compr : -0.28 dB
    dialnorm_Average : -27 dB
    dialnorm_Minimum : -27 dB
    dialnorm_Maximum : -27 dB

    Аудио #6
    Идентификатор : 7
    Формат : AC-3
    Формат/Информация : Audio Coding 3
    Коммерческое название : Dolby Digital
    Идентификатор кодека : A_AC3
    Продолжительность : 1 ч. 47 мин.
    Вид битрейта : Постоянный
    Битрейт : 192 Кбит/сек
    Канал(-ы) : 2 канала
    Расположение каналов : L R
    Частота дискретизации : 48,0 КГц
    Частота кадров : 31,250 кадров/сек (1536 SPF)
    Метод сжатия : С потерями
    Размер потока : 147 Мбайт (1%)
    Заголовок : DVO (REN-TV)
    Язык : Русский
    Вид сервиса : Complete Main
    По умолчанию : Нет
    Принудительно : Нет
    Нормализация звука речи : -27 dB
    compr : -0.28 dB
    dialnorm_Average : -27 dB
    dialnorm_Minimum : -27 dB
    dialnorm_Maximum : -27 dB

    Аудио #7
    Идентификатор : 8
    Формат : AC-3
    Формат/Информация : Audio Coding 3
    Коммерческое название : Dolby Digital
    Идентификатор кодека : A_AC3
    Продолжительность : 1 ч. 47 мин.
    Вид битрейта : Постоянный
    Битрейт : 640 Кбит/сек
    Канал(-ы) : 2 канала
    Расположение каналов : L R
    Частота дискретизации : 48,0 КГц
    Частота кадров : 31,250 кадров/сек (1536 SPF)
    Метод сжатия : С потерями
    Размер потока : 491 Мбайт (4%)
    Заголовок : AVO (Андрей Гаврилов)
    Язык : Русский
    Вид сервиса : Complete Main
    По умолчанию : Нет
    Принудительно : Нет
    Нормализация звука речи : -27 dB
    compr : -0.28 dB
    dynrng : -8.70 dB
    dsurmod : Not Dolby Surround encoded
    mixlevel : 285 dB
    roomtyp : Small
    dialnorm_Average : -27 dB
    dialnorm_Minimum : -27 dB
    dialnorm_Maximum : -27 dB

    Аудио #8
    Идентификатор : 9
    Формат : AC-3
    Формат/Информация : Audio Coding 3
    Коммерческое название : Dolby Digital
    Идентификатор кодека : A_AC3
    Продолжительность : 1 ч. 47 мин.
    Вид битрейта : Постоянный
    Битрейт : 640 Кбит/сек
    Канал(-ы) : 2 канала
    Расположение каналов : L R
    Частота дискретизации : 48,0 КГц
    Частота кадров : 31,250 кадров/сек (1536 SPF)
    Метод сжатия : С потерями
    Размер потока : 491 Мбайт (4%)
    Заголовок : AVO (Юрий Сербин)
    Язык : Русский
    Вид сервиса : Complete Main
    По умолчанию : Нет
    Принудительно : Нет
    Нормализация звука речи : -27 dB
    compr : -0.28 dB
    dynrng : -8.70 dB
    dsurmod : Not Dolby Surround encoded
    mixlevel : 285 dB
    roomtyp : Small
    dialnorm_Average : -27 dB
    dialnorm_Minimum : -27 dB
    dialnorm_Maximum : -27 dB

    Аудио #9
    Идентификатор : 10
    Формат : AC-3
    Формат/Информация : Audio Coding 3
    Коммерческое название : Dolby Digital
    Идентификатор кодека : A_AC3
    Продолжительность : 1 ч. 47 мин.
    Вид битрейта : Постоянный
    Битрейт : 192 Кбит/сек
    Канал(-ы) : 2 канала
    Расположение каналов : L R
    Частота дискретизации : 48,0 КГц
    Частота кадров : 31,250 кадров/сек (1536 SPF)
    Метод сжатия : С потерями
    Размер потока : 147 Мбайт (1%)
    Заголовок : AVO (Андрей Дольский)
    Язык : Русский
    Вид сервиса : Complete Main
    По умолчанию : Нет
    Принудительно : Нет
    Нормализация звука речи : -27 dB
    compr : -0.28 dB
    dialnorm_Average : -27 dB
    dialnorm_Minimum : -27 dB
    dialnorm_Maximum : -27 dB

    Аудио #10
    Идентификатор : 11
    Формат : AC-3
    Формат/Информация : Audio Coding 3
    Коммерческое название : Dolby Digital
    Идентификатор кодека : A_AC3
    Продолжительность : 1 ч. 47 мин.
    Вид битрейта : Постоянный
    Битрейт : 192 Кбит/сек
    Канал(-ы) : 2 канала
    Расположение каналов : L R
    Частота дискретизации : 48,0 КГц
    Частота кадров : 31,250 кадров/сек (1536 SPF)
    Метод сжатия : С потерями
    Размер потока : 147 Мбайт (1%)
    Заголовок : AVO (Александр Кашкин)
    Язык : Русский
    Вид сервиса : Complete Main
    По умолчанию : Нет
    Принудительно : Нет
    Нормализация звука речи : -27 dB
    compr : -0.28 dB
    dialnorm_Average : -27 dB
    dialnorm_Minimum : -27 dB
    dialnorm_Maximum : -27 dB

    Аудио #11
    Идентификатор : 12
    Формат : AC-3
    Формат/Информация : Audio Coding 3
    Коммерческое название : Dolby Digital
    Идентификатор кодека : A_AC3
    Продолжительность : 1 ч. 47 мин.
    Вид битрейта : Постоянный
    Битрейт : 192 Кбит/сек
    Канал(-ы) : 2 канала
    Расположение каналов : L R
    Частота дискретизации : 48,0 КГц
    Частота кадров : 31,250 кадров/сек (1536 SPF)
    Метод сжатия : С потерями
    Размер потока : 147 Мбайт (1%)
    Заголовок : AVO (Владимир Сонькин)
    Язык : Русский
    Вид сервиса : Complete Main
    По умолчанию : Нет
    Принудительно : Нет
    Нормализация звука речи : -27 dB
    compr : -0.28 dB
    dialnorm_Average : -27 dB
    dialnorm_Minimum : -27 dB
    dialnorm_Maximum : -27 dB

    Аудио #12
    Идентификатор : 13
    Формат : AC-3
    Формат/Информация : Audio Coding 3
    Коммерческое название : Dolby Digital
    Идентификатор кодека : A_AC3
    Продолжительность : 1 ч. 47 мин.
    Вид битрейта : Постоянный
    Битрейт : 192 Кбит/сек
    Канал(-ы) : 2 канала
    Расположение каналов : L R
    Частота дискретизации : 48,0 КГц
    Частота кадров : 31,250 кадров/сек (1536 SPF)
    Метод сжатия : С потерями
    Размер потока : 147 Мбайт (1%)
    Заголовок : AVO (Неизвестный переводчик студии "Поликорн", Санкт-Петербург)
    Язык : Русский
    Вид сервиса : Complete Main
    По умолчанию : Нет
    Принудительно : Нет
    Нормализация звука речи : -27 dB
    compr : -0.28 dB
    dialnorm_Average : -27 dB
    dialnorm_Minimum : -27 dB
    dialnorm_Maximum : -27 dB

    Аудио #13
    Идентификатор : 14
    Формат : AC-3
    Формат/Информация : Audio Coding 3
    Коммерческое название : Dolby Digital
    Идентификатор кодека : A_AC3
    Продолжительность : 1 ч. 47 мин.
    Вид битрейта : Постоянный
    Битрейт : 192 Кбит/сек
    Канал(-ы) : 2 канала
    Расположение каналов : L R
    Частота дискретизации : 48,0 КГц
    Частота кадров : 31,250 кадров/сек (1536 SPF)
    Метод сжатия : С потерями
    Размер потока : 147 Мбайт (1%)
    Заголовок : AVO (Неизвестный переводчик "Мужчина №1", студия "Action studio", Ленинград)
    Язык : Русский
    Вид сервиса : Complete Main
    По умолчанию : Нет
    Принудительно : Нет
    Нормализация звука речи : -27 dB
    compr : -0.28 dB
    dialnorm_Average : -27 dB
    dialnorm_Minimum : -27 dB
    dialnorm_Maximum : -27 dB

    Аудио #14
    Идентификатор : 15
    Формат : AC-3
    Формат/Информация : Audio Coding 3
    Коммерческое название : Dolby Digital
    Идентификатор кодека : A_AC3
    Продолжительность : 1 ч. 47 мин.
    Вид битрейта : Постоянный
    Битрейт : 192 Кбит/сек
    Канал(-ы) : 2 канала
    Расположение каналов : L R
    Частота дискретизации : 48,0 КГц
    Частота кадров : 31,250 кадров/сек (1536 SPF)
    Метод сжатия : С потерями
    Размер потока : 147 Мбайт (1%)
    Заголовок : VO
    Язык : Русский
    Вид сервиса : Complete Main
    По умолчанию : Нет
    Принудительно : Нет
    Нормализация звука речи : -27 dB
    compr : -0.28 dB
    dialnorm_Average : -27 dB
    dialnorm_Minimum : -27 dB
    dialnorm_Maximum : -27 dB

    Аудио #15
    Идентификатор : 16
    Формат : AC-3
    Формат/Информация : Audio Coding 3
    Коммерческое название : Dolby Digital
    Идентификатор кодека : A_AC3
    Продолжительность : 1 ч. 47 мин.
    Вид битрейта : Постоянный
    Битрейт : 640 Кбит/сек
    Канал(-ы) : 2 канала
    Расположение каналов : L R
    Частота дискретизации : 48,0 КГц
    Частота кадров : 31,250 кадров/сек (1536 SPF)
    Метод сжатия : С потерями
    Размер потока : 491 Мбайт (4%)
    Язык : Английский
    Вид сервиса : Complete Main
    По умолчанию : Нет
    Принудительно : Нет
    Нормализация звука речи : -27 dB
    compr : -0.28 dB
    dynrng : 10.24 dB
    dsurmod : Not Dolby Surround encoded
    mixlevel : 285 dB
    roomtyp : Small
    dialnorm_Average : -27 dB
    dialnorm_Minimum : -27 dB
    dialnorm_Maximum : -27 dB

    Аудио #16
    Идентификатор : 17
    Формат : AC-3
    Формат/Информация : Audio Coding 3
    Коммерческое название : Dolby Digital
    Идентификатор кодека : A_AC3
    Продолжительность : 1 ч. 47 мин.
    Вид битрейта : Постоянный
    Битрейт : 640 Кбит/сек
    Канал(-ы) : 2 канала
    Расположение каналов : L R
    Частота дискретизации : 48,0 КГц
    Частота кадров : 31,250 кадров/сек (1536 SPF)
    Метод сжатия : С потерями
    Размер потока : 491 Мбайт (4%)
    Язык : Китайский
    Вид сервиса : Complete Main
    По умолчанию : Нет
    Принудительно : Нет
    Нормализация звука речи : -27 dB
    compr : -0.28 dB
    dynrng : -19.70 dB
    dsurmod : Not Dolby Surround encoded
    mixlevel : 285 dB
    roomtyp : Small
    dialnorm_Average : -27 dB
    dialnorm_Minimum : -27 dB
    dialnorm_Maximum : -27 dB

    Текст
    Идентификатор : 18
    Формат : UTF-8
    Идентификатор кодека : S_TEXT/UTF8
    Идентификатор кодека/Информация : UTF-8 Plain Text
    Продолжительность : 1 ч. 45 мин.
    Битрейт : 58 бит/сек
    Частота кадров : 0,203 кадр/сек
    Число элементов : 1282
    Размер потока : 45,1 КиБ (0%)
    Язык : Английский
    По умолчанию : Нет
    Принудительно : Нет

    Меню
    00:00:00.000 : en:Глава 01
    00:08:48.000 : en:Глава 02
    00:17:42.000 : en:Глава 03
    00:27:08.000 : en:Глава 04
    00:34:00.000 : en:Глава 05
    00:46:48.000 : en:Глава 06
    00:57:19.000 : en:Глава 07
    01:04:52.000 : en:Глава 08
    01:14:02.000 : en:Глава 09
    01:23:09.000 : en:Глава 10
    01:31:17.000 : en:Глава 11
    01:42:24.000 : en:Глава 12
    01:47:10.000 : en:Глава 13
    Загрузка...Cкриншот1 Доспехи Бога 2: Операция Кондор / The Armour Of God 2: Operation Condor / Fei ying gai wak (1991) [UK Hong Kong Version] BDRip 1080p [HEVC] 10 bit от OldGamer (RG RIPS CLUB)Загрузка...Cкриншот2 Доспехи Бога 2: Операция Кондор / The Armour Of God 2: Operation Condor / Fei ying gai wak (1991) [UK Hong Kong Version] BDRip 1080p [HEVC] 10 bit от OldGamer (RG RIPS CLUB)Загрузка...Cкриншот3 Доспехи Бога 2: Операция Кондор / The Armour Of God 2: Operation Condor / Fei ying gai wak (1991) [UK Hong Kong Version] BDRip 1080p [HEVC] 10 bit от OldGamer (RG RIPS CLUB)Загрузка...Cкриншот4 Доспехи Бога 2: Операция Кондор / The Armour Of God 2: Operation Condor / Fei ying gai wak (1991) [UK Hong Kong Version] BDRip 1080p [HEVC] 10 bit от OldGamer (RG RIPS CLUB)

    Сравнение скриншотов:
    https://caps-a-holic.com/c_list.php?c=5535


    Поблагодарили: 11A1eksandr1, AlexsBond, and50, AndresUA, Antilord90, Kiran, MIGRANT, SaN161NeK, stickstoff, vserginbox, Winsent
    Файлы: 1
    • Доспехи.Бога.2.Операция.Кондор.Fei.ying.gai.wak.1991.UK.Hong.Kong.Version.BDRip-HEVC.1080p.mkv

    Рейтинги КП и IMDB, кнопки "Раздайте, пожалуйста" и "Спасибо", а также мультитрекерная статистика доступны только зарегистрированным/авторизованным пользователям!

    OldGamer
    153143011.2 ГБ

    💬︎ Комментарии

    Добавление комментариев доступно только зарегистрированным/авторизованным пользователям.