Чат

⚫︎
Список изменений сайта - https://rips.club/changelog.html (обновлен 24.05.2024)
  • arwis
Онлайн (за 10 мин.): 1
Отправка сообщений доступна только зарегистрированным/авторизованным пользователям.

🎥︎Доспехи Бога 3: Миссия Зодиак / Chinese Zodiac (2012) BDRip 1080p [HEVC] 10 bit от OldGamer (RG RIPS CLUB)


Обложка Доспехи Бога 3: Миссия Зодиак / Chinese Zodiac (2012) BDRip 1080p [HEVC] 10 bit от OldGamer (RG RIPS CLUB)
HEVC
10 bit
✂︎Сэмпл⤓︎Торрент🧲︎Магнет$Пожертвования

При перезаливке на другие сайты просьба указать автора и релиз-группу.


Год: 2012
Страна: Гонконг, Китай
Студия: Emperor Classic Films, Emperor Dragon Movies, Emperor Motion Pictures, Jackie & JJ Productions, Jackie Chan Emperor Movies
Жанр: Боевик, Комедия, Приключения
Длительность: 02:03:05

Режиссер: Джеки Чан
В ролях: Джеки Чан, Квон Сан-у, Ляо Фань, Яо Синтун, Чжан Ланьсинь, Лора Вайссбеккер, Оливер Платт, Шу Ци, Алаа Умузун, Дэниэл У

Описание: Главный герой истории – работающий по всему миру охотник за сокровищами Джей Си по кличке Ястреб. Известный антиквар предлагает ему отыскать шесть редких статуэток в виде голов животных. В своё время эти бронзовые скульптуры входили в набор из 12-ти предметов, олицетворявших знаки зодиака. Фигурки украшали фонтан легендарного Летнего дворца на окраине Пекина. В 1860 году величественное сооружение было разграблено и разрушено англо-французскими войсками на исходе Второй опиумной войны, а статуэтки безвозвратно утеряны.


Релиз-группа: RIPS CLUB
Исходник: Blu-Ray Remux 1080p (rutracker)
Видео: 1920x804, ~11.4 Mbps
Аудио1: AC3, 6 ch, 448 Kbps - РусскийРусский, DUB
Аудио2: AC3, 6 ch, 640 Kbps - КитайскийКитайский
Субтитры: русские, английские

Как за несколько секунд удалить ненужные аудиодорожки и субтитры (Внимание! После удаления вы не сможете поддержать раздачу)


Лог (x265 info)x265 [info]: frame I: 744, Avg QP:18.25 kb/s: 28513.78
x265 [info]: frame P: 40342, Avg QP:19.68 kb/s: 20090.30
x265 [info]: frame B: 135985, Avg QP:21.66 kb/s: 8684.76
x265 [info]: Weighted P-Frames: Y:6.3% UV:4.5%
x265 [info]: Weighted B-Frames: Y:6.0% UV:3.6%
x265 [info]: encoded 177071 frames in 126077.84s (1.40 fps), 11366.59 kb/s, Avg QP:21.20
МедиаинфоОбщее
Уникальный идентификатор : 234949129399295087819050383445111063142 (0xB0C18E6E618D794E983D56F780B3C266)
Полное имя : \\.\Доспехи.Бога.3.Миссия.Зодиак.Chinese.Zodiac.2012.BDRip-HEVC.1080p.mkv
Формат : Matroska
Версия формата : Version 4
Размер файла : 10,7 Гбайт
Продолжительность : 2 ч. 3 мин.
Общий битрейт : 12,5 Мбит/сек
Частота кадров : 23,976 кадра/сек
Название фильма : Доспехи Бога 3: Миссия Зодиак / Доспехи Бога 3: Миссия Зодиак
Кодирование выполнил : OldGamer
Тип содержимого : Movie
Описание : Охота за сокровищами началась
Дата выпуска : 2012-12-20
Дата записи : 2012-12-20
Программа кодирования : mkvmerge v83.0 ('Circle Of Friends') 64-bit
Библиотека кодирования : libebml v1.4.5 + libmatroska v1.7.1 / xvid4psp5
Обложка : Yes
Attachments : cover.jpg
ACTOR : Джеки Чан, Yao Xingtong, 권상우, Zhang Lanxin, Liao Fan, Laura Weissbecker, Rosario Amedeo, Vincent Sze, Оливер Платт, Aventurina King, Jonathan Lee Yat-Sing, Alaa Safi, Caitlin Dechelle, 陳柏霖, 白冰, Wang Qingxiang, Shu Qi, Daniel Wu, Ken Lo, Lin Feng-jiao...
ARTIST : Джеки Чан, Yao Xingtong, 권상우, Zhang Lanxin, Liao Fan, Laura Weissbecker, Rosario Amedeo, Vincent Sze, Оливер Платт, Aventurina King, Jonathan Lee Yat-Sing, Alaa Safi, Caitlin Dechelle, 陳柏霖, 白冰, Wang Qingxiang, Shu Qi, Daniel Wu, Ken Lo, Lin Feng-jiao...
DIRECTOR : Джеки Чан
GENRE : боевик, приключения
LAW_RATING : PG-13
PRODUCER : Barbie Tung Wan-Si, Джеки Чан, Stanley Tong, Albert Lee
PRODUCTION_STUDIO : Shanghai Film Group
RATING : PG-13
SUMMARY : Охота за сокровищами началась
SYNOPSIS : Главный герой истории — работающий по всему миру охотник за сокровищами Джей Си по кличке Ястреб. Известный антиквар предлагает ему отыскать шесть редких статуэток в виде голов животных. В свое время эти бронзовые скульптуры входили в набор из 12-ти предметов, олицетворявших знаки зодиака. Фигурки украшали фонтан легендарного Летнего дворца на окраине Пекина. В 1860 году величественное сооружение было разграблено и разрушено англо-французскими войсками на исходе Второй опиумной войны, а статуэтки безвозвратно утеряны.

Видео
Идентификатор : 1
Формат : HEVC
Формат/Информация : High Efficiency Video Coding
Профиль формата : Main 10@L4.1@High
Идентификатор кодека : V_MPEGH/ISO/HEVC
Продолжительность : 2 ч. 3 мин.
Битрейт : 11,4 Мбит/сек
Ширина : 1 920 пикселей
Высота : 804 пикселя
Соотношение сторон дисплея : 2,39:1
Режим частоты кадров : Постоянный
Частота кадров : 23,976 (24000/1001) кадра/сек
Цветовое пространство : YUV
Цветовая субдискретизация : 4:2:0
Битовая глубина : 10 бит
Бит/(Пиксели*Кадры) : 0.307
Размер потока : 9,77 Гбайт (91%)
Заголовок : Chinese Zodiac / Rip by OldGamer
Библиотека кодирования : x265 3.5+110-8ee01d45b:[Windows][GCC 13.2.0][64 bit] 10bit
Параметры библиотеки кодирования : cpuid=1111039 / frame-threads=4 / numa-pools=16 / wpp / no-pmode / no-pme / no-psnr / no-ssim / log-level=2 / input-csp=1 / input-res=1920x804 / interlace=0 / total-frames=177071 / level-idc=41 / high-tier=1 / uhd-bd=0 / ref=5 / no-allow-non-conformance / no-repeat-headers / annexb / no-aud / no-eob / no-eos / no-hrd / info / hash=0 / temporal-layers=0 / open-gop / min-keyint=23 / keyint=240 / gop-lookahead=0 / bframes=16 / b-adapt=2 / b-pyramid / bframe-bias=0 / rc-lookahead=40 / lookahead-slices=0 / scenecut=40 / no-hist-scenecut / radl=0 / no-splice / no-intra-refresh / ctu=32 / min-cu-size=8 / rect / amp / max-tu-size=32 / tu-inter-depth=4 / tu-intra-depth=4 / limit-tu=1 / rdoq-level=2 / dynamic-rd=0.00 / no-ssim-rd / signhide / no-tskip / nr-intra=0 / nr-inter=0 / no-constrained-intra / no-strong-intra-smoothing / max-merge=5 / limit-refs=3 / no-limit-modes / me=3 / subme=7 / merange=57 / temporal-mvp / no-frame-dup / no-hme / weightp / weightb / no-analyze-src-pics / deblock=-2:-2 / no-sao / no-sao-non-deblock / rd=6 / selective-sao=0 / no-early-skip / no-rskip / no-fast-intra / no-tskip-fast / no-cu-lossless / b-intra / no-splitrd-skip / rdpenalty=0 / psy-rd=2.00 / psy-rdoq=1.00 / no-rd-refine / no-lossless / cbqpoffs=0 / crqpoffs=0 / rc=crf / crf=18.9 / qcomp=0.70 / qpstep=4 / stats-write=0 / stats-read=0 / vbv-maxrate=50000 / vbv-bufsize=50000 / vbv-init=0.9 / min-vbv-fullness=50.0 / max-vbv-fullness=80.0 / crf-max=0.0 / crf-min=0.0 / ipratio=1.40 / pbratio=1.30 / aq-mode=1 / aq-strength=1.00 / no-cutree / zone-count=1 / zones: / start-frame=169130 / end-frame=177071 / qp=36 / no-strict-cbr / qg-size=32 / no-rc-grain / qpmax=69 / qpmin=0 / no-const-vbv / sar=1 / overscan=0 / videoformat=5 / range=0 / colorprim=2 / transfer=2 / colormatrix=2 / chromaloc=0 / display-window=0 / cll=0,0 / min-luma=0 / max-luma=1023 / log2-max-poc-lsb=8 / vui-timing-info / vui-hrd-info / slices=1 / no-opt-qp-pps / no-opt-ref-list-length-pps / no-multi-pass-opt-rps / scenecut-bias=0.00 / no-opt-cu-delta-qp / no-aq-motion / no-hdr10 / no-hdr10-opt / no-dhdr10-opt / no-idr-recovery-sei / analysis-reuse-level=0 / analysis-save-reuse-level=0 / analysis-load-reuse-level=0 / scale-factor=0 / refine-intra=0 / refine-inter=0 / refine-mv=1 / refine-ctu-distortion=0 / no-limit-sao / ctu-info=0 / no-lowpass-dct / refine-analysis-type=0 / copy-pic=1 / max-ausize-factor=1.0 / no-dynamic-refine / no-single-sei / no-hevc-aq / no-svt / no-field / qp-adaptation-range=1.00 / scenecut-aware-qp=0conformance-window-offsets / right=0 / bottom=0 / decoder-max-rate=0 / no-vbv-live-multi-pass / no-mcstf / no-sbrc
Язык : Китайский
По умолчанию : Да
Принудительно : Нет

Аудио #1
Идентификатор : 2
Формат : AC-3
Формат/Информация : Audio Coding 3
Коммерческое название : Dolby Digital
Идентификатор кодека : A_AC3
Продолжительность : 2 ч. 3 мин.
Вид битрейта : Постоянный
Битрейт : 448 Кбит/сек
Канал(-ы) : 6 каналов
Расположение каналов : L R C LFE Ls Rs
Частота дискретизации : 48,0 КГц
Частота кадров : 31,250 кадров/сек (1536 SPF)
Метод сжатия : С потерями
Размер потока : 394 Мбайт (4%)
Язык : Русский
Вид сервиса : Complete Main
По умолчанию : Да
Принудительно : Нет
Нормализация звука речи : -31 dB
cmixlev : -4.5 dB
surmixlev : -6 dB
dialnorm_Average : -31 dB
dialnorm_Minimum : -31 dB
dialnorm_Maximum : -31 dB

Аудио #2
Идентификатор : 3
Формат : AC-3
Формат/Информация : Audio Coding 3
Коммерческое название : Dolby Digital
Идентификатор кодека : A_AC3
Продолжительность : 2 ч. 2 мин.
Вид битрейта : Постоянный
Битрейт : 640 Кбит/сек
Канал(-ы) : 6 каналов
Расположение каналов : L R C LFE Ls Rs
Частота дискретизации : 48,0 КГц
Частота кадров : 31,250 кадров/сек (1536 SPF)
Метод сжатия : С потерями
Размер потока : 563 Мбайт (5%)
Язык : Китайский
Вид сервиса : Complete Main
По умолчанию : Нет
Принудительно : Нет
Нормализация звука речи : -27 dB
compr : -0.28 dB
cmixlev : -3.0 dB
surmixlev : -3 dB
mixlevel : 285 dB
roomtyp : Small
dialnorm_Average : -27 dB
dialnorm_Minimum : -27 dB
dialnorm_Maximum : -27 dB

Текст #1
Идентификатор : 4
Формат : UTF-8
Идентификатор кодека : S_TEXT/UTF8
Идентификатор кодека/Информация : UTF-8 Plain Text
Продолжительность : 1 ч. 55 мин.
Битрейт : 99 бит/сек
Частота кадров : 0,213 кадр/сек
Число элементов : 1482
Размер потока : 84,4 КиБ (0%)
Язык : Русский
По умолчанию : Нет
Принудительно : Нет

Текст #2
Идентификатор : 5
Формат : UTF-8
Идентификатор кодека : S_TEXT/UTF8
Идентификатор кодека/Информация : UTF-8 Plain Text
Продолжительность : 1 ч. 55 мин.
Битрейт : 55 бит/сек
Частота кадров : 0,278 кадр/сек
Число элементов : 1936
Размер потока : 47,5 КиБ (0%)
Язык : Английский
По умолчанию : Нет
Принудительно : Нет

Меню
00:00:00.000 : en:Chapter 01
00:11:29.021 : en:Chapter 02
00:18:17.429 : en:Chapter 03
00:25:17.349 : en:Chapter 04
00:33:41.561 : en:Chapter 05
00:44:15.110 : en:Chapter 06
00:55:18.315 : en:Chapter 07
01:10:08.245 : en:Chapter 08
01:17:00.657 : en:Chapter 09
01:25:39.092 : en:Chapter 10
01:39:27.419 : en:Chapter 11
01:50:44.971 : en:Chapter 12
Загрузка...Cкриншот1 Доспехи Бога 3: Миссия Зодиак / Chinese Zodiac (2012) BDRip 1080p [HEVC] 10 bit от OldGamer (RG RIPS CLUB)Загрузка...Cкриншот2 Доспехи Бога 3: Миссия Зодиак / Chinese Zodiac (2012) BDRip 1080p [HEVC] 10 bit от OldGamer (RG RIPS CLUB)Загрузка...Cкриншот3 Доспехи Бога 3: Миссия Зодиак / Chinese Zodiac (2012) BDRip 1080p [HEVC] 10 bit от OldGamer (RG RIPS CLUB)Загрузка...Cкриншот4 Доспехи Бога 3: Миссия Зодиак / Chinese Zodiac (2012) BDRip 1080p [HEVC] 10 bit от OldGamer (RG RIPS CLUB)
Поблагодарили: 9AlexsBond, and50, AndresUA, Antilord90, Kiran, MIGRANT, SaN161NeK, vserginbox, Winsent
Файлы: 1
  • Доспехи.Бога.3.Миссия.Зодиак.Chinese.Zodiac.2012.BDRip-HEVC.1080p.mkv

Рейтинги КП и IMDB, кнопки "Раздайте, пожалуйста" и "Спасибо", а также мультитрекерная статистика доступны только зарегистрированным/авторизованным пользователям!

OldGamer
72107010.71 ГБ

💬︎ Комментарии

Добавление комментариев доступно только зарегистрированным/авторизованным пользователям.