Чат

⚫︎
Список изменений сайта - https://rips.club/changelog.html (обновлен 24.05.2024)
  • arwis
  • justmkr
Онлайн (за 10 мин.): 2
Отправка сообщений доступна только зарегистрированным/авторизованным пользователям.

🎥︎Министерство неджентльменских дел / The Ministry of Ungentlemanly Warfare (2024) BDRip 1080p [HEVC] 10 bit от OldGamer (RG RIPS CLUB)


Обложка Министерство неджентльменских дел / The Ministry of Ungentlemanly Warfare (2024) BDRip 1080p [HEVC] 10 bit от OldGamer (RG RIPS CLUB)
HEVC
10 bit
✂︎Сэмпл⤓︎Торрент🧲︎Магнет$Пожертвования

При перезаливке на другие сайты просьба указать автора и релиз-группу.


Год: 2024
Страна: США, Великобритания, Турция
Студия: Black Bear, Jerry Bruckheimer Films, Lions Gate Films, Media Capital Technologies
Жанр: Боевик, Драма, Военный, История
Длительность: 02:00:21

Режиссер: Гай Ричи
В ролях: Генри Кавилл, Алан Ричсон, Рори Киннер, Генри Голдинг, Фредди Фокс, Эйса Гонсалес, Алекс Петтифер, Хиро Файнс Тиффин, Тиль Швайгер, Кэри Элвес

Описание: 1942 год, Великобритания. Они — лучшие из лучших. Отпетые авантюристы и первоклассные спецы, привыкшие действовать в одиночку. Но когда на кону стоит судьба всего мира, им приходится объединиться в сверхсекретное боевое подразделение и отправиться на выполнение дерзкой миссии против нацистов. Теперь их дело — война, и вести они её будут совершенно не по-джентльменски.


Релиз-группа: RIPS CLUB
Исходник: Blu-Ray Remux 1080p (rutracker)
Видео: 1920x804, ~4555 Kbps
Аудио1: E-AC3, 6 ch, 448 Kbps - РусскийРусский, DUB (Мосфильм-Мастер)
Аудио2: AC3, 2 ch, 192 Kbps - РусскийРусский, MVO (HDRezka Studio)
Аудио3: E-AC3, 6 ch, 448 Kbps - РусскийРусский, DVO (Кубик в Кубе)
Аудио4: E-AC3, 6 ch, 640 Kbps - РусскийРусский, DVO (ViruseProject)
Аудио5: E-AC3, 6 ch, 768 Kbps - РусскийРусский, VO (Михаил Яроцкий)
Аудио6: AC3, 6 ch, 640 Kbps - АнглийскийАнглийский
Субтитры: русские (full, forced, SDH), английские (full, SDH)

Как за несколько секунд удалить ненужные аудиодорожки и субтитры (Внимание! После удаления вы не сможете поддержать раздачу)


Лог (x265 info)x265 [info]: frame I: 729, Avg QP:17.79 kb/s: 14397.84
x265 [info]: frame P: 27036, Avg QP:19.45 kb/s: 9945.96
x265 [info]: frame B: 145372, Avg QP:21.67 kb/s: 3502.03
x265 [info]: Weighted P-Frames: Y:10.2% UV:6.3%
x265 [info]: Weighted B-Frames: Y:8.7% UV:4.1%
x265 [info]: encoded 173137 frames in 103992.86s (1.66 fps), 4554.15 kb/s, Avg QP:21.31
МедиаинфоОбщее
Уникальный идентификатор : 220298363266703229218016331156397870299 (0xA5BBEBE43E94FCEC686612794725CCDB)
Полное имя : \\.\Министерство.неджентльменских.дел.The.Ministry.of.Ungentlemanly.Warfare.2024.BDRip-HEVC.1080p.mkv
Формат : Matroska
Версия формата : Version 4
Размер файла : 6,47 Гбайт
Продолжительность : 2 ч. 0 мин.
Общий битрейт : 7 696 Кбит/сек
Частота кадров : 23,976 кадра/сек
Название фильма : Министерство неджентльменских дел / Министерство неджентльменских дел
Кодирование выполнил : OldGamer
Тип содержимого : Movie
Дата выпуска : 2024-04-18
Дата записи : 2024-04-18
Программа кодирования : mkvmerge v85.0 ('Shame For You') 64-bit
Библиотека кодирования : libebml v1.4.5 + libmatroska v1.7.1 / xvid4psp5
Обложка : Yes
Attachments : cover.jpg
ACTOR : Генри Кавилл, Эйса Гонсалес, Алан Ричсон, Генри Голдинг, Кэри Элвис, Алекс Петтифер, Хиро Файнс-Тиффин, Бабс Олусанмокун, Генри Зага, Тиль Швайгер, Фредерик Фокс, Рори Киннир, Дэнни Сапани, Джеймс Уилби, Мэттью Хоуксли, Саймон Пэйсли Дэй, Марк Оостер...
ARTIST : Генри Кавилл, Эйса Гонсалес, Алан Ричсон, Генри Голдинг, Кэри Элвис, Алекс Петтифер, Хиро Файнс-Тиффин, Бабс Олусанмокун, Генри Зага, Тиль Швайгер, Фредерик Фокс, Рори Киннир, Дэнни Сапани, Джеймс Уилби, Мэттью Хоуксли, Саймон Пэйсли Дэй, Марк Оостер...
DIRECTOR : Гай Ричи
GENRE : боевик, военный, драма
LAW_RATING : R
PRODUCER : Чад Оман, Джерри Брукхаймер, John Friedberg
PRODUCTION_STUDIO : Toff Guy Films
RATING : R
SCREENPLAY_BY : Гай Ричи, Араш Амель, Пол Тэймеси, Эрик Джонсон
SYNOPSIS : 1942 год, Великобритания. Они - лучшие из лучших. Отпетые авантюристы и первоклассные спецы, привыкшие действовать в одиночку. Но когда на кону стоит судьба всего мира, им приходится объединиться в сверхсекретное боевое подразделение и отправиться на выполнение дерзкой миссии против нацистов. Теперь их дело - война, и вести они её будут совершенно не по-джентльменски.
WRITTEN_BY : Гай Ричи, Араш Амель, Пол Тэймеси, Эрик Джонсон

Видео
Идентификатор : 1
Формат : HEVC
Формат/Информация : High Efficiency Video Coding
Профиль формата : Main 10@L4.1@High
Идентификатор кодека : V_MPEGH/ISO/HEVC
Продолжительность : 2 ч. 0 мин.
Битрейт : 4 555 Кбит/сек
Ширина : 1 920 пикселей
Высота : 804 пикселя
Соотношение сторон дисплея : 2,39:1
Режим частоты кадров : Постоянный
Частота кадров : 23,976 (24000/1001) кадра/сек
Цветовое пространство : YUV
Цветовая субдискретизация : 4:2:0
Битовая глубина : 10 бит
Бит/(Пиксели*Кадры) : 0.123
Размер потока : 3,83 Гбайт (59%)
Заголовок : The Ministry of Ungentlemanly Warfare / Rip by OldGamer
Библиотека кодирования : x265 3.6+27-8787e8702:[Windows][GCC 13.3.0][64 bit] 10bit
Параметры библиотеки кодирования : cpuid=1111039 / frame-threads=3 / numa-pools=8 / wpp / no-pmode / no-pme / no-psnr / no-ssim / log-level=2 / input-csp=1 / input-res=1920x804 / interlace=0 / total-frames=173137 / level-idc=41 / high-tier=1 / uhd-bd=0 / ref=5 / no-allow-non-conformance / no-repeat-headers / annexb / no-aud / no-eob / no-eos / no-hrd / info / hash=0 / temporal-layers=0 / open-gop / min-keyint=23 / keyint=240 / gop-lookahead=0 / bframes=16 / b-adapt=2 / b-pyramid / bframe-bias=0 / rc-lookahead=60 / lookahead-slices=0 / scenecut=40 / no-hist-scenecut / radl=0 / no-splice / no-intra-refresh / ctu=32 / min-cu-size=8 / rect / amp / max-tu-size=32 / tu-inter-depth=4 / tu-intra-depth=4 / limit-tu=1 / rdoq-level=2 / dynamic-rd=0.00 / no-ssim-rd / signhide / no-tskip / nr-intra=0 / nr-inter=0 / no-constrained-intra / no-strong-intra-smoothing / max-merge=5 / limit-refs=3 / no-limit-modes / me=3 / subme=7 / merange=57 / temporal-mvp / no-frame-dup / no-hme / weightp / weightb / no-analyze-src-pics / deblock=-2:-2 / no-sao / no-sao-non-deblock / rd=6 / selective-sao=0 / no-early-skip / no-rskip / no-fast-intra / no-tskip-fast / no-cu-lossless / b-intra / no-splitrd-skip / rdpenalty=0 / psy-rd=2.00 / psy-rdoq=1.00 / no-rd-refine / no-lossless / cbqpoffs=0 / crqpoffs=0 / rc=crf / crf=20.1 / qcomp=0.60 / qpstep=4 / stats-write=0 / stats-read=0 / vbv-maxrate=50000 / vbv-bufsize=50000 / vbv-init=0.9 / min-vbv-fullness=50.0 / max-vbv-fullness=80.0 / crf-max=0.0 / crf-min=0.0 / ipratio=1.40 / pbratio=1.30 / aq-mode=1 / aq-strength=1.00 / no-cutree / zone-count=1 / zones: / start-frame=158886 / end-frame=173137 / qp=36 / no-strict-cbr / qg-size=32 / no-rc-grain / qpmax=69 / qpmin=0 / no-const-vbv / sar=1 / overscan=0 / videoformat=5 / range=0 / colorprim=2 / transfer=2 / colormatrix=2 / chromaloc=0 / display-window=0 / cll=0,0 / min-luma=0 / max-luma=1023 / log2-max-poc-lsb=8 / vui-timing-info / vui-hrd-info / slices=1 / no-opt-qp-pps / no-opt-ref-list-length-pps / no-multi-pass-opt-rps / scenecut-bias=0.00 / no-opt-cu-delta-qp / no-aq-motion / no-hdr10 / no-hdr10-opt / no-dhdr10-opt / no-idr-recovery-sei / analysis-reuse-level=0 / analysis-save-reuse-level=0 / analysis-load-reuse-level=0 / scale-factor=0 / refine-intra=0 / refine-inter=0 / refine-mv=1 / refine-ctu-distortion=0 / no-limit-sao / ctu-info=0 / no-lowpass-dct / refine-analysis-type=0 / copy-pic=1 / max-ausize-factor=1.0 / no-dynamic-refine / no-single-sei / no-hevc-aq / no-svt / no-field / qp-adaptation-range=1.00 / scenecut-aware-qp=0conformance-window-offsets / right=0 / bottom=0 / decoder-max-rate=0 / no-vbv-live-multi-pass / no-mcstf / no-sbrc
Язык : Английский
По умолчанию : Да
Принудительно : Нет

Аудио #1
Идентификатор : 2
Формат : E-AC-3
Формат/Информация : Enhanced AC-3
Коммерческое название : Dolby Digital Plus
Идентификатор кодека : A_EAC3
Продолжительность : 2 ч. 0 мин.
Вид битрейта : Постоянный
Битрейт : 448 Кбит/сек
Канал(-ы) : 6 каналов
Расположение каналов : L R C LFE Ls Rs
Частота дискретизации : 48,0 КГц
Частота кадров : 31,250 кадров/сек (1536 SPF)
Метод сжатия : С потерями
Размер потока : 386 Мбайт (6%)
Заголовок : DUB (Мосфильм-Мастер)
Язык : Русский
Вид сервиса : Complete Main
По умолчанию : Да
Принудительно : Нет
Нормализация звука речи : -31 dB
compr : -0.28 dB
dmixmod : Lo/Ro
ltrtcmixlev : -3.0 dB
ltrtsurmixlev : -3.0 dB
lorocmixlev : -3.0 dB
lorosurmixlev : -3.0 dB
dialnorm_Average : -31 dB
dialnorm_Minimum : -31 dB
dialnorm_Maximum : -31 dB

Аудио #2
Идентификатор : 3
Формат : AC-3
Формат/Информация : Audio Coding 3
Коммерческое название : Dolby Digital
Идентификатор кодека : A_AC3
Продолжительность : 2 ч. 0 мин.
Вид битрейта : Постоянный
Битрейт : 192 Кбит/сек
Канал(-ы) : 2 канала
Расположение каналов : L R
Частота дискретизации : 48,0 КГц
Частота кадров : 31,250 кадров/сек (1536 SPF)
Метод сжатия : С потерями
Размер потока : 165 Мбайт (2%)
Заголовок : MVO (HDRezka Studio)
Язык : Русский
Вид сервиса : Complete Main
По умолчанию : Нет
Принудительно : Нет
Нормализация звука речи : -31 dB
compr : -0.28 dB
ltrtcmixlev : -3.0 dB
ltrtsurmixlev : -3.0 dB
lorocmixlev : -3.0 dB
lorosurmixlev : -3.0 dB
dialnorm_Average : -31 dB
dialnorm_Minimum : -31 dB
dialnorm_Maximum : -31 dB

Аудио #3
Идентификатор : 4
Формат : E-AC-3
Формат/Информация : Enhanced AC-3
Коммерческое название : Dolby Digital Plus
Идентификатор кодека : A_EAC3
Продолжительность : 2 ч. 0 мин.
Вид битрейта : Постоянный
Битрейт : 448 Кбит/сек
Канал(-ы) : 6 каналов
Расположение каналов : L R C LFE Ls Rs
Частота дискретизации : 48,0 КГц
Частота кадров : 31,250 кадров/сек (1536 SPF)
Метод сжатия : С потерями
Размер потока : 386 Мбайт (6%)
Заголовок : DVO (Кубик в Кубе)
Язык : Русский
Вид сервиса : Complete Main
По умолчанию : Нет
Принудительно : Нет
Нормализация звука речи : -27 dB
compr : -0.28 dB
dmixmod : Lo/Ro
ltrtcmixlev : -3.0 dB
ltrtsurmixlev : -3.0 dB
lorocmixlev : -3.0 dB
lorosurmixlev : -3.0 dB
dialnorm_Average : -27 dB
dialnorm_Minimum : -27 dB
dialnorm_Maximum : -27 dB

Аудио #4
Идентификатор : 5
Формат : E-AC-3
Формат/Информация : Enhanced AC-3
Коммерческое название : Dolby Digital Plus
Идентификатор кодека : A_EAC3
Продолжительность : 2 ч. 0 мин.
Вид битрейта : Постоянный
Битрейт : 640 Кбит/сек
Канал(-ы) : 6 каналов
Расположение каналов : L R C LFE Ls Rs
Частота дискретизации : 48,0 КГц
Частота кадров : 31,250 кадров/сек (1536 SPF)
Метод сжатия : С потерями
Размер потока : 551 Мбайт (8%)
Заголовок : DVO (ViruseProject)
Язык : Русский
Вид сервиса : Complete Main
По умолчанию : Нет
Принудительно : Нет
Нормализация звука речи : -23 dB
compr : -0.28 dB
dmixmod : Lo/Ro
ltrtcmixlev : -3.0 dB
ltrtsurmixlev : -3.0 dB
lorocmixlev : -3.0 dB
lorosurmixlev : -3.0 dB
dialnorm_Average : -23 dB
dialnorm_Minimum : -23 dB
dialnorm_Maximum : -23 dB

Аудио #5
Идентификатор : 6
Формат : E-AC-3
Формат/Информация : Enhanced AC-3
Коммерческое название : Dolby Digital Plus
Идентификатор кодека : A_EAC3
Продолжительность : 2 ч. 0 мин.
Вид битрейта : Постоянный
Битрейт : 768 Кбит/сек
Канал(-ы) : 6 каналов
Расположение каналов : L R C LFE Ls Rs
Частота дискретизации : 48,0 КГц
Частота кадров : 31,250 кадров/сек (1536 SPF)
Метод сжатия : С потерями
Размер потока : 661 Мбайт (10%)
Заголовок : VO (Михаил Яроцкий)
Язык : Русский
Вид сервиса : Complete Main
По умолчанию : Нет
Принудительно : Нет
Нормализация звука речи : -21 dB
compr : -0.28 dB
dmixmod : Lo/Ro
ltrtcmixlev : -3.0 dB
ltrtsurmixlev : -3.0 dB
lorocmixlev : -3.0 dB
lorosurmixlev : -3.0 dB
dialnorm_Average : -21 dB
dialnorm_Minimum : -21 dB
dialnorm_Maximum : -21 dB

Аудио #6
Идентификатор : 7
Идентификатор в исходном носителе информ : 4352 (0x1100)
Формат : AC-3
Формат/Информация : Audio Coding 3
Коммерческое название : Dolby Digital
Идентификатор кодека : A_AC3
Продолжительность : 2 ч. 0 мин.
Вид битрейта : Постоянный
Битрейт : 640 Кбит/сек
Канал(-ы) : 6 каналов
Расположение каналов : L R C LFE Ls Rs
Частота дискретизации : 48,0 КГц
Частота кадров : 31,250 кадров/сек (1536 SPF)
Метод сжатия : С потерями
Размер потока : 551 Мбайт (8%)
Заголовок : English Original
Язык : Английский
Вид сервиса : Complete Main
По умолчанию : Нет
Принудительно : Нет
Носитель оригинала : Blu-ray
Нормализация звука речи : -31 dB
compr : -0.28 dB
cmixlev : -3.0 dB
surmixlev : -3 dB
dmixmod : Lo/Ro
ltrtcmixlev : -3.0 dB
ltrtsurmixlev : -3.0 dB
lorocmixlev : -3.0 dB
lorosurmixlev : -3.0 dB
dialnorm_Average : -31 dB
dialnorm_Minimum : -31 dB
dialnorm_Maximum : -31 dB

Текст #1
Идентификатор : 8
Формат : UTF-8
Идентификатор кодека : S_TEXT/UTF8
Идентификатор кодека/Информация : UTF-8 Plain Text
Продолжительность : 1 ч. 49 мин.
Битрейт : 11 бит/сек
Частота кадров : 0,021 кадр/сек
Число элементов : 136
Размер потока : 9,20 КиБ (0%)
Заголовок : Russian forced
Язык : Русский
По умолчанию : Да
Принудительно : Нет

Текст #2
Идентификатор : 9
Формат : UTF-8
Идентификатор кодека : S_TEXT/UTF8
Идентификатор кодека/Информация : UTF-8 Plain Text
Продолжительность : 1 ч. 47 мин.
Битрейт : 88 бит/сек
Частота кадров : 0,219 кадр/сек
Число элементов : 1409
Размер потока : 69,6 КиБ (0%)
Заголовок : Russian full
Язык : Русский
По умолчанию : Нет
Принудительно : Нет

Текст #3
Идентификатор : 10
Формат : UTF-8
Идентификатор кодека : S_TEXT/UTF8
Идентификатор кодека/Информация : UTF-8 Plain Text
Продолжительность : 1 ч. 50 мин.
Битрейт : 107 бит/сек
Частота кадров : 0,283 кадр/сек
Число элементов : 1871
Размер потока : 86,8 КиБ (0%)
Заголовок : Russian SDH
Язык : Русский
По умолчанию : Нет
Принудительно : Нет

Текст #4
Идентификатор : 11
Формат : UTF-8
Идентификатор кодека : S_TEXT/UTF8
Идентификатор кодека/Информация : UTF-8 Plain Text
Продолжительность : 1 ч. 47 мин.
Битрейт : 56 бит/сек
Частота кадров : 0,216 кадр/сек
Число элементов : 1387
Размер потока : 44,1 КиБ (0%)
Заголовок : English Original
Язык : Английский
По умолчанию : Нет
Принудительно : Нет

Текст #5
Идентификатор : 12
Формат : UTF-8
Идентификатор кодека : S_TEXT/UTF8
Идентификатор кодека/Информация : UTF-8 Plain Text
Продолжительность : 1 ч. 59 мин.
Битрейт : 66 бит/сек
Частота кадров : 0,285 кадр/сек
Число элементов : 2036
Размер потока : 57,8 КиБ (0%)
Заголовок : English SDH
Язык : Английский
По умолчанию : Нет
Принудительно : Нет

Меню
00:00:00.000 : en:Глава 01
00:07:21.357 : en:Глава 02
00:17:44.438 : en:Глава 03
00:24:01.231 : en:Глава 04
00:34:43.164 : en:Глава 05
00:41:41.373 : en:Глава 06
00:49:37.307 : en:Глава 07
00:56:07.739 : en:Глава 08
01:04:16.894 : en:Глава 09
01:08:11.670 : en:Глава 10
01:12:43.317 : en:Глава 11
01:20:31.785 : en:Глава 12
01:26:37.692 : en:Глава 13
01:33:49.624 : en:Глава 14
01:40:57.551 : en:Глава 15
01:46:29.257 : en:Глава 16
Загрузка...Cкриншот1 Министерство неджентльменских дел / The Ministry of Ungentlemanly Warfare (2024) BDRip 1080p [HEVC] 10 bit от OldGamer (RG RIPS CLUB)Загрузка...Cкриншот2 Министерство неджентльменских дел / The Ministry of Ungentlemanly Warfare (2024) BDRip 1080p [HEVC] 10 bit от OldGamer (RG RIPS CLUB)Загрузка...Cкриншот3 Министерство неджентльменских дел / The Ministry of Ungentlemanly Warfare (2024) BDRip 1080p [HEVC] 10 bit от OldGamer (RG RIPS CLUB)Загрузка...Cкриншот4 Министерство неджентльменских дел / The Ministry of Ungentlemanly Warfare (2024) BDRip 1080p [HEVC] 10 bit от OldGamer (RG RIPS CLUB)
Поблагодарили: 12and50, anderb, AndresUA, Broadcast, Gideon86, IRIT, Kiran, kisa1980, SaN161NeK, vserginbox, Winsent, z_artem
Файлы: 1
  • Министерство.неджентльменских.дел.The.Ministry.of.Ungentlemanly.Warfare.2024.BDRip-HEVC.1080p.mkv

Рейтинги КП и IMDB, кнопки "Раздайте, пожалуйста" и "Спасибо", а также мультитрекерная статистика доступны только зарегистрированным/авторизованным пользователям!

OldGamer
781559806.47 ГБ

💬︎ Комментарии

Добавление комментариев доступно только зарегистрированным/авторизованным пользователям.