Чат

⚫︎
Список изменений сайта - https://rips.club/changelog.html (обновлен 24.05.2024)
  • arwis
  • justmkr
  • Денис
Онлайн (за 10 мин.): 3
Отправка сообщений доступна только зарегистрированным/авторизованным пользователям.

🎥︎Альфа Дог / Alpha Dog (2006) BDRip 1080p [HEVC] 10 bit от OldGamer (RG RIPS CLUB)


Обложка Альфа Дог / Alpha Dog (2006) BDRip 1080p [HEVC] 10 bit от OldGamer (RG RIPS CLUB)
HEVC
10 bit
✂︎Сэмпл⤓︎Торрент🧲︎Магнет$Пожертвования

При перезаливке на другие сайты просьба указать автора и релиз-группу.


Год: 2006
Страна: США, Германия
Студия: A-Mark Entertainment, Alpha Dog LLC, Sidney Kimmel Entertainment, VIP 2 Medienfonds
Жанр: Триллер, Драма, Криминал, Биография
Длительность: 01:57:23

Режиссер: Ник Кассаветис
В ролях: Эмиль Хирш, Антон Ельчин, Джастин Тимберлейк, Бен Фостер, Шон Хэтоси, Брюс Уиллис, Шэрон Стоун, Оливия Уайлд, Хезер Уолкист, Аманда Сайфред

Описание: Группа подростков, связанная с торговцами марихуаной, похищает младшего брата одного из должников своего босса. Правда, настоящим похищением это назвать сложно — скорее, игрой в киднеппинг, жертва которого даже рада столь интересному событию в своей жизни.


Релиз-группа: RIPS CLUB
Исходник: Blu-Ray Remux 1080p (rutracker)
Видео: 1920x818, 5395 Kbps
Аудио1: AC3, 6 ch, 640 Kbps - РусскийРусский, DUB (R5)
Аудио2: AC3, 6 ch, 640 Kbps - РусскийРусский, AVO (Юрий Немахов, без цензуры)
Аудио3: AC3, 2 ch, 192 Kbps - РусскийРусский, AVO (Антон Карповский, "Кубинский заговор или группа Альфа", смешной перевод, без цензуры)
Аудио4: AC3, 2 ch, 192 Kbps - РусскийРусский, VO (Михаил Яроцкий, без цензуры)
Аудио5: AC3, 2 ch, 192 Kbps - РусскийРусский, VO (Дмитрий Штамп / sfairat / sf@irat, без цензуры)
Аудио6: AC3, 2 ch, 192 Kbps - УкраинскийУкраинский, MVO (1+1)
Аудио7: AC3, 6 ch, 640 Kbps - АнглийскийАнглийский
Субтитры: русские, украинские, английские

Как за несколько секунд удалить ненужные аудиодорожки и субтитры (Внимание! После удаления вы не сможете поддержать раздачу)


Лог (x265 info)x265 [info]: frame I: 708, Avg QP:18.48 kb/s: 15670.32
x265 [info]: frame P: 22299, Avg QP:20.21 kb/s: 11193.63
x265 [info]: frame B: 146023, Avg QP:21.69 kb/s: 4458.75
x265 [info]: Weighted P-Frames: Y:9.7% UV:6.5%
x265 [info]: Weighted B-Frames: Y:6.9% UV:4.1%
x265 [info]: encoded 169030 frames in 106037.31s (1.59 fps), 5394.20 kb/s, Avg QP:21.48
МедиаинфоОбщее
Уникальный идентификатор : 37487801692949056468562012433179320934 (0x1C33E352DA180746958F97DC79D1A266)
Полное имя : \\.\Альфа.Дог.Alpha.Dog.2006.BDRip-HEVC.1080p.mkv
Формат : Matroska
Версия формата : Version 4
Размер файла : 6,63 Гбайт
Продолжительность : 1 ч. 57 мин.
Общий битрейт : 8 088 Кбит/сек
Частота кадров : 24,000 кадра/сек
Название фильма : Альфа Дог / Альфа Дог
Кодирование выполнил : OldGamer
Тип содержимого : Movie
Описание : Одно преступление. 3 дня. 38 свидетелей
Дата выпуска : 2006-01-27
Дата записи : 2006-01-27
Программа кодирования : mkvmerge v85.0 ('Shame For You') 64-bit
Библиотека кодирования : libebml v1.4.5 + libmatroska v1.7.1 / xvid4psp5
Обложка : Yes
Attachments : cover.jpg
ACTOR : Emile Hirsch, Брюс Уиллис, Аманда Сайфрид, Джастин Тимберлейк, Shawn Hatosy, Ben Foster, Гарри Дин Стэнтон, Matthew Barry, Fernando Vargas, Vincent Kartheiser, Alex Solowitz, Alec Vigil, Frank Cassavetes, Nicole Dubos, Regina Rice, Laura Nativo, Эмбе...
ARTIST : Emile Hirsch, Брюс Уиллис, Аманда Сайфрид, Джастин Тимберлейк, Shawn Hatosy, Ben Foster, Гарри Дин Стэнтон, Matthew Barry, Fernando Vargas, Vincent Kartheiser, Alex Solowitz, Alec Vigil, Frank Cassavetes, Nicole Dubos, Regina Rice, Laura Nativo, Эмбе...
DIRECTOR : Nick Cassavetes
GENRE : криминал, драма, триллер
LAW_RATING : R
PRODUCER : Sidney Kimmel, Chuck Pacheco
PRODUCTION_STUDIO : VIP 2 Medienfonds
RATING : R
SCREENPLAY_BY : Nick Cassavetes
SUMMARY : Одно преступление. 3 дня. 38 свидетелей
SYNOPSIS : Для подростков элитных районов Лос-Анджелеса, у которых слишком много времени и слишком много денег, унылые дни тянутся один за другим. Они развлекаются тем, что играют в головорезов и поклоняются рэпу, видеоиграм и кинофильмам. Когда не несешь ни за что ответственности, случиться может все что угодно… Наркоторговец Джонни Трулав — самый молодой преступник, оказавшийся у ФБР в розыскном списке N1. Одно неправильно принятое решение, роковая ошибка, неудачный ход, и жизнь преуспевающего драг-диллера летит под откос. По законам круговой поруки один за другим гибнут все его друзья.
WRITTEN_BY : Nick Cassavetes

Видео
Идентификатор : 1
Формат : HEVC
Формат/Информация : High Efficiency Video Coding
Профиль формата : Main 10@L4.1@High
Идентификатор кодека : V_MPEGH/ISO/HEVC
Продолжительность : 1 ч. 57 мин.
Битрейт : 5 395 Кбит/сек
Ширина : 1 920 пикселей
Высота : 818 пикселей
Соотношение сторон дисплея : 2,35:1
Режим частоты кадров : Постоянный
Частота кадров : 24,000 кадра/сек
Цветовое пространство : YUV
Цветовая субдискретизация : 4:2:0
Битовая глубина : 10 бит
Бит/(Пиксели*Кадры) : 0.143
Размер потока : 4,42 Гбайт (67%)
Заголовок : Alpha Dog / Rip by OldGamer
Библиотека кодирования : x265 3.6+27-8787e8702:[Windows][GCC 13.3.0][64 bit] 10bit
Параметры библиотеки кодирования : cpuid=1111039 / frame-threads=3 / numa-pools=8 / wpp / no-pmode / no-pme / no-psnr / no-ssim / log-level=2 / input-csp=1 / input-res=1920x818 / interlace=0 / total-frames=169030 / level-idc=41 / high-tier=1 / uhd-bd=0 / ref=5 / no-allow-non-conformance / no-repeat-headers / annexb / no-aud / no-eob / no-eos / no-hrd / info / hash=0 / temporal-layers=0 / open-gop / min-keyint=23 / keyint=240 / gop-lookahead=0 / bframes=16 / b-adapt=2 / b-pyramid / bframe-bias=0 / rc-lookahead=60 / lookahead-slices=0 / scenecut=40 / no-hist-scenecut / radl=0 / no-splice / no-intra-refresh / ctu=32 / min-cu-size=8 / rect / amp / max-tu-size=32 / tu-inter-depth=4 / tu-intra-depth=4 / limit-tu=1 / rdoq-level=2 / dynamic-rd=0.00 / no-ssim-rd / signhide / no-tskip / nr-intra=0 / nr-inter=0 / no-constrained-intra / no-strong-intra-smoothing / max-merge=5 / limit-refs=3 / no-limit-modes / me=3 / subme=7 / merange=57 / temporal-mvp / no-frame-dup / no-hme / weightp / weightb / no-analyze-src-pics / deblock=-2:-2 / no-sao / no-sao-non-deblock / rd=6 / selective-sao=0 / no-early-skip / no-rskip / no-fast-intra / no-tskip-fast / no-cu-lossless / b-intra / no-splitrd-skip / rdpenalty=0 / psy-rd=2.00 / psy-rdoq=1.00 / no-rd-refine / no-lossless / cbqpoffs=0 / crqpoffs=0 / rc=crf / crf=21.0 / qcomp=0.60 / qpstep=4 / stats-write=0 / stats-read=0 / vbv-maxrate=50000 / vbv-bufsize=50000 / vbv-init=0.9 / min-vbv-fullness=50.0 / max-vbv-fullness=80.0 / crf-max=0.0 / crf-min=0.0 / ipratio=1.40 / pbratio=1.30 / aq-mode=1 / aq-strength=1.00 / no-cutree / zone-count=1 / zones: / start-frame=162595 / end-frame=169030 / qp=36 / no-strict-cbr / qg-size=32 / no-rc-grain / qpmax=69 / qpmin=0 / no-const-vbv / sar=1 / overscan=0 / videoformat=5 / range=0 / colorprim=2 / transfer=2 / colormatrix=2 / chromaloc=0 / display-window=0 / cll=0,0 / min-luma=0 / max-luma=1023 / log2-max-poc-lsb=8 / vui-timing-info / vui-hrd-info / slices=1 / no-opt-qp-pps / no-opt-ref-list-length-pps / no-multi-pass-opt-rps / scenecut-bias=0.00 / no-opt-cu-delta-qp / no-aq-motion / no-hdr10 / no-hdr10-opt / no-dhdr10-opt / no-idr-recovery-sei / analysis-reuse-level=0 / analysis-save-reuse-level=0 / analysis-load-reuse-level=0 / scale-factor=0 / refine-intra=0 / refine-inter=0 / refine-mv=1 / refine-ctu-distortion=0 / no-limit-sao / ctu-info=0 / no-lowpass-dct / refine-analysis-type=0 / copy-pic=1 / max-ausize-factor=1.0 / no-dynamic-refine / no-single-sei / no-hevc-aq / no-svt / no-field / qp-adaptation-range=1.00 / scenecut-aware-qp=0conformance-window-offsets / right=0 / bottom=0 / decoder-max-rate=0 / no-vbv-live-multi-pass / no-mcstf / no-sbrc
Язык : Английский
По умолчанию : Да
Принудительно : Нет

Аудио #1
Идентификатор : 2
Формат : AC-3
Формат/Информация : Audio Coding 3
Коммерческое название : Dolby Digital
Идентификатор кодека : A_AC3
Продолжительность : 1 ч. 57 мин.
Вид битрейта : Постоянный
Битрейт : 640 Кбит/сек
Канал(-ы) : 6 каналов
Расположение каналов : L R C LFE Ls Rs
Частота дискретизации : 48,0 КГц
Частота кадров : 31,250 кадров/сек (1536 SPF)
Метод сжатия : С потерями
Размер потока : 537 Мбайт (8%)
Заголовок : DUB (R5)
Язык : Русский
Вид сервиса : Complete Main
По умолчанию : Да
Принудительно : Нет
Нормализация звука речи : -27 dB
compr : -0.28 dB
cmixlev : -3.0 dB
surmixlev : -3 dB
mixlevel : 285 dB
roomtyp : Small
dialnorm_Average : -27 dB
dialnorm_Minimum : -27 dB
dialnorm_Maximum : -27 dB

Аудио #2
Идентификатор : 3
Формат : AC-3
Формат/Информация : Audio Coding 3
Коммерческое название : Dolby Digital
Идентификатор кодека : A_AC3
Продолжительность : 1 ч. 57 мин.
Вид битрейта : Постоянный
Битрейт : 640 Кбит/сек
Канал(-ы) : 6 каналов
Расположение каналов : L R C LFE Ls Rs
Частота дискретизации : 48,0 КГц
Частота кадров : 31,250 кадров/сек (1536 SPF)
Метод сжатия : С потерями
Размер потока : 537 Мбайт (8%)
Заголовок : AVO (Юрий Немахов, без цензуры)
Язык : Русский
Вид сервиса : Complete Main
По умолчанию : Нет
Принудительно : Нет
Нормализация звука речи : -27 dB
compr : -0.28 dB
cmixlev : -3.0 dB
surmixlev : -3 dB
mixlevel : 285 dB
roomtyp : Small
dialnorm_Average : -27 dB
dialnorm_Minimum : -27 dB
dialnorm_Maximum : -27 dB

Аудио #3
Идентификатор : 4
Формат : AC-3
Формат/Информация : Audio Coding 3
Коммерческое название : Dolby Digital
Идентификатор кодека : A_AC3
Продолжительность : 1 ч. 57 мин.
Вид битрейта : Постоянный
Битрейт : 192 Кбит/сек
Канал(-ы) : 2 канала
Расположение каналов : L R
Частота дискретизации : 48,0 КГц
Частота кадров : 31,250 кадров/сек (1536 SPF)
Метод сжатия : С потерями
Размер потока : 161 Мбайт (2%)
Заголовок : AVO (Антон Карповский, "Кубинский заговор или группа Альфа", смешной перевод, без цензуры)
Язык : Русский
Вид сервиса : Complete Main
По умолчанию : Нет
Принудительно : Нет
Нормализация звука речи : -31 dB
compr : -0.28 dB
dialnorm_Average : -31 dB
dialnorm_Minimum : -31 dB
dialnorm_Maximum : -31 dB

Аудио #4
Идентификатор : 5
Формат : AC-3
Формат/Информация : Audio Coding 3
Коммерческое название : Dolby Digital
Идентификатор кодека : A_AC3
Продолжительность : 1 ч. 57 мин.
Вид битрейта : Постоянный
Битрейт : 192 Кбит/сек
Канал(-ы) : 2 канала
Расположение каналов : L R
Частота дискретизации : 48,0 КГц
Частота кадров : 31,250 кадров/сек (1536 SPF)
Метод сжатия : С потерями
Размер потока : 161 Мбайт (2%)
Заголовок : VO (Михаил Яроцкий, без цензуры)
Язык : Русский
Вид сервиса : Complete Main
По умолчанию : Нет
Принудительно : Нет
Нормализация звука речи : -31 dB
compr : -0.28 dB
dialnorm_Average : -31 dB
dialnorm_Minimum : -31 dB
dialnorm_Maximum : -31 dB

Аудио #5
Идентификатор : 6
Формат : AC-3
Формат/Информация : Audio Coding 3
Коммерческое название : Dolby Digital
Идентификатор кодека : A_AC3
Продолжительность : 1 ч. 57 мин.
Вид битрейта : Постоянный
Битрейт : 192 Кбит/сек
Канал(-ы) : 2 канала
Расположение каналов : L R
Частота дискретизации : 48,0 КГц
Частота кадров : 31,250 кадров/сек (1536 SPF)
Метод сжатия : С потерями
Размер потока : 161 Мбайт (2%)
Заголовок : VO (Дмитрий Штамп / sfairat / sf@irat, без цензуры)
Язык : Русский
Вид сервиса : Complete Main
По умолчанию : Нет
Принудительно : Нет
Нормализация звука речи : -31 dB
compr : -0.28 dB
dialnorm_Average : -31 dB
dialnorm_Minimum : -31 dB
dialnorm_Maximum : -31 dB

Аудио #6
Идентификатор : 7
Формат : AC-3
Формат/Информация : Audio Coding 3
Коммерческое название : Dolby Digital
Идентификатор кодека : A_AC3
Продолжительность : 1 ч. 57 мин.
Вид битрейта : Постоянный
Битрейт : 192 Кбит/сек
Канал(-ы) : 2 канала
Расположение каналов : L R
Частота дискретизации : 48,0 КГц
Частота кадров : 31,250 кадров/сек (1536 SPF)
Метод сжатия : С потерями
Размер потока : 161 Мбайт (2%)
Заголовок : MVO (1+1)
Язык : Украинский
Вид сервиса : Complete Main
По умолчанию : Нет
Принудительно : Нет
Нормализация звука речи : -31 dB
dialnorm_Average : -31 dB
dialnorm_Minimum : -31 dB
dialnorm_Maximum : -31 dB

Аудио #7
Идентификатор : 8
Формат : AC-3
Формат/Информация : Audio Coding 3
Коммерческое название : Dolby Digital
Идентификатор кодека : A_AC3
Продолжительность : 1 ч. 57 мин.
Вид битрейта : Постоянный
Битрейт : 640 Кбит/сек
Канал(-ы) : 6 каналов
Расположение каналов : L R C LFE Ls Rs
Частота дискретизации : 48,0 КГц
Частота кадров : 31,250 кадров/сек (1536 SPF)
Метод сжатия : С потерями
Размер потока : 537 Мбайт (8%)
Язык : Английский
Вид сервиса : Complete Main
По умолчанию : Нет
Принудительно : Нет
Нормализация звука речи : -27 dB
compr : -0.28 dB
cmixlev : -3.0 dB
surmixlev : -3 dB
mixlevel : 285 dB
roomtyp : Small
dialnorm_Average : -27 dB
dialnorm_Minimum : -27 dB
dialnorm_Maximum : -27 dB

Текст #1
Идентификатор : 9
Формат : UTF-8
Идентификатор кодека : S_TEXT/UTF8
Идентификатор кодека/Информация : UTF-8 Plain Text
Продолжительность : 1 ч. 52 мин.
Битрейт : 114 бит/сек
Частота кадров : 0,306 кадр/сек
Число элементов : 2059
Размер потока : 93,9 КиБ (0%)
Заголовок : full
Язык : Русский
По умолчанию : Нет
Принудительно : Нет

Текст #2
Идентификатор : 10
Формат : UTF-8
Идентификатор кодека : S_TEXT/UTF8
Идентификатор кодека/Информация : UTF-8 Plain Text
Продолжительность : 1 ч. 48 мин.
Битрейт : 125 бит/сек
Частота кадров : 0,257 кадр/сек
Число элементов : 1679
Размер потока : 99,9 КиБ (0%)
Заголовок : full
Язык : Украинский
По умолчанию : Нет
Принудительно : Нет

Текст #3
Идентификатор : 11
Формат : UTF-8
Идентификатор кодека : S_TEXT/UTF8
Идентификатор кодека/Информация : UTF-8 Plain Text
Продолжительность : 1 ч. 48 мин.
Битрейт : 70 бит/сек
Частота кадров : 0,241 кадр/сек
Число элементов : 1575
Размер потока : 56,3 КиБ (0%)
Заголовок : full
Язык : Английский
По умолчанию : Нет
Принудительно : Нет

Текст #4
Идентификатор : 12
Формат : UTF-8
Идентификатор кодека : S_TEXT/UTF8
Идентификатор кодека/Информация : UTF-8 Plain Text
Продолжительность : 1 ч. 48 мин.
Битрейт : 72 бит/сек
Частота кадров : 0,250 кадр/сек
Число элементов : 1631
Размер потока : 57,6 КиБ (0%)
Заголовок : SDH
Язык : Английский
По умолчанию : Нет
Принудительно : Нет

Меню
00:00:00.000 : en:Chapter 01
00:07:47.416 : en:Chapter 02
00:17:45.291 : en:Chapter 03
00:32:01.458 : en:Chapter 04
00:39:07.375 : en:Chapter 05
00:50:20.791 : en:Chapter 06
00:58:14.375 : en:Chapter 07
01:10:18.708 : en:Chapter 08
01:19:46.291 : en:Chapter 09
01:30:03.125 : en:Chapter 10
01:41:59.458 : en:Chapter 11
01:52:55.000 : en:Chapter 12
Загрузка...Cкриншот1 Альфа Дог / Alpha Dog (2006) BDRip 1080p [HEVC] 10 bit от OldGamer (RG RIPS CLUB)Загрузка...Cкриншот2 Альфа Дог / Alpha Dog (2006) BDRip 1080p [HEVC] 10 bit от OldGamer (RG RIPS CLUB)Загрузка...Cкриншот3 Альфа Дог / Alpha Dog (2006) BDRip 1080p [HEVC] 10 bit от OldGamer (RG RIPS CLUB)Загрузка...Cкриншот4 Альфа Дог / Alpha Dog (2006) BDRip 1080p [HEVC] 10 bit от OldGamer (RG RIPS CLUB)
Поблагодарили: 9A1eksandr1, and50, Antilord90, gotgame1, IRIT, Kiran, Kristina, SaN161NeK, stickstoff
Файлы: 1
  • Альфа.Дог.Alpha.Dog.2006.BDRip-HEVC.1080p.mkv

Рейтинги КП и IMDB, кнопки "Раздайте, пожалуйста" и "Спасибо", а также мультитрекерная статистика доступны только зарегистрированным/авторизованным пользователям!

OldGamer
23011806.63 ГБ

💬︎ Комментарии

Добавление комментариев доступно только зарегистрированным/авторизованным пользователям.