Чат

⚫︎
Список изменений сайта - https://rips.club/changelog.html (обновлен 24.05.2024)
  • arwis
Онлайн (за 10 мин.): 1
Отправка сообщений доступна только зарегистрированным/авторизованным пользователям.

🎥︎Бахубали: Рождение легенды / Baahubali 2: The Conclusion (2017) BDRip 1080p [HEVC] 10 bit от OldGamer (RG RIPS CLUB)


Обложка Бахубали: Рождение легенды / Baahubali 2: The Conclusion (2017) BDRip 1080p [HEVC] 10 bit от OldGamer (RG RIPS CLUB)
HEVC
10 bit
✂︎Сэмпл⤓︎Торрент🧲︎Магнет$Пожертвования

При перезаливке на другие сайты просьба указать автора и релиз-группу.


Год: 2017
Страна: Индия
Студия: Arka Mediaworks
Жанр: Фэнтези, Боевик, Мелодрама
Длительность: 02:46:49

Режиссер: С.С. Раджамули
В ролях: Прабхас, Рана Даггубати, Анушка Шетти, Сатхьярадж, Рамья Кришна, Таманна Бхатия, Нассар, Суббараджу, Мека Рама Кришна, Раджсекхар Анинги

Описание: Старый Каттаппа рассказывает Шиве, почему убил его отца Амарендру. После того как тот был усыновлён королевой Сивагами, старший сводный брат Бхаллаладева всегда ему завидовал. Зависть достигла апогея после битвы с дикими племенами, когда Сивагами нарекла младшего сына наследником королевства. Бхаллаладева и его хитрый дядя начинают плести грязные интриги, чтобы сжить Амарендру со свету.


Релиз-группа: RIPS CLUB
Исходник: Blu-Ray Remux 1080p (kinozal)
Видео: 1920x804, ~7197 Kbps
Аудио1: AC3, 2 ch, 192 Kbps - РусскийРусский, DUB (СТС)
Аудио2: AC3, 2 ch, 192 Kbps - РусскийРусский, MVO (Honey&Haseena)
Аудио3: AC3, 6 ch, 640 Kbps - Индийский (ХиндиХинди)
Субтитры: русские (full, forced), английские

Как за несколько секунд удалить ненужные аудиодорожки и субтитры (Внимание! После удаления вы не сможете поддержать раздачу)


Лог (x265 info)x265 [info]: frame I: 1004, Avg QP:17.42 kb/s: 22205.01
x265 [info]: frame P: 52388, Avg QP:19.27 kb/s: 13065.41
x265 [info]: frame B: 186843, Avg QP:20.70 kb/s: 5470.14
x265 [info]: Weighted P-Frames: Y:7.3% UV:5.5%
x265 [info]: Weighted B-Frames: Y:9.6% UV:5.7%
x265 [info]: encoded 240235 frames in 163201.98s (1.47 fps), 7196.38 kb/s, Avg QP:20.37
МедиаинфоОбщее
Уникальный идентификатор : 119077284740142827659479086823732860487 (0x5995736A1A16A3997A105BCA8C76D647)
Полное имя : \\.\Бахубали.Рождение.легенды.Bãhubali.2.The.Conclusion.2017.BDRip-HEVC.1080p.mkv
Формат : Matroska
Версия формата : Version 4
Размер файла : 9,58 Гбайт
Продолжительность : 2 ч. 46 мин.
Общий битрейт : 8 224 Кбит/сек
Частота кадров : 24,000 кадра/сек
Дата кодирования : 2024-07-04 01:16:27 UTC
Программа кодирования : mkvmerge v85.0 ('Shame For You') 64-bit
Библиотека кодирования : libebml v1.4.5 + libmatroska v1.7.1

Видео
Идентификатор : 1
Формат : HEVC
Формат/Информация : High Efficiency Video Coding
Профиль формата : Main 10@L4.1@High
Идентификатор кодека : V_MPEGH/ISO/HEVC
Продолжительность : 2 ч. 46 мин.
Битрейт : 7 197 Кбит/сек
Ширина : 1 920 пикселей
Высота : 804 пикселя
Соотношение сторон дисплея : 2,39:1
Режим частоты кадров : Постоянный
Частота кадров : 24,000 кадра/сек
Цветовое пространство : YUV
Цветовая субдискретизация : 4:2:0
Битовая глубина : 10 бит
Бит/(Пиксели*Кадры) : 0.194
Размер потока : 8,39 Гбайт (88%)
Заголовок : Bãhubali 2: The Conclusion / Rip by OldGamer
Библиотека кодирования : x265 3.6+27-8787e8702:[Windows][GCC 13.3.0][64 bit] 10bit
Параметры библиотеки кодирования : cpuid=1111039 / frame-threads=3 / numa-pools=8 / wpp / no-pmode / no-pme / no-psnr / no-ssim / log-level=2 / input-csp=1 / input-res=1920x804 / interlace=0 / total-frames=240235 / level-idc=41 / high-tier=1 / uhd-bd=0 / ref=5 / no-allow-non-conformance / no-repeat-headers / annexb / no-aud / no-eob / no-eos / no-hrd / info / hash=0 / temporal-layers=0 / open-gop / min-keyint=23 / keyint=240 / gop-lookahead=0 / bframes=16 / b-adapt=2 / b-pyramid / bframe-bias=0 / rc-lookahead=60 / lookahead-slices=0 / scenecut=40 / no-hist-scenecut / radl=0 / no-splice / no-intra-refresh / ctu=32 / min-cu-size=8 / rect / amp / max-tu-size=32 / tu-inter-depth=4 / tu-intra-depth=4 / limit-tu=1 / rdoq-level=2 / dynamic-rd=0.00 / no-ssim-rd / signhide / no-tskip / nr-intra=0 / nr-inter=0 / no-constrained-intra / no-strong-intra-smoothing / max-merge=5 / limit-refs=3 / no-limit-modes / me=3 / subme=7 / merange=57 / temporal-mvp / no-frame-dup / no-hme / weightp / weightb / no-analyze-src-pics / deblock=-2:-2 / no-sao / no-sao-non-deblock / rd=6 / selective-sao=0 / no-early-skip / no-rskip / no-fast-intra / no-tskip-fast / no-cu-lossless / b-intra / no-splitrd-skip / rdpenalty=0 / psy-rd=2.00 / psy-rdoq=1.00 / no-rd-refine / no-lossless / cbqpoffs=0 / crqpoffs=0 / rc=crf / crf=18.5 / qcomp=0.60 / qpstep=4 / stats-write=0 / stats-read=0 / vbv-maxrate=50000 / vbv-bufsize=50000 / vbv-init=0.9 / min-vbv-fullness=50.0 / max-vbv-fullness=80.0 / crf-max=0.0 / crf-min=0.0 / ipratio=1.40 / pbratio=1.30 / aq-mode=1 / aq-strength=1.00 / no-cutree / zone-count=1 / zones: / start-frame=233102 / end-frame=240235 / qp=36 / no-strict-cbr / qg-size=32 / no-rc-grain / qpmax=69 / qpmin=0 / no-const-vbv / sar=1 / overscan=0 / videoformat=5 / range=0 / colorprim=2 / transfer=2 / colormatrix=2 / chromaloc=0 / display-window=0 / cll=0,0 / min-luma=0 / max-luma=1023 / log2-max-poc-lsb=8 / vui-timing-info / vui-hrd-info / slices=1 / no-opt-qp-pps / no-opt-ref-list-length-pps / no-multi-pass-opt-rps / scenecut-bias=0.00 / no-opt-cu-delta-qp / no-aq-motion / no-hdr10 / no-hdr10-opt / no-dhdr10-opt / no-idr-recovery-sei / analysis-reuse-level=0 / analysis-save-reuse-level=0 / analysis-load-reuse-level=0 / scale-factor=0 / refine-intra=0 / refine-inter=0 / refine-mv=1 / refine-ctu-distortion=0 / no-limit-sao / ctu-info=0 / no-lowpass-dct / refine-analysis-type=0 / copy-pic=1 / max-ausize-factor=1.0 / no-dynamic-refine / no-single-sei / no-hevc-aq / no-svt / no-field / qp-adaptation-range=1.00 / scenecut-aware-qp=0conformance-window-offsets / right=0 / bottom=0 / decoder-max-rate=0 / no-vbv-live-multi-pass / no-mcstf / no-sbrc
Язык : Хинди
По умолчанию : Да
Принудительно : Нет

Аудио #1
Идентификатор : 2
Формат : AC-3
Формат/Информация : Audio Coding 3
Коммерческое название : Dolby Digital
Идентификатор кодека : A_AC3
Продолжительность : 2 ч. 46 мин.
Вид битрейта : Постоянный
Битрейт : 192 Кбит/сек
Канал(-ы) : 2 канала
Расположение каналов : L R
Частота дискретизации : 48,0 КГц
Частота кадров : 31,250 кадров/сек (1536 SPF)
Метод сжатия : С потерями
Размер потока : 229 Мбайт (2%)
Заголовок : DUB (СТС)
Язык : Русский
Вид сервиса : Complete Main
По умолчанию : Да
Принудительно : Нет
Нормализация звука речи : -27 dB
compr : -0.28 dB
dynrng : -6.88 dB
mixlevel : 285 dB
roomtyp : Small
dialnorm_Average : -27 dB
dialnorm_Minimum : -27 dB
dialnorm_Maximum : -27 dB

Аудио #2
Идентификатор : 3
Формат : AC-3
Формат/Информация : Audio Coding 3
Коммерческое название : Dolby Digital
Идентификатор кодека : A_AC3
Продолжительность : 2 ч. 46 мин.
Вид битрейта : Постоянный
Битрейт : 192 Кбит/сек
Канал(-ы) : 2 канала
Расположение каналов : L R
Частота дискретизации : 48,0 КГц
Частота кадров : 31,250 кадров/сек (1536 SPF)
Метод сжатия : С потерями
Размер потока : 229 Мбайт (2%)
Заголовок : MVO (Honey&Haseena)
Язык : Русский
Вид сервиса : Complete Main
По умолчанию : Нет
Принудительно : Нет
Нормализация звука речи : -27 dB
compr : -0.28 dB
dynrng : -8.52 dB
mixlevel : 285 dB
roomtyp : Small
dialnorm_Average : -27 dB
dialnorm_Minimum : -27 dB
dialnorm_Maximum : -27 dB

Аудио #3
Идентификатор : 4
Идентификатор в исходном носителе информ : 4352 (0x1100)
Формат : AC-3
Формат/Информация : Audio Coding 3
Коммерческое название : Dolby Digital
Идентификатор кодека : A_AC3
Продолжительность : 2 ч. 46 мин.
Вид битрейта : Постоянный
Битрейт : 640 Кбит/сек
Канал(-ы) : 6 каналов
Расположение каналов : L R C LFE Ls Rs
Частота дискретизации : 48,0 КГц
Частота кадров : 31,250 кадров/сек (1536 SPF)
Метод сжатия : С потерями
Размер потока : 764 Мбайт (8%)
Язык : Хинди
Вид сервиса : Complete Main
По умолчанию : Нет
Принудительно : Нет
Носитель оригинала : Blu-ray
Нормализация звука речи : -31 dB
compr : 1.02 dB
dynrng : 0.78 dB
cmixlev : -3.0 dB
surmixlev : -3 dB
dmixmod : Lt/Rt
ltrtcmixlev : -3.0 dB
ltrtsurmixlev : -3.0 dB
lorocmixlev : -3.0 dB
lorosurmixlev : -3.0 dB
dialnorm_Average : -31 dB
dialnorm_Minimum : -31 dB
dialnorm_Maximum : -31 dB

Текст #1
Идентификатор : 5
Формат : UTF-8
Идентификатор кодека : S_TEXT/UTF8
Идентификатор кодека/Информация : UTF-8 Plain Text
Продолжительность : 2 ч. 40 мин.
Битрейт : 10 бит/сек
Частота кадров : 0,025 кадр/сек
Число элементов : 239
Размер потока : 11,8 КиБ (0%)
Заголовок : На песни (Enigma)
Язык : Русский
По умолчанию : Да
Принудительно : Нет

Текст #2
Идентификатор : 6
Формат : UTF-8
Идентификатор кодека : S_TEXT/UTF8
Идентификатор кодека/Информация : UTF-8 Plain Text
Продолжительность : 2 ч. 4 мин.
Битрейт : 12 бит/сек
Частота кадров : 0,022 кадр/сек
Число элементов : 163
Размер потока : 11,3 КиБ (0%)
Заголовок : На песни (Honey&Haseena)
Язык : Русский
По умолчанию : Нет
Принудительно : Нет

Текст #3
Идентификатор : 7
Формат : UTF-8
Идентификатор кодека : S_TEXT/UTF8
Идентификатор кодека/Информация : UTF-8 Plain Text
Продолжительность : 2 ч. 41 мин.
Битрейт : 73 бит/сек
Частота кадров : 0,161 кадр/сек
Число элементов : 1563
Размер потока : 87,1 КиБ (0%)
Заголовок : Полные (Enigma)
Язык : Русский
По умолчанию : Нет
Принудительно : Нет

Текст #4
Идентификатор : 8
Формат : UTF-8
Идентификатор кодека : S_TEXT/UTF8
Идентификатор кодека/Информация : UTF-8 Plain Text
Продолжительность : 2 ч. 41 мин.
Битрейт : 42 бит/сек
Частота кадров : 0,158 кадр/сек
Число элементов : 1532
Размер потока : 50,1 КиБ (0%)
Язык : Английский
По умолчанию : Нет
Принудительно : Нет

Меню
00:00:00.000 : en:Глава 01
00:02:42.375 : en:Глава 02
00:05:11.458 : en:Глава 03
00:08:24.458 : en:Глава 04
00:16:41.541 : en:Глава 05
00:30:31.791 : en:Глава 06
00:39:21.791 : en:Глава 07
00:42:57.500 : en:Глава 08
00:46:24.541 : en:Глава 09
00:51:02.416 : en:Глава 10
01:07:36.416 : en:Глава 11
01:11:51.041 : en:Глава 12
01:18:27.875 : en:Глава 13
01:27:20.000 : en:Глава 14
01:38:15.333 : en:Глава 15
01:43:27.416 : en:Глава 16
01:51:08.166 : en:Глава 17
02:01:31.000 : en:Глава 18
02:13:27.833 : en:Глава 19
02:39:25.250 : en:Глава 20
Загрузка...Cкриншот1 Бахубали: Рождение легенды / Baahubali 2: The Conclusion (2017) BDRip 1080p [HEVC] 10 bit от OldGamer (RG RIPS CLUB)Загрузка...Cкриншот2 Бахубали: Рождение легенды / Baahubali 2: The Conclusion (2017) BDRip 1080p [HEVC] 10 bit от OldGamer (RG RIPS CLUB)Загрузка...Cкриншот3 Бахубали: Рождение легенды / Baahubali 2: The Conclusion (2017) BDRip 1080p [HEVC] 10 bit от OldGamer (RG RIPS CLUB)Загрузка...Cкриншот4 Бахубали: Рождение легенды / Baahubali 2: The Conclusion (2017) BDRip 1080p [HEVC] 10 bit от OldGamer (RG RIPS CLUB)
Поблагодарили: 4A1eksandr1, AlexsBond, Kilop77, MIGRANT
Файлы: 1
  • Бахубали.Рождение.легенды.Baahubali.2.The.Conclusion.2017.BDRip-HEVC.1080p.mkv

Рейтинги КП и IMDB, кнопки "Раздайте, пожалуйста" и "Спасибо", а также мультитрекерная статистика доступны только зарегистрированным/авторизованным пользователям!

OldGamer
1809209.58 ГБ

💬︎ Комментарии

Добавление комментариев доступно только зарегистрированным/авторизованным пользователям.