Чат

⚫︎
Список изменений сайта - https://rips.club/changelog.html (обновлен 24.05.2024)
    Онлайн (за 10 мин.): 0
    Отправка сообщений доступна только зарегистрированным/авторизованным пользователям.

    🎥︎Пальметто / Palmetto (1998) BDRip 1080p [HEVC] 10 bit от OldGamer (RG RIPS CLUB)


    Обложка Пальметто / Palmetto (1998) BDRip 1080p [HEVC] 10 bit от OldGamer (RG RIPS CLUB)
    HEVC
    10 bit
    ✂︎Сэмпл⤓︎Торрент🧲︎Магнет$Пожертвования

    При перезаливке на другие сайты просьба указать автора и релиз-группу.


    Год: 1998
    Страна: США, Германия
    Студия: Castle Rock Entertainment, Code Entertainment, Columbia Pictures Corporation, Rialto Film
    Жанр: Триллер, Драма, Мелодрама, Криминал
    Длительность: 01:53:24

    Режиссер: Фолькер Шлёндорф
    В ролях: Вуди Харрельсон, Элизабет Шу, Джина Гершон, Рольф Хоппе, Майкл Рапапорт, Хлоя Севиньи, Том Райт, Марк Маколэй, Джо Хикки, Ральф Уилкокс

    Описание: Гарри Барберу предложили быстро и хорошо заработать. Чтобы выманить деньги у старого и больного миллионера, его жена и дочь от другого брака решили инсценировать похищение последней и потребовать выкуп. Им нужен кто-то, кто бы позвонил старику, объявил сумму выкупа, а потом забрал бы деньги. Именно на эту роль и пригласили Гарри. Гарри, до этого ни за что отсидевший два года в тюрьме, неохотно, но согласился. Возможно, он сделал тем самым серьёзную ошибку...


    Релиз-группа: RIPS CLUB
    Исходник: Blu-Ray Remux 1080p (rutracker)
    Видео: 1920x804, ~9325 Kbps
    Аудио1: AC3, 2 ch, 224 Kbps - РусскийРусский, DUB
    Аудио2: AC3, 2 ch, 192 Kbps - РусскийРусский, MVO
    Аудио3: AC3, 2 ch, 224 Kbps - РусскийРусский, AVO (Юрий Живов)
    Аудио4: AC3, 2 ch, 192 Kbps - РусскийРусский, AVO (Сергей Визгунов)
    Аудио5: AC3, 2 ch, 192 Kbps - РусскийРусский, AVO (Александр Кашкин)
    Аудио6: AC3, 6 ch, 640 Kbps - АнглийскийАнглийский
    Субтитры: английские

    Как за несколько секунд удалить ненужные аудиодорожки и субтитры (Внимание! После удаления вы не сможете поддержать раздачу)


    Лог (x265 info)x265 [info]: frame I: 684, Avg QP:18.17 kb/s: 18290.26
    x265 [info]: frame P: 23569, Avg QP:19.40 kb/s: 14452.68
    x265 [info]: frame B: 138900, Avg QP:21.22 kb/s: 8409.68
    x265 [info]: Weighted P-Frames: Y:9.1% UV:7.7%
    x265 [info]: Weighted B-Frames: Y:7.5% UV:5.8%
    x265 [info]: encoded 163153 frames in 114687.04s (1.42 fps), 9324.08 kb/s, Avg QP:20.94
    МедиаинфоОбщее
    Уникальный идентификатор : 121381038451286818203626631526530763946 (0x5B51233DE8DA093331893AC2D5794CAA)
    Полное имя : \\.\Пальметто.Palmetto.1998.BDRip-HEVC.1080p.mkv
    Формат : Matroska
    Версия формата : Version 4
    Размер файла : 8,71 Гбайт
    Продолжительность : 1 ч. 53 мин.
    Общий битрейт : 11,0 Мбит/сек
    Частота кадров : 23,976 кадра/сек
    Название фильма : Пальметто / Пальметто
    Кодирование выполнил : OldGamer
    Тип содержимого : Movie
    Описание : «По мотивам романа Д.Х. Чейза «Ещё один простак»
    Дата выпуска : 1998-02-20
    Дата записи : 1998-02-20
    Программа кодирования : mkvmerge v83.0 ('Circle Of Friends') 64-bit
    Библиотека кодирования : libebml v1.4.5 + libmatroska v1.7.1 / xvid4psp5
    Обложка : Yes
    Attachments : cover.jpg
    ACTOR : Вуди Харрельсон, Джина Гершон, Элизабет Шу, Rolf Hoppe, Michael Rapaport, Хлоя Севиньи, Tom Wright, Marc Macaulay, Joe Hickey, Ralph Wilcox, Peter Paul DeLeo, Mal Jones, Salvador Levy, Richard Booker, Mikki Scanlon, Bill Larson, Tim W. Terry, Jim Jan...
    ARTIST : Вуди Харрельсон, Джина Гершон, Элизабет Шу, Rolf Hoppe, Michael Rapaport, Хлоя Севиньи, Tom Wright, Marc Macaulay, Joe Hickey, Ralph Wilcox, Peter Paul DeLeo, Mal Jones, Salvador Levy, Richard Booker, Mikki Scanlon, Bill Larson, Tim W. Terry, Jim Jan...
    DIRECTOR : Volker Schlöndorff
    GENRE : криминал, драма, детектив, мелодрама, триллер
    LAW_RATING : R
    PRODUCER : Matthias Wendlandt
    PRODUCTION_STUDIO : Columbia Pictures
    RATING : R
    SCREENPLAY_BY : E. Max Frye
    SUMMARY : «По мотивам романа Д.Х. Чейза «Ещё один простак»
    SYNOPSIS : Гарри Барберу предложили быстро и хорошо заработать. Чтобы выманить деньги у старого и больного миллионера, его жена и дочь от другого брака решили инсценировать похищение последней и потребовать выкуп. Им нужен кто-то, кто бы позвонил старику, объявил сумму выкупа, а потом забрал бы деньги. Именно на эту роль и пригласили Гарри. Гарри, до этого ни за что отсидевший два года в тюрьме, неохотно, но согласился. Возможно, он сделал тем самым серьёзную ошибку...
    WRITTEN_BY : E. Max Frye

    Видео
    Идентификатор : 1
    Формат : HEVC
    Формат/Информация : High Efficiency Video Coding
    Профиль формата : Main 10@L4.1@High
    Идентификатор кодека : V_MPEGH/ISO/HEVC
    Продолжительность : 1 ч. 53 мин.
    Битрейт : 9 325 Кбит/сек
    Ширина : 1 920 пикселей
    Высота : 804 пикселя
    Соотношение сторон дисплея : 2,39:1
    Режим частоты кадров : Постоянный
    Частота кадров : 23,976 (24000/1001) кадра/сек
    Цветовое пространство : YUV
    Цветовая субдискретизация : 4:2:0
    Битовая глубина : 10 бит
    Бит/(Пиксели*Кадры) : 0.252
    Размер потока : 7,39 Гбайт (85%)
    Заголовок : Palmetto / Rip by OldGamer
    Библиотека кодирования : x265 3.5+110-8ee01d45b:[Windows][GCC 13.2.0][64 bit] 10bit
    Параметры библиотеки кодирования : cpuid=1111039 / frame-threads=3 / numa-pools=8 / wpp / no-pmode / no-pme / no-psnr / no-ssim / log-level=2 / input-csp=1 / input-res=1920x804 / interlace=0 / total-frames=163153 / level-idc=41 / high-tier=1 / uhd-bd=0 / ref=5 / no-allow-non-conformance / no-repeat-headers / annexb / no-aud / no-eob / no-eos / no-hrd / info / hash=0 / temporal-layers=0 / open-gop / min-keyint=23 / keyint=240 / gop-lookahead=0 / bframes=16 / b-adapt=2 / b-pyramid / bframe-bias=0 / rc-lookahead=60 / lookahead-slices=0 / scenecut=40 / no-hist-scenecut / radl=0 / no-splice / no-intra-refresh / ctu=32 / min-cu-size=8 / rect / amp / max-tu-size=32 / tu-inter-depth=4 / tu-intra-depth=4 / limit-tu=1 / rdoq-level=2 / dynamic-rd=0.00 / no-ssim-rd / signhide / no-tskip / nr-intra=0 / nr-inter=0 / no-constrained-intra / no-strong-intra-smoothing / max-merge=5 / limit-refs=3 / no-limit-modes / me=3 / subme=7 / merange=57 / temporal-mvp / no-frame-dup / no-hme / weightp / weightb / no-analyze-src-pics / deblock=-2:-2 / no-sao / no-sao-non-deblock / rd=6 / selective-sao=0 / no-early-skip / no-rskip / no-fast-intra / no-tskip-fast / no-cu-lossless / b-intra / no-splitrd-skip / rdpenalty=0 / psy-rd=2.00 / psy-rdoq=1.00 / no-rd-refine / no-lossless / cbqpoffs=0 / crqpoffs=0 / rc=crf / crf=19.5 / qcomp=0.60 / qpstep=4 / stats-write=0 / stats-read=0 / vbv-maxrate=50000 / vbv-bufsize=50000 / vbv-init=0.9 / min-vbv-fullness=50.0 / max-vbv-fullness=80.0 / crf-max=0.0 / crf-min=0.0 / ipratio=1.40 / pbratio=1.30 / aq-mode=1 / aq-strength=1.00 / no-cutree / zone-count=1 / zones: / start-frame=158129 / end-frame=163153 / qp=36 / no-strict-cbr / qg-size=32 / no-rc-grain / qpmax=69 / qpmin=0 / no-const-vbv / sar=1 / overscan=0 / videoformat=5 / range=0 / colorprim=2 / transfer=2 / colormatrix=2 / chromaloc=0 / display-window=0 / cll=0,0 / min-luma=0 / max-luma=1023 / log2-max-poc-lsb=8 / vui-timing-info / vui-hrd-info / slices=1 / no-opt-qp-pps / no-opt-ref-list-length-pps / no-multi-pass-opt-rps / scenecut-bias=0.00 / no-opt-cu-delta-qp / no-aq-motion / no-hdr10 / no-hdr10-opt / no-dhdr10-opt / no-idr-recovery-sei / analysis-reuse-level=0 / analysis-save-reuse-level=0 / analysis-load-reuse-level=0 / scale-factor=0 / refine-intra=0 / refine-inter=0 / refine-mv=1 / refine-ctu-distortion=0 / no-limit-sao / ctu-info=0 / no-lowpass-dct / refine-analysis-type=0 / copy-pic=1 / max-ausize-factor=1.0 / no-dynamic-refine / no-single-sei / no-hevc-aq / no-svt / no-field / qp-adaptation-range=1.00 / scenecut-aware-qp=0conformance-window-offsets / right=0 / bottom=0 / decoder-max-rate=0 / no-vbv-live-multi-pass / no-mcstf / no-sbrc
    Язык : Английский
    По умолчанию : Да
    Принудительно : Нет

    Аудио #1
    Идентификатор : 2
    Формат : AC-3
    Формат/Информация : Audio Coding 3
    Коммерческое название : Dolby Digital
    Идентификатор кодека : A_AC3
    Продолжительность : 1 ч. 53 мин.
    Вид битрейта : Постоянный
    Битрейт : 224 Кбит/сек
    Канал(-ы) : 2 канала
    Расположение каналов : L R
    Частота дискретизации : 48,0 КГц
    Частота кадров : 31,250 кадров/сек (1536 SPF)
    Метод сжатия : С потерями
    Размер потока : 182 Мбайт (2%)
    Заголовок : DUB
    Язык : Русский
    Вид сервиса : Complete Main
    По умолчанию : Да
    Принудительно : Нет
    Нормализация звука речи : -31 dB
    dialnorm_Average : -31 dB
    dialnorm_Minimum : -31 dB
    dialnorm_Maximum : -31 dB

    Аудио #2
    Идентификатор : 3
    Формат : AC-3
    Формат/Информация : Audio Coding 3
    Коммерческое название : Dolby Digital
    Идентификатор кодека : A_AC3
    Продолжительность : 1 ч. 53 мин.
    Вид битрейта : Постоянный
    Битрейт : 192 Кбит/сек
    Канал(-ы) : 2 канала
    Расположение каналов : L R
    Частота дискретизации : 48,0 КГц
    Частота кадров : 31,250 кадров/сек (1536 SPF)
    Метод сжатия : С потерями
    Размер потока : 156 Мбайт (2%)
    Заголовок : MVO
    Язык : Русский
    Вид сервиса : Complete Main
    По умолчанию : Нет
    Принудительно : Нет
    Нормализация звука речи : -27 dB
    compr : -0.28 dB
    dialnorm_Average : -27 dB
    dialnorm_Minimum : -27 dB
    dialnorm_Maximum : -27 dB

    Аудио #3
    Идентификатор : 4
    Формат : AC-3
    Формат/Информация : Audio Coding 3
    Коммерческое название : Dolby Digital
    Идентификатор кодека : A_AC3
    Продолжительность : 1 ч. 53 мин.
    Вид битрейта : Постоянный
    Битрейт : 224 Кбит/сек
    Канал(-ы) : 2 канала
    Расположение каналов : L R
    Частота дискретизации : 48,0 КГц
    Частота кадров : 31,250 кадров/сек (1536 SPF)
    Метод сжатия : С потерями
    Размер потока : 182 Мбайт (2%)
    Заголовок : AVO (Юрий Живов)
    Язык : Русский
    Вид сервиса : Complete Main
    По умолчанию : Нет
    Принудительно : Нет
    Нормализация звука речи : -31 dB
    dialnorm_Average : -31 dB
    dialnorm_Minimum : -31 dB
    dialnorm_Maximum : -31 dB

    Аудио #4
    Идентификатор : 5
    Формат : AC-3
    Формат/Информация : Audio Coding 3
    Коммерческое название : Dolby Digital
    Идентификатор кодека : A_AC3
    Продолжительность : 1 ч. 53 мин.
    Вид битрейта : Постоянный
    Битрейт : 192 Кбит/сек
    Канал(-ы) : 2 канала
    Расположение каналов : L R
    Частота дискретизации : 48,0 КГц
    Частота кадров : 31,250 кадров/сек (1536 SPF)
    Метод сжатия : С потерями
    Размер потока : 156 Мбайт (2%)
    Заголовок : AVO (Сергей Визгунов)
    Язык : Русский
    Вид сервиса : Complete Main
    По умолчанию : Нет
    Принудительно : Нет
    Нормализация звука речи : -27 dB
    compr : -0.28 dB
    dialnorm_Average : -27 dB
    dialnorm_Minimum : -27 dB
    dialnorm_Maximum : -27 dB

    Аудио #5
    Идентификатор : 6
    Формат : AC-3
    Формат/Информация : Audio Coding 3
    Коммерческое название : Dolby Digital
    Идентификатор кодека : A_AC3
    Продолжительность : 1 ч. 53 мин.
    Вид битрейта : Постоянный
    Битрейт : 192 Кбит/сек
    Канал(-ы) : 2 канала
    Расположение каналов : L R
    Частота дискретизации : 48,0 КГц
    Частота кадров : 31,250 кадров/сек (1536 SPF)
    Метод сжатия : С потерями
    Размер потока : 156 Мбайт (2%)
    Заголовок : AVO (Александр Кашкин)
    Язык : Русский
    Вид сервиса : Complete Main
    По умолчанию : Нет
    Принудительно : Нет
    Нормализация звука речи : -27 dB
    compr : -0.28 dB
    dialnorm_Average : -27 dB
    dialnorm_Minimum : -27 dB
    dialnorm_Maximum : -27 dB

    Аудио #6
    Идентификатор : 7
    Формат : AC-3
    Формат/Информация : Audio Coding 3
    Коммерческое название : Dolby Digital
    Идентификатор кодека : A_AC3
    Продолжительность : 1 ч. 53 мин.
    Вид битрейта : Постоянный
    Битрейт : 640 Кбит/сек
    Канал(-ы) : 6 каналов
    Расположение каналов : L R C LFE Ls Rs
    Частота дискретизации : 48,0 КГц
    Частота кадров : 31,250 кадров/сек (1536 SPF)
    Метод сжатия : С потерями
    Размер потока : 519 Мбайт (6%)
    Язык : Английский
    Вид сервиса : Complete Main
    По умолчанию : Нет
    Принудительно : Нет
    Нормализация звука речи : -27 dB
    compr : -0.28 dB
    cmixlev : -3.0 dB
    surmixlev : -3 dB
    mixlevel : 285 dB
    roomtyp : Small
    dialnorm_Average : -27 dB
    dialnorm_Minimum : -27 dB
    dialnorm_Maximum : -27 dB

    Текст
    Идентификатор : 8
    Формат : UTF-8
    Идентификатор кодека : S_TEXT/UTF8
    Идентификатор кодека/Информация : UTF-8 Plain Text
    Продолжительность : 1 ч. 52 мин.
    Битрейт : 59 бит/сек
    Частота кадров : 0,241 кадр/сек
    Число элементов : 1630
    Размер потока : 49,1 КиБ (0%)
    Заголовок : full
    Язык : Английский
    По умолчанию : Нет
    Принудительно : Нет

    Меню
    00:00:00.000 : en:1. A Free Man
    00:04:23.680 : en:2. Nina's Welcome
    00:07:59.187 : en:3. Lady Knows Things
    00:14:21.319 : en:4. A Better Offer
    00:16:17.476 : en:5. The Malroux House
    00:19:49.897 : en:6. The Plan
    00:25:21.520 : en:7. The Excitement
    00:29:18.173 : en:8. Odette's Story
    00:35:23.038 : en:9. Plan in Motion
    00:38:43.279 : en:10. Dented Proceedings
    00:40:37.560 : en:11. Lost Bets
    00:44:41.178 : en:12. Police Work
    00:49:11.365 : en:13. Not a Joke
    00:52:48.290 : en:14. Some Encouragement
    00:59:11.506 : en:15. Expected Payoff
    01:02:57.148 : en:16. Unexpected Payoff
    01:04:11.181 : en:17. Off-road Anxiety
    01:10:58.045 : en:18. "Bet he's local."
    01:15:00.413 : en:19. Could be Harry
    01:18:32.708 : en:20. Nina's Intuition
    01:23:31.590 : en:21. Not the Only One
    01:25:33.670 : en:22. Donnelly Solution
    01:30:58.161 : en:23. Pointing to Harry
    01:34:56.482 : en:24. Up to His Ears
    01:36:32.453 : en:25. In on This Together
    01:41:22.118 : en:26. Partners in Crime
    01:44:41.442 : en:27. The Deep End
    01:46:54.491 : en:28. Ending Isn't Right
    01:49:01.368 : en:29. Movie Material
    01:49:52.836 : en:30. End Credits
    Загрузка...Cкриншот1 Пальметто / Palmetto (1998) BDRip 1080p [HEVC] 10 bit от OldGamer (RG RIPS CLUB)Загрузка...Cкриншот2 Пальметто / Palmetto (1998) BDRip 1080p [HEVC] 10 bit от OldGamer (RG RIPS CLUB)Загрузка...Cкриншот3 Пальметто / Palmetto (1998) BDRip 1080p [HEVC] 10 bit от OldGamer (RG RIPS CLUB)Загрузка...Cкриншот4 Пальметто / Palmetto (1998) BDRip 1080p [HEVC] 10 bit от OldGamer (RG RIPS CLUB)
    Поблагодарили: 3and50, IRIT, SaN161NeK
    Файлы: 1
    • Пальметто.Palmetto.1998.BDRip-HEVC.1080p.mkv

    Рейтинги КП и IMDB, кнопки "Раздайте, пожалуйста" и "Спасибо", а также мультитрекерная статистика доступны только зарегистрированным/авторизованным пользователям!

    OldGamer
    7110208.71 ГБ

    💬︎ Комментарии

    Добавление комментариев доступно только зарегистрированным/авторизованным пользователям.