Чат

⚫︎
Список изменений сайта - https://rips.club/changelog.html (обновлен 24.05.2024)
    Онлайн (за 10 мин.): 0
    Отправка сообщений доступна только зарегистрированным/авторизованным пользователям.

    🎥︎Падение империи / Civil War (2024) BDRip 1080p [HEVC] 10 bit от OldGamer (RG RIPS CLUB)


    Обложка Падение империи / Civil War (2024) BDRip 1080p [HEVC] 10 bit от OldGamer (RG RIPS CLUB)
    HEVC
    10 bit
    ✂︎Сэмпл⤓︎Торрент🧲︎Магнет$Пожертвования

    При перезаливке на другие сайты просьба указать автора и релиз-группу.


    Год: 2024
    Страна: США, Великобритания
    Студия: A24, DNA Films, IPR.VC
    Жанр: Боевик, Драма
    Длительность: 01:49:01

    Режиссер: Алекс Гарленд
    В ролях: Кирстен Данст, Вагнер Моура, Кэйли Спэни, Стивен Хендерсон, Соноя Мидзуно, Ник Офферман, Джефферсон Уайт, Хуани Фелиз, Нельсон Ли, Эдмунд Донован

    Описание: Недалёкое будущее, в США бушует гражданская война. Объединённые силы Запада — Калифорнии и Техаса — уже близки к взятию Вашингтона. Двое опытных военных корреспондентов и присоединившиеся к ним ветеран журналистики и начинающая девушка-фотограф отправляются из Нью-Йорка в столицу, чтобы успеть взять интервью у забаррикадировавшегося в Белом доме президента, прежде чем до него доберётся противник.


    Релиз-группа: RIPS CLUB
    Исходник: Blu-Ray Remux 1080p (rutracker)
    Видео: 1920x1040, ~5848 Kbps
    Аудио1: E-AC3, 6 ch, 448 Kbps - РусскийРусский, DUB (Пифагор)
    Аудио2: AAC, 2 ch, 369 Kbps - РусскийРусский, DUB (HDrezka Studio)
    Аудио3: AC3, 6 ch, 640 Kbps - РусскийРусский, DVO (ViruseProject, без цензуры)
    Аудио4: AC3, 6 ch, 448 Kbps - УкраинскийУкраинский, DUB (Cinema Sound Production)
    Аудио5: AC3, 6 ch, 640 Kbps - АнглийскийАнглийский
    Субтитры: русские (full, forced), украинские, английские (SDH)

    Как за несколько секунд удалить ненужные аудиодорожки и субтитры (Внимание! После удаления вы не сможете поддержать раздачу)


    Лог (x265 info)x265 [info]: frame I: 669, Avg QP:17.05 kb/s: 22409.44
    x265 [info]: frame P: 27859, Avg QP:18.91 kb/s: 12456.38
    x265 [info]: frame B: 128281, Avg QP:20.83 kb/s: 4325.00
    x265 [info]: Weighted P-Frames: Y:5.4% UV:3.2%
    x265 [info]: Weighted B-Frames: Y:4.1% UV:2.3%
    x265 [info]: encoded 156809 frames in 119233.70s (1.32 fps), 5846.79 kb/s, Avg QP:20.48
    МедиаинфоОбщее
    Уникальный идентификатор : 185108015138058929642597410747542062758 (0x8B4281C62AE6B4831E0611ACD5A6C6A6)
    Полное имя : \\.\Падение.империи.Civil.War.2024.BDRip-HEVC.1080p.mkv
    Формат : Matroska
    Версия формата : Version 4
    Размер файла : 6,39 Гбайт
    Продолжительность : 1 ч. 49 мин.
    Общий битрейт : 8 397 Кбит/сек
    Частота кадров : 23,976 кадра/сек
    Название фильма : Падение империи / Падение империи
    Кодирование выполнил : OldGamer
    Тип содержимого : Movie
    Дата выпуска : 2024-04-10
    Дата записи : 2024-04-10
    Программа кодирования : mkvmerge v85.0 ('Shame For You') 64-bit
    Библиотека кодирования : libebml v1.4.5 + libmatroska v1.7.1 / xvid4psp5
    Обложка : Yes
    Attachments : cover.jpg
    ACTOR : Кирстен Данст, Вагнер Моура, Кэйли Спэни, Стивен Маккинли Хендерсон, Нельсон Ли, Ник Офферман, Джефферсон Вайт, Эван Лай, Винс Писани, Джастин Джеймс Бойкин, Джесс Мэтни, Грег Хилл, Эдмунд Донован, Соноя Мидзуно, Тим Джеймс, Симеон Фриман, Джеймс Яэг...
    ARTIST : Кирстен Данст, Вагнер Моура, Кэйли Спэни, Стивен Маккинли Хендерсон, Нельсон Ли, Ник Офферман, Джефферсон Вайт, Эван Лай, Винс Писани, Джастин Джеймс Бойкин, Джесс Мэтни, Грег Хилл, Эдмунд Донован, Соноя Мидзуно, Тим Джеймс, Симеон Фриман, Джеймс Яэг...
    DIRECTOR : Алекс Гарленд
    GENRE : военный, боевик, драма
    LAW_RATING : R
    PRODUCER : Эндрю Макдональд, Allon Reich, Gregory Goodman
    PRODUCTION_STUDIO : A24
    RATING : R
    SYNOPSIS : Недалёкое будущее, в США бушует гражданская война. Объединённые силы Запада — Калифорнии и Техаса — уже близки к взятию Вашингтона. Двое опытных военных корреспондентов и присоединившиеся к ним ветеран журналистики и начинающая девушка-фотограф отправляются из Нью-Йорка в столицу, чтобы успеть взять интервью у забаррикадировавшегося в Белом доме президента, прежде чем до него доберётся противник.
    TMDB : movie/929590

    Видео
    Идентификатор : 1
    Формат : HEVC
    Формат/Информация : High Efficiency Video Coding
    Профиль формата : Main 10@L4.1@High
    Идентификатор кодека : V_MPEGH/ISO/HEVC
    Продолжительность : 1 ч. 49 мин.
    Битрейт : 5 848 Кбит/сек
    Ширина : 1 920 пикселей
    Высота : 1 040 пикселей
    Соотношение сторон дисплея : 1,85:1
    Режим частоты кадров : Постоянный
    Частота кадров : 23,976 (24000/1001) кадра/сек
    Цветовое пространство : YUV
    Цветовая субдискретизация : 4:2:0
    Битовая глубина : 10 бит
    Бит/(Пиксели*Кадры) : 0.122
    Размер потока : 4,45 Гбайт (70%)
    Заголовок : Civil War / Rip by OldGamer
    Библиотека кодирования : x265 3.6+33-ad1a30a8a:[Windows][GCC 14.1.0][64 bit] 10bit
    Параметры библиотеки кодирования : cpuid=1111039 / frame-threads=3 / numa-pools=8 / wpp / no-pmode / no-pme / no-psnr / no-ssim / log-level=2 / input-csp=1 / input-res=1920x1040 / interlace=0 / total-frames=156809 / level-idc=41 / high-tier=1 / uhd-bd=0 / ref=5 / no-allow-non-conformance / no-repeat-headers / annexb / no-aud / no-eob / no-eos / no-hrd / info / hash=0 / temporal-layers=0 / open-gop / min-keyint=23 / keyint=240 / gop-lookahead=0 / bframes=16 / b-adapt=2 / b-pyramid / bframe-bias=0 / rc-lookahead=60 / lookahead-slices=0 / scenecut=40 / no-hist-scenecut / radl=0 / no-splice / no-intra-refresh / ctu=32 / min-cu-size=8 / rect / amp / max-tu-size=32 / tu-inter-depth=4 / tu-intra-depth=4 / limit-tu=1 / rdoq-level=2 / dynamic-rd=0.00 / no-ssim-rd / signhide / no-tskip / nr-intra=0 / nr-inter=0 / no-constrained-intra / no-strong-intra-smoothing / max-merge=5 / limit-refs=3 / no-limit-modes / me=3 / subme=7 / merange=57 / temporal-mvp / no-frame-dup / no-hme / weightp / weightb / no-analyze-src-pics / deblock=-2:-2 / no-sao / no-sao-non-deblock / rd=6 / selective-sao=0 / no-early-skip / no-rskip / no-fast-intra / no-tskip-fast / no-cu-lossless / b-intra / no-splitrd-skip / rdpenalty=0 / psy-rd=2.00 / psy-rdoq=1.00 / no-rd-refine / no-lossless / cbqpoffs=0 / crqpoffs=0 / rc=crf / crf=20.4 / qcomp=0.60 / qpstep=4 / stats-write=0 / stats-read=0 / vbv-maxrate=50000 / vbv-bufsize=50000 / vbv-init=0.9 / min-vbv-fullness=50.0 / max-vbv-fullness=80.0 / crf-max=0.0 / crf-min=0.0 / ipratio=1.40 / pbratio=1.30 / aq-mode=3 / aq-strength=1.00 / no-cutree / zone-count=1 / zones: / start-frame=148850 / end-frame=156809 / qp=36 / no-strict-cbr / qg-size=32 / no-rc-grain / qpmax=69 / qpmin=0 / no-const-vbv / sar=1 / overscan=0 / videoformat=5 / range=0 / colorprim=2 / transfer=2 / colormatrix=2 / chromaloc=0 / display-window=0 / cll=0,0 / min-luma=0 / max-luma=1023 / log2-max-poc-lsb=8 / vui-timing-info / vui-hrd-info / slices=1 / no-opt-qp-pps / no-opt-ref-list-length-pps / no-multi-pass-opt-rps / scenecut-bias=0.00 / no-opt-cu-delta-qp / no-aq-motion / no-hdr10 / no-hdr10-opt / no-dhdr10-opt / no-idr-recovery-sei / analysis-reuse-level=0 / analysis-save-reuse-level=0 / analysis-load-reuse-level=0 / scale-factor=0 / refine-intra=0 / refine-inter=0 / refine-mv=1 / refine-ctu-distortion=0 / no-limit-sao / ctu-info=0 / no-lowpass-dct / refine-analysis-type=0 / copy-pic=1 / max-ausize-factor=1.0 / no-dynamic-refine / no-single-sei / no-hevc-aq / no-svt / no-field / qp-adaptation-range=1.00 / scenecut-aware-qp=0conformance-window-offsets / right=0 / bottom=0 / decoder-max-rate=0 / no-vbv-live-multi-pass / no-mcstf / no-sbrc
    Язык : Английский
    По умолчанию : Да
    Принудительно : Нет

    Аудио #1
    Идентификатор : 2
    Формат : E-AC-3
    Формат/Информация : Enhanced AC-3
    Коммерческое название : Dolby Digital Plus
    Идентификатор кодека : A_EAC3
    Продолжительность : 1 ч. 49 мин.
    Вид битрейта : Постоянный
    Битрейт : 448 Кбит/сек
    Канал(-ы) : 6 каналов
    Расположение каналов : L R C LFE Ls Rs
    Частота дискретизации : 48,0 КГц
    Частота кадров : 31,250 кадров/сек (1536 SPF)
    Метод сжатия : С потерями
    Размер потока : 349 Мбайт (5%)
    Заголовок : DUB (Пифагор)
    Язык : Русский
    Вид сервиса : Complete Main
    По умолчанию : Да
    Принудительно : Нет
    Нормализация звука речи : -23 dB
    compr : -0.28 dB
    dmixmod : Lo/Ro
    ltrtcmixlev : -3.0 dB
    ltrtsurmixlev : -3.0 dB
    lorocmixlev : -3.0 dB
    lorosurmixlev : -3.0 dB
    dialnorm_Average : -23 dB
    dialnorm_Minimum : -23 dB
    dialnorm_Maximum : -23 dB

    Аудио #2
    Идентификатор : 3
    Формат : AAC LC
    Формат/Информация : Advanced Audio Codec Low Complexity
    Идентификатор кодека : A_AAC-2
    Продолжительность : 1 ч. 49 мин.
    Битрейт : 369 Кбит/сек
    Канал(-ы) : 2 канала
    Расположение каналов : L R
    Частота дискретизации : 48,0 КГц
    Частота кадров : 46,875 кадров/сек (1024 SPF)
    Метод сжатия : С потерями
    Размер потока : 287 Мбайт (4%)
    Заголовок : DUB (HDrezka Studio)
    Язык : Русский
    По умолчанию : Нет
    Принудительно : Нет

    Аудио #3
    Идентификатор : 4
    Формат : AC-3
    Формат/Информация : Audio Coding 3
    Коммерческое название : Dolby Digital
    Идентификатор кодека : A_AC3
    Продолжительность : 1 ч. 49 мин.
    Вид битрейта : Постоянный
    Битрейт : 640 Кбит/сек
    Канал(-ы) : 6 каналов
    Расположение каналов : L R C LFE Ls Rs
    Частота дискретизации : 48,0 КГц
    Частота кадров : 31,250 кадров/сек (1536 SPF)
    Метод сжатия : С потерями
    Размер потока : 499 Мбайт (8%)
    Заголовок : DVO (ViruseProject, без цензуры)
    Язык : Русский
    Вид сервиса : Complete Main
    По умолчанию : Нет
    Принудительно : Нет
    Нормализация звука речи : -31 dB
    cmixlev : -4.5 dB
    surmixlev : -6 dB
    dialnorm_Average : -31 dB
    dialnorm_Minimum : -31 dB
    dialnorm_Maximum : -31 dB

    Аудио #4
    Идентификатор : 5
    Формат : AC-3
    Формат/Информация : Audio Coding 3
    Коммерческое название : Dolby Digital
    Идентификатор кодека : A_AC3
    Продолжительность : 1 ч. 49 мин.
    Вид битрейта : Постоянный
    Битрейт : 448 Кбит/сек
    Канал(-ы) : 6 каналов
    Расположение каналов : L R C LFE Ls Rs
    Частота дискретизации : 48,0 КГц
    Частота кадров : 31,250 кадров/сек (1536 SPF)
    Метод сжатия : С потерями
    Размер потока : 349 Мбайт (5%)
    Заголовок : DUB (Cinema Sound Production)
    Язык : Украинский
    Вид сервиса : Complete Main
    По умолчанию : Нет
    Принудительно : Нет
    Нормализация звука речи : -31 dB
    cmixlev : -4.5 dB
    surmixlev : -6 dB
    dialnorm_Average : -31 dB
    dialnorm_Minimum : -31 dB
    dialnorm_Maximum : -31 dB

    Аудио #5
    Идентификатор : 6
    Формат : AC-3
    Формат/Информация : Audio Coding 3
    Коммерческое название : Dolby Digital
    Идентификатор кодека : A_AC3
    Продолжительность : 1 ч. 49 мин.
    Вид битрейта : Постоянный
    Битрейт : 640 Кбит/сек
    Канал(-ы) : 6 каналов
    Расположение каналов : L R C LFE Ls Rs
    Частота дискретизации : 48,0 КГц
    Частота кадров : 31,250 кадров/сек (1536 SPF)
    Метод сжатия : С потерями
    Размер потока : 499 Мбайт (8%)
    Язык : Английский
    Вид сервиса : Complete Main
    По умолчанию : Нет
    Принудительно : Нет
    Нормализация звука речи : -27 dB
    compr : -0.28 dB
    dynrng : 8.38 dB
    cmixlev : -3.0 dB
    surmixlev : -3 dB
    mixlevel : 285 dB
    roomtyp : Small
    dialnorm_Average : -27 dB
    dialnorm_Minimum : -27 dB
    dialnorm_Maximum : -27 dB

    Текст #1
    Идентификатор : 7
    Формат : UTF-8
    Идентификатор кодека : S_TEXT/UTF8
    Идентификатор кодека/Информация : UTF-8 Plain Text
    Продолжительность : 1 ч. 21 мин.
    Битрейт : 1 бит/сек
    Частота кадров : 0,003 кадр/сек
    Число элементов : 17
    Размер потока : 627 байт (0%)
    Заголовок : Russian (Forced)
    Язык : Русский
    По умолчанию : Да
    Принудительно : Нет

    Текст #2
    Идентификатор : 8
    Формат : UTF-8
    Идентификатор кодека : S_TEXT/UTF8
    Идентификатор кодека/Информация : UTF-8 Plain Text
    Продолжительность : 1 ч. 42 мин.
    Битрейт : 55 бит/сек
    Частота кадров : 0,175 кадр/сек
    Число элементов : 1077
    Размер потока : 41,5 КиБ (0%)
    Заголовок : Russian (Кинопоиск)
    Язык : Русский
    По умолчанию : Нет
    Принудительно : Нет

    Текст #3
    Идентификатор : 9
    Формат : UTF-8
    Идентификатор кодека : S_TEXT/UTF8
    Идентификатор кодека/Информация : UTF-8 Plain Text
    Продолжительность : 1 ч. 39 мин.
    Битрейт : 56 бит/сек
    Частота кадров : 0,165 кадр/сек
    Число элементов : 986
    Размер потока : 41,3 КиБ (0%)
    Заголовок : Russian (Un Chat Andalou)
    Язык : Русский
    По умолчанию : Нет
    Принудительно : Нет

    Текст #4
    Идентификатор : 10
    Формат : UTF-8
    Идентификатор кодека : S_TEXT/UTF8
    Идентификатор кодека/Информация : UTF-8 Plain Text
    Продолжительность : 1 ч. 43 мин.
    Битрейт : 58 бит/сек
    Частота кадров : 0,161 кадр/сек
    Число элементов : 998
    Размер потока : 43,9 КиБ (0%)
    Заголовок : Russian (Cool Story Blog)
    Язык : Русский
    По умолчанию : Нет
    Принудительно : Нет

    Текст #5
    Идентификатор : 11
    Формат : UTF-8
    Идентификатор кодека : S_TEXT/UTF8
    Идентификатор кодека/Информация : UTF-8 Plain Text
    Продолжительность : 1 ч. 42 мин.
    Битрейт : 52 бит/сек
    Частота кадров : 0,162 кадр/сек
    Число элементов : 1002
    Размер потока : 39,5 КиБ (0%)
    Заголовок : Ukrainian
    Язык : Украинский
    По умолчанию : Нет
    Принудительно : Нет

    Текст #6
    Идентификатор : 12
    Формат : UTF-8
    Идентификатор кодека : S_TEXT/UTF8
    Идентификатор кодека/Информация : UTF-8 Plain Text
    Продолжительность : 1 ч. 39 мин.
    Битрейт : 34 бит/сек
    Частота кадров : 0,165 кадр/сек
    Число элементов : 991
    Размер потока : 25,3 КиБ (0%)
    Заголовок : English
    Язык : Английский (US)
    По умолчанию : Нет
    Принудительно : Нет
    Оригинал : iTunes WEB-DL

    Текст #7
    Идентификатор : 13
    Формат : UTF-8
    Идентификатор кодека : S_TEXT/UTF8
    Идентификатор кодека/Информация : UTF-8 Plain Text
    Продолжительность : 1 ч. 40 мин.
    Битрейт : 38 бит/сек
    Частота кадров : 0,190 кадр/сек
    Число элементов : 1142
    Размер потока : 28,6 КиБ (0%)
    Заголовок : English (SDH)
    Язык : Английский (US)
    По умолчанию : Нет
    Принудительно : Нет
    Оригинал : iTunes WEB-DL

    Меню
    00:00:00.000 : en:Chapter 01
    00:07:17.228 : en:Chapter 02
    00:13:45.825 : en:Chapter 03
    00:18:26.647 : en:Chapter 04
    00:25:19.518 : en:Chapter 05
    00:28:56.317 : en:Chapter 06
    00:34:20.892 : en:Chapter 07
    00:40:07.405 : en:Chapter 08
    00:45:29.059 : en:Chapter 09
    00:51:35.425 : en:Chapter 10
    00:57:02.877 : en:Chapter 11
    01:04:00.336 : en:Chapter 12
    01:14:16.243 : en:Chapter 13
    01:21:02.816 : en:Chapter 14
    01:33:09.500 : en:Chapter 15
    01:41:22.159 : en:Chapter 16
    Загрузка...Cкриншот1 Падение империи / Civil War (2024) BDRip 1080p [HEVC] 10 bit от OldGamer (RG RIPS CLUB)Загрузка...Cкриншот2 Падение империи / Civil War (2024) BDRip 1080p [HEVC] 10 bit от OldGamer (RG RIPS CLUB)Загрузка...Cкриншот3 Падение империи / Civil War (2024) BDRip 1080p [HEVC] 10 bit от OldGamer (RG RIPS CLUB)Загрузка...Cкриншот4 Падение империи / Civil War (2024) BDRip 1080p [HEVC] 10 bit от OldGamer (RG RIPS CLUB)
    Поблагодарили: 8AlexsBond, AlVit, AndresUA, gotgame1, Kilop77, Kiran, SaN161NeK, vserginbox
    Файлы: 1
    • Падение.империи.Civil.War.2024.BDRip-HEVC.1080p.mkv

    Рейтинги КП и IMDB, кнопки "Раздайте, пожалуйста" и "Спасибо", а также мультитрекерная статистика доступны только зарегистрированным/авторизованным пользователям!

    OldGamer
    452941616.39 ГБ

    💬︎ Комментарии

    Добавление комментариев доступно только зарегистрированным/авторизованным пользователям.

    Всего: 1
    Аватар HANNIBAL
    HANNIBAL
    обложку поменяй это от фильма Падение империи (2021)