Чат

⚫︎
Список изменений сайта - https://rips.club/changelog.html (обновлен 24.05.2024)
    Онлайн (за 10 мин.): 0
    Отправка сообщений доступна только зарегистрированным/авторизованным пользователям.

    🎤︎The Scorpions: Moment of Glory (2000) BDRip 1080p [HEVC] 10 bit от M@kSIMus


    Обложка The Scorpions: Moment of Glory (2000) BDRip 1080p [HEVC] 10 bit от M@kSIMus
    HEVC
    10 bit
    ⤓︎Торрент🧲︎Магнет$Пожертвования
    Год: 2000
    Страна: Германия
    Жанр: Музыка, Документальный
    Длительность: 01:30:11

    Состав:
    Клаус Майне
    Рудольф Шенкер
    Маттиас Ябс
    Кристиан Колоновитц
    Ральф Рикерманн
    The Scorpions

    Описание: Концерт воссоединившейся группы Scorpions, исполнившей свои хиты 22 июня 2000 года в своём родном городе Ганновере с Берлинским филармоническим оркестром.


    Треклист01. Hurricane 2000
    02. Moment Of Glory
    03. You And I
    04. We Don't Own The World
    05. Here In My Heart
    06. We'll Burn The Sky
    07. Big City Nights
    08. Deadly Sting Suite
    09. Wind Of Change
    10. Still Loving You
    11. Moment Of Glory (Encore)


    Видео: 1882x1080, 9969 Kbps
    Аудио: DTS-HD MA, 6 ch, 3038 Kbps - АнглийскийАнглийский
    Субтитры: нет

    МедиаинфоОбщее
    Уникальный идентификатор : 237118891029467515512172533738982071818 (0xB2636FF05C318EF92C8395FEDEABDE0A)
    Полное имя : E:\Концерты\Scorpions - Moment of Glory (Live with the Berlin Philharmonic Orchestra) (2000-2013) BDRip 1080p [HEVC] 10 bit Rip_by_M@kSIMus.mkv
    Формат : Matroska
    Версия формата : Version 4
    Размер файла : 8,20 Гбайт
    Продолжительность : 1 ч. 30 м.
    Режим общего битрейта : Переменный
    Общий поток : 13,0 Мбит/сек
    Название фильма : Rip_by_M@kSIMus
    Дата кодирования : UTC 2018-09-17 13:06:21
    Программа кодирования : mkvmerge v19.0.0 ('Brave Captain') 64-bit
    Библиотека кодирования : libebml v1.3.5 + libmatroska v1.4.8
    Обложка : Yes
    Attachments : cover.jpg

    Видео
    Идентификатор : 1
    Формат : HEVC
    Формат/Информация : High Efficiency Video Coding
    Профиль формата : Main 10@L5.1@High
    Идентификатор кодека : V_MPEGH/ISO/HEVC
    Продолжительность : 1 ч. 30 м.
    Битрейт : 9969 Кбит/сек
    Ширина : 1882 пикселя
    Высота : 1080 пикселей
    Соотношение сторон : 16:9
    Режим частоты кадров : Постоянный
    Частота кадров : 29,970 (30000/1001) кадров/сек
    Цветовое пространство : YUV
    Субдискретизация насыщенности : 4:2:0
    Битовая глубина : 10 бит
    Бит/(Пиксели*Кадры) : 0.164
    Размер потока : 6,28 Гбайт (77%)
    Библиотека кодирования : x265 2.8+19-bcdc610cf5f0:[Windows][GCC 7.3.0][64 bit] 10bit
    Настройки программы : cpuid=1049583 / frame-threads=5 / numa-pools=4 / wpp / no-pmode / no-pme / no-psnr / no-ssim / log-level=3 / input-csp=1 / input-res=1882x1080 / interlace=0 / total-frames=0 / level-idc=51 / high-tier=1 / uhd-bd=0 / ref=5 / allow-non-conformance / no-repeat-headers / annexb / no-aud / no-hrd / info / hash=0 / no-temporal-layers / open-gop / min-keyint=30 / keyint=300 / gop-lookahead=0 / bframes=8 / b-adapt=2 / b-pyramid / bframe-bias=0 / rc-lookahead=40 / lookahead-slices=6 / scenecut=40 / radl=0 / no-intra-refresh / ctu=64 / min-cu-size=8 / no-rect / no-amp / max-tu-size=32 / tu-inter-depth=1 / tu-intra-depth=1 / limit-tu=0 / rdoq-level=0 / dynamic-rd=0.00 / no-ssim-rd / signhide / no-tskip / nr-intra=0 / nr-inter=0 / no-constrained-intra / strong-intra-smoothing / max-merge=2 / limit-refs=3 / no-limit-modes / me=3 / subme=7 / merange=57 / temporal-mvp / weightp / no-weightb / no-analyze-src-pics / deblock=-3:-3 / no-sao / no-sao-non-deblock / rd=3 / no-early-skip / rskip / no-fast-intra / no-tskip-fast / no-cu-lossless / no-b-intra / no-splitrd-skip / rdpenalty=0 / psy-rd=2.00 / psy-rdoq=0.00 / no-rd-refine / no-lossless / cbqpoffs=0 / crqpoffs=0 / rc=crf / crf=20.0 / qcomp=0.60 / qpstep=4 / stats-write=0 / stats-read=0 / vbv-maxrate=160000 / vbv-bufsize=160000 / vbv-init=0.9 / crf-max=0.0 / crf-min=0.0 / ipratio=1.40 / pbratio=1.30 / aq-mode=1 / aq-strength=1.00 / cutree / zone-count=0 / no-strict-cbr / qg-size=32 / no-rc-grain / qpmax=69 / qpmin=0 / no-const-vbv / sar=1 / overscan=0 / videoformat=5 / range=0 / colorprim=1 / transfer=1 / colormatrix=1 / chromaloc=0 / display-window=0 / max-cll=0,0 / min-luma=0 / max-luma=1023 / log2-max-poc-lsb=8 / vui-timing-info / vui-hrd-info / slices=1 / no-opt-qp-pps / no-opt-ref-list-length-pps / no-multi-pass-opt-rps / scenecut-bias=0.05 / no-opt-cu-delta-qp / no-aq-motion / no-hdr / no-hdr-opt / no-dhdr10-opt / no-idr-recovery-sei / analysis-reuse-level=5 / scale-factor=0 / refine-intra=0 / refine-inter=0 / refine-mv=0 / no-limit-sao / ctu-info=0 / no-lowpass-dct / refine-mv-type=0 / copy-pic=1 / max-ausize-factor=1.0 / no-dynamic-refine / no-single-sei
    Язык : English
    Default : Да
    Forced : Нет
    Цветовой диапазон : Limited
    Основные цвета : BT.709
    Характеристики трансфера : BT.709
    Коэффициенты матрицы : BT.709

    Аудио
    Идентификатор : 2
    Формат : DTS XLL
    Формат/Информация : Digital Theater Systems
    Коммерческое название : DTS-HD Master Audio
    Идентификатор кодека : A_DTS
    Продолжительность : 1 ч. 30 м.
    Вид битрейта : Переменный
    Битрейт : 3038 Кбит/сек
    Каналы : 6 каналов
    Channel layout : C L R Ls Rs LFE
    Частота : 48,0 КГц
    Частота кадров : 93,750 кадра/сек (512 SPF)
    Битовая глубина : 16 бит
    Метод сжатия : Без потерь
    Размер потока : 1,91 Гбайт (23%)
    Язык : English
    Default : Да
    Forced : Нет

    Меню
    00:00:00.000 : :Глава 1
    00:08:43.956 : :Глава 2
    00:14:43.449 : :Глава 3
    00:22:10.829 : :Глава 4
    00:31:44.602 : :Глава 5
    00:36:33.658 : :Глава 6
    00:43:37.915 : :Глава 7
    00:48:39.383 : :Глава 8
    01:04:46.382 : :Глава 9
    01:14:07.843 : :Глава 10
    01:22:56.871 : :Глава 11
    01:30:10.838 : :Глава 12
    Загрузка...Cкриншот1 The Scorpions: Moment of Glory (2000) BDRip 1080p [HEVC] 10 bit от M@kSIMusЗагрузка...Cкриншот2 The Scorpions: Moment of Glory (2000) BDRip 1080p [HEVC] 10 bit от M@kSIMusЗагрузка...Cкриншот3 The Scorpions: Moment of Glory (2000) BDRip 1080p [HEVC] 10 bit от M@kSIMusЗагрузка...Cкриншот4 The Scorpions: Moment of Glory (2000) BDRip 1080p [HEVC] 10 bit от M@kSIMus
    Поблагодарили: 4cdmitry, inoy, NoMaD, normallhuman
    Файлы: 1
    • Scorpions - Moment of Glory (Live with the Berlin Philharmonic Orchestra) (2000-2013) BDRip 1080p [HEVC] 10 bit Rip_by_M@kSIMus.mkv

    Рейтинги КП и IMDB, кнопки "Раздайте, пожалуйста" и "Спасибо", а также мультитрекерная статистика доступны только зарегистрированным/авторизованным пользователям!

    Гл. Админ
    006218.2 ГБ

    💬︎ Комментарии

    Добавление комментариев доступно только зарегистрированным/авторизованным пользователям.

    Всего: 1
    Аватар Godspeed
    Godspeed
    А нет ли случайно Scorpions Acoustica Live in Lisboa 2001? Нигде не могу найти в хорошем качестве.