💬 Мини-чат

OldGamerнет
Giggaloнет ли у кого в планах "Давайте потанцуем" 2004
GiggaloСообщение удалено (удалил: Giggalo)
StarLordOldGamer, как дела?)
StarLordOldGamer, ура, вернулся 😄
OldGamerRezident, можете скачать этот фильм от другого релизёра, там невелика разница, а раздающие точно есть
OldGamerGiggalo, https://tsya.ru/mnemonic.html
NoMaDСообщение удалено (удалил: NoMaD)
NoMaDСообщение удалено (удалил: NoMaD)
GiggaloСообщение удалено (удалил: Giggalo)
GiggaloСообщение удалено (удалил: Giggalo)
Spartanec1308Был днём
StarLordGiggalo, наверное отрубало беднягу, целый день его нету 😅
GiggaloСообщение удалено (удалил: Giggalo)
OldGamerДоброе. Работы много, некогда на перинах валяться.
GiggaloСообщение удалено (удалил: Giggalo)
GiggaloСообщение удалено (удалил: Giggalo)
  • OldGamer
  • qvnvqygospcocittov
  • Херсонец
Отправка сообщений доступна только зарегистрированным/авторизованным пользователям.
Онлайн (за 10 мин.): 3

Приключения Тинтина: Тайна Единорога / The Adventures of Tintin (2011) BDRip 1080p [HEVC] 10 bit от HANNIBAL

HEVC
10 bit
Обложка Приключения Тинтина: Тайна Единорога / The Adventures of Tintin (2011) BDRip 1080p [HEVC] 10 bit от HANNIBAL Год: 2011
Страна: США, Новая Зеландия
Студия: Columbia Pictures
Жанр: Мультфильм, Боевик, Детектив, Приключения
Продолжительность: 01:46:52

Режиссер: Стивен Спилберг
В ролях: Джейми Белл, Энди Серкис, Дэниэл Крэйг, Саймон Пегг, Ник Фрост, Дэниэл Мейс, Гад Эльмалех, Тоби Джонс, Джо Старр, Енн Рейтел

Описание: Главный герой — молодой газетный репортёр Тинтин. Благодаря своей профессии он путешествует по всему миру и становится участником увлекательных приключений.


Видео: 1920x816, 4216 Kbps
Аудио1: AC3, 6 ch, 640 Kbps - РусскийРусский, Дублированный (Лицензия)
Аудио2: AC3, 6 ch, 640 Kbps - АнглийскийАнглийский, Оригинал
Субтитры: Русские, английские

Как за пару секунд удалить ненужные аудиодорожки и субтитры (Внимание! После удаления вы не сможете поддержать раздачу)

Медиаинфо
General
Unique ID : 277182308357191573587280796967656898221 (0xD0875EEAE913ED8DF69846AA7C9E3EAD)
Complete name : E:\The Adventures of Tintin (2011) BDRip 1080p [HEVC] 10bit.mkv
Format : Matroska
Format version : Version 4 / Version 2
File size : 4.10 GiB
Duration : 1 h 46 min
Overall bit rate : 5 499 kb/s
Movie name : Prikljuchenija Tintina Tajna edinoroga 2011 BluRay-Remux
Encoded date : UTC 2018-09-20 14:26:47
Writing application : mkvmerge v25.0.0 ('Prog Noir') 64-bit
Writing library : libebml v1.3.6 + libmatroska v1.4.9 / Lavf57.71.100
Cover : Yes
Attachments : cover.jpg
ENCODING_INFO : MATROSKA,WEBM > MKV 2160p 10-bit / H264 > X265 CRF-2P 19.0 Medium / AC3 > AC3 CBR 640kbps / DTS-HD MA > AC3 CBR 640kbps

Video
ID : 1
Format : HEVC
Format/Info : High Efficiency Video Coding
Format profile : Main 10@L5.1@Main
Codec ID : V_MPEGH/ISO/HEVC
Duration : 1 h 46 min
Bit rate : 4 207 kb/s
Width : 1 920 pixels
Height : 816 pixels
Display aspect ratio : 2.35:1
Frame rate mode : Constant
Frame rate : 23.976 (24000/1001) FPS
Color space : YUV
Chroma subsampling : 4:2:0
Bit depth : 10 bits
Bits/(Pixel*Frame) : 0.112
Stream size : 3.14 GiB (77%)
Title : MPEG-4 AVC, 25184 kbps, 1080p / 23,976 fps / 16:9 / High Profile 4.1
Writing library : x265 2.8+19-bcdc610cf5f0:[Windows][GCC 7.3.0][64 bit] 10bit
Encoding settings : cpuid=1111039 / frame-threads=13 / numa-pools=12 / wpp / no-pmode / no-pme / no-psnr / no-ssim / log-level=3 / input-csp=1 / input-res=1920x816 / interlace=0 / total-frames=0 / level-idc=51 / high-tier=1 / uhd-bd=0 / ref=5 / allow-non-conformance / no-repeat-headers / annexb / no-aud / no-hrd / info / hash=0 / no-temporal-layers / open-gop / min-keyint=24 / keyint=240 / gop-lookahead=0 / bframes=8 / b-adapt=2 / b-pyramid / bframe-bias=0 / rc-lookahead=40 / lookahead-slices=5 / scenecut=40 / radl=0 / no-intra-refresh / ctu=64 / min-cu-size=8 / rect / amp / max-tu-size=32 / tu-inter-depth=1 / tu-intra-depth=1 / limit-tu=0 / rdoq-level=0 / dynamic-rd=0.00 / no-ssim-rd / signhide / no-tskip / nr-intra=0 / nr-inter=0 / no-constrained-intra / no-strong-intra-smoothing / max-merge=2 / limit-refs=3 / no-limit-modes / me=3 / subme=7 / merange=57 / temporal-mvp / weightp / no-weightb / no-analyze-src-pics / deblock=-3:-3 / no-sao / no-sao-non-deblock / rd=3 / no-early-skip / rskip / no-fast-intra / no-tskip-fast / no-cu-lossless / no-b-intra / no-splitrd-skip / rdpenalty=0 / psy-rd=2.00 / psy-rdoq=0.00 / no-rd-refine / no-lossless / cbqpoffs=0 / crqpoffs=0 / rc=abr / bitrate=4207 / qcomp=0.70 / qpstep=4 / stats-write=0 / stats-read=1 / cplxblur=20.0 / qblur=0.5 / ipratio=1.40 / pbratio=1.30 / aq-mode=1 / aq-strength=1.00 / cutree / zone-count=0 / no-strict-cbr / qg-size=32 / no-rc-grain / qpmax=69 / qpmin=0 / no-const-vbv / sar=1 / overscan=0 / videoformat=5 / range=0 / colorprim=1 / transfer=1 / colormatrix=1 / chromaloc=0 / display-window=0 / max-cll=0,0 / min-luma=0 / max-luma=1023 / log2-max-poc-lsb=8 / vui-timing-info / vui-hrd-info / slices=1 / no-opt-qp-pps / no-opt-ref-list-length-pps / no-multi-pass-opt-rps / scenecut-bias=0.05 / no-opt-cu-delta-qp / no-aq-motion / no-hdr / no-hdr-opt / no-dhdr10-opt / no-idr-recovery-sei / analysis-reuse-level=5 / scale-factor=0 / refine-intra=0 / refine-inter=0 / refine-mv=0 / no-limit-sao / ctu-info=0 / no-lowpass-dct / refine-mv-type=0 / copy-pic=1 / max-ausize-factor=1.0 / no-dynamic-refine / no-single-sei
Language : English
Default : Yes
Forced : Yes
Color range : Limited
Color primaries : BT.709
Transfer characteristics : BT.709
Matrix coefficients : BT.709

Audio #1
ID : 2
Format : AC-3
Format/Info : Audio Coding 3
Commercial name : Dolby Digital
Codec ID : A_AC3
Duration : 1 h 46 min
Bit rate mode : Constant
Bit rate : 640 kb/s
Channel(s) : 6 channels
Channel layout : L R C LFE Ls Rs
Sampling rate : 48.0 kHz
Frame rate : 31.250 FPS (1536 SPF)
Bit depth : 16 bits
Compression mode : Lossy
Stream size : 489 MiB (12%)
Title : Dolby Digital Audio, 640 kbps, 5.1, 48 kHz
Language : Russian
Service kind : Complete Main
Default : Yes
Forced : Yes

Audio #2
ID : 3
Format : AC-3
Format/Info : Audio Coding 3
Commercial name : Dolby Digital
Codec ID : A_AC3
Duration : 1 h 46 min
Bit rate mode : Constant
Bit rate : 640 kb/s
Channel(s) : 6 channels
Channel layout : L R C LFE Ls Rs
Sampling rate : 48.0 kHz
Frame rate : 31.250 FPS (1536 SPF)
Bit depth : 16 bits
Compression mode : Lossy
Stream size : 489 MiB (12%)
Title : DTS-HD Master Audio, 2364 kbps, 5.1, 48 kHz, 16-bit (DTS Core: 5.1, 48 kHz, 1509 kbps, 16-bit)
Language : English
Service kind : Complete Main
Default : No
Forced : No

Text #1
ID : 4
Format : UTF-8
Codec ID : S_TEXT/UTF8
Codec ID/Info : UTF-8 Plain Text
Duration : 1 h 38 min
Bit rate : 88 b/s
Count of elements : 1219
Stream size : 64.0 KiB (0%)
Title : Full, BD CEE
Language : Russian
Default : Yes
Forced : No

Text #2
ID : 5
Format : UTF-8
Codec ID : S_TEXT/UTF8
Codec ID/Info : UTF-8 Plain Text
Duration : 1 h 36 min
Bit rate : 54 b/s
Count of elements : 1182
Stream size : 38.1 KiB (0%)
Title : BD CEE
Language : English
Default : No
Forced : No

Text #3
ID : 6
Format : PGS
Muxing mode : zlib
Codec ID : S_HDMV/PGS
Codec ID/Info : Picture based subtitle format used on BDs/HD-DVDs
Duration : 1 h 38 min
Bit rate : 33.2 kb/s
Count of elements : 2438
Stream size : 23.4 MiB (1%)
Title : PGS
Language : Russian
Default : No
Forced : No

Menu
00:00:00.000 : :Chapter 1
00:05:39.297 : :Chapter 2
00:12:12.314 : :Chapter 3
00:17:11.363 : :Chapter 4
00:25:36.868 : :Chapter 5
00:32:37.580 : :Chapter 6
00:37:55.314 : :Chapter 7
00:42:29.838 : :Chapter 8
00:50:52.507 : :Chapter 9
00:56:27.217 : :Chapter 10
01:02:19.610 : :Chapter 11
01:11:58.981 : :Chapter 12
01:20:03.965 : :Chapter 13
01:27:30.995 : :Chapter 14
01:34:12.813 : :Chapter 15
01:40:30.482 : :Chapter 16
Загрузка...Cкриншот1 Приключения Тинтина: Тайна Единорога / The Adventures of Tintin (2011) BDRip 1080p [HEVC] 10 bit от HANNIBALЗагрузка...Cкриншот2 Приключения Тинтина: Тайна Единорога / The Adventures of Tintin (2011) BDRip 1080p [HEVC] 10 bit от HANNIBALЗагрузка...Cкриншот3 Приключения Тинтина: Тайна Единорога / The Adventures of Tintin (2011) BDRip 1080p [HEVC] 10 bit от HANNIBALЗагрузка...Cкриншот4 Приключения Тинтина: Тайна Единорога / The Adventures of Tintin (2011) BDRip 1080p [HEVC] 10 bit от HANNIBAL
Сэмпл Торрент🧲 Магнет

Рейтинги КП и IMDB, кнопки "Позвать в чате" и "Спасибо", а также мультитрекерная статистика доступны только зарегистрированным/авторизованным пользователям!

Файлы: 1
  • The Adventures of Tintin (2011) BDRip 1080p [HEVC] 10bit.mkv   4.1 ГБ
Поблагодарили: 7
brukvalub, EmirateX, ko1ob, makss333, nach, runya, tanalas
HANNIBAL
4459004.1 ГБ

Добавление нового комментария

Добавление комментариев доступно только зарегистрированным/авторизованным пользователям.
Аватар Admin
  Admin  
HANNIBAL писал(а):
только за Бро
Так вы можете и сами выкладывать тут. Я же не против. Кроме Максима. После двух случаев я ему уже не доверяю.
Аватар HANNIBAL
  HANNIBAL  
Admin писал(а):
Надеюсь ты не против. Авторство указываю.
только за Бро
Аватар Admin
  Admin  (Отредактировал Admin)    
HANNIBAL писал(а):
👍
Надеюсь ты не против. Авторство указываю.
Аватар HANNIBAL
  HANNIBAL  
👍