💬 Мини-чат

OldGamerвыводить
mafo2Admin, можно вывести, наглядно будет
StarLordAdmin, +
AdminНадпись HDR выводить на обложку?
OldGamerGiggalo, но лучше всего вообще не затрагивайте этот ключ, по умолчанию будет установлено оптимальное значение
OldGamerGiggalo, но если уж очень хочется то пишите --frame-threads 3
OldGamerGiggalo, а зачем его менять?) нужное значение устанавливается автоматически
GiggaloДобрый вечер всем! OldGamer Покажи пожалуйста почему когда пишу в командной строке frame-threads=3 он не меняется. Какой там стоит 13 он его и держит, а ругие установки спокойно меняет?
AdminStarLord, спасибо. Пока сойдет.
StarLordAdmin, ага, вижу
StarLordAdmin, а как должно брать?
AdminStarLord, ты шаришь?
AdminStarLord, у меня сейчас такая, но с точками беда. Доработать бы (https?://([-\w\.]+)+(:\d+)?(/([-\w/_:%]*(\.\w+)*(\?\S+)?)?)?)
AdminStarLord, скрины в bb некорректно берет
StarLordwww, ftp(s), http(s), #, :, &
StarLordAdmin, все мои кейсы покрыла
StarLordAdmin, вот эта хорошая -(?:(?:https?|ftps?):\/\/|\b(?:[a-z\d]+\.))(?:(?:[^\s()<>]+|\((?:[^\s()<>]+|(?:\([^\s()<>]+\)))?\))+(?:\((?:[^\s()<>]+|(?:\(?:[^\s()<>]+\)))?\)|[^\s`!()\[\]{};:'".,<>?«»“”‘’]))?
AdminStarLord, мне бы с обязательным указанием протокола
AdminСообщение удалено (удалил: Admin)
AdminСообщение удалено (удалил: Admin)
  • OldGamer
  • drclik
  • InSpector
  • pmihail99
Отправка сообщений доступна только зарегистрированным/авторизованным пользователям.
Онлайн (за 10 мин.): 4

Москва слезам не верит (1979) BDRip 1080p [HEVC] 8 bit от ADVOKAT69

HEVC
8 bit
Обложка Москва слезам не верит (1979) BDRip 1080p [HEVC] 8 bit от ADVOKAT69 Год: 1979
Страна: СССР
Жанр: Драма, Мелодрама, Комедия
Продолжительность: 02:28:17

Режиссер: Владимир Меньшов
В ролях: Вера Алентова (Екатерина Александровна Тихомирова (Катя)), Ирина Муравьёва (Людмила Свиридова (Люда)), Алексей Баталов (Георгий Иванович (Гоша,Гога), заводской слесарь, возлюбленный Катерины), Раиса Рязанова (Антонина Буянова (Тося,Тоня)), Александр Фатюшин (Сергей Гурин, известный хоккеист, муж Людмилы), Борис Сморчков (Николай, рабочий на стройке, муж Антонины), Виктор Уральский (отец Николая), Валентина Ушакова (мама Николая), Юрий Васильев (Рудольф (Родион) Петрович Рачков, телеоператор из Останкино, отец ребенка Катерины), Евгения Ханаева (мама Рачкова), Зоя Фёдорова (тётя Паша, вахтерша), Наталья Вавилова (Александра Александровна Тихомирова (Сашка), дочь Катерины и Рачкова)

Описание: Москва пятидесятых годов. Три молодые провинциалки приезжают в Москву в поисках того, что ищут люди во всех столицах мира - любви, счастья и достатка. Их судьбы складываются именно так, как предполагает характер каждой из девушек. Антонина выходит замуж, растит детей, любит мужа. Людмиле Москва представляется лотереей, в которой она должна выиграть свое особенное счастье. Катерина же - отчаянно влюбляется, но избранник ее оставляет. Однако она не опускает руки, в одиночку растит дочь и к тому же успевает сделать блестящую карьеру. В сорок лет судьба дарит ей встречу с прекрасным человеком и настоящую любовь..


Видео: 1424x1080, 3386 Kbps
Аудио1: DTS, 6 ch, 1509 Kbps - РусскийРусский, Оригинал (Лицензия)
Аудио2: AC3, 6 ch, 448 Kbps - РусскийРусский, Оригинал (Лицензия)
Субтитры: нет

Как за пару секунд удалить ненужные аудиодорожки и субтитры (Внимание! После удаления вы не сможете поддержать раздачу)

Медиаинфо
Общее
Уникальный идентификатор : 232369973756231618990341711747287053396 (0xAED0D43D7F12A2BDA99C4CFB7A977454)
Полное имя : I:\КИНО HEVC\Москва слезам не верит HEVC advokat69.mkv
Формат : Matroska
Версия формата : Version 4 / Version 2
Размер файла : 5,54 Гбайт
Продолжительность : 2 ч. 28 м.
Общий поток : 5346 Кбит/сек
Дата кодирования : UTC 2018-09-23 05:56:36
Программа кодирования : mkvmerge v9.2.0 ('Photograph') 64bit
Библиотека кодирования : libebml v1.3.3 + libmatroska v1.4.4
Encoding Gui : Hybrid 2017.05.06.1

Видео
Идентификатор : 1
Формат : HEVC
Формат/Информация : High Efficiency Video Coding
Профиль формата : Main@L4.1@High
Идентификатор кодека : V_MPEGH/ISO/HEVC
Продолжительность : 2 ч. 28 м.
Битрейт : 3386 Кбит/сек
Ширина : 1424 пикселя
Высота : 1080 пикселей
Соотношение сторон : 4:3
Режим частоты кадров : Постоянный
Частота кадров : 23,976 (24000/1001) кадра/сек
Цветовое пространство : YUV
Субдискретизация насыщенности : 4:2:0
Битовая глубина : 8 бит
Бит/(Пиксели*Кадры) : 0.092
Размер потока : 3,51 Гбайт (63%)
Библиотека кодирования : x265 2.5+5-0b3ba15b33ea:[Windows][GCC 7.2.0][64 bit] 8bit+10bit+12bit
Настройки программы : cpuid=1050111 / frame-threads=2 / numa-pools=4 / wpp / no-pmode / no-pme / no-psnr / no-ssim / log-level=2 / input-csp=1 / input-res=1424x1080 / interlace=0 / total-frames=0 / level-idc=41 / high-tier=1 / uhd-bd=0 / ref=3 / no-allow-non-conformance / no-repeat-headers / annexb / no-aud / no-hrd / info / hash=0 / no-temporal-layers / open-gop / min-keyint=23 / keyint=250 / bframes=4 / b-adapt=0 / b-pyramid / bframe-bias=0 / rc-lookahead=15 / lookahead-slices=6 / scenecut=40 / no-intra-refresh / ctu=64 / min-cu-size=8 / no-rect / no-amp / max-tu-size=32 / tu-inter-depth=1 / tu-intra-depth=1 / limit-tu=0 / rdoq-level=0 / dynamic-rd=0.00 / no-ssim-rd / signhide / no-tskip / nr-intra=0 / nr-inter=0 / no-constrained-intra / strong-intra-smoothing / max-merge=2 / limit-refs=3 / no-limit-modes / me=1 / subme=2 / merange=57 / temporal-mvp / weightp / no-weightb / no-analyze-src-pics / deblock=-3:-3 / no-sao / no-sao-non-deblock / rd=2 / no-early-skip / rskip / fast-intra / no-tskip-fast / no-cu-lossless / no-b-intra / rdpenalty=0 / psy-rd=2.00 / psy-rdoq=0.00 / no-rd-refine / analysis-reuse-mode=0 / no-lossless / cbqpoffs=0 / crqpoffs=0 / rc=crf / crf=20.0 / qcomp=0.60 / qpstep=4 / stats-write=0 / stats-read=0 / vbv-maxrate=50000 / vbv-bufsize=50000 / vbv-init=0.9 / crf-max=0.0 / crf-min=0.0 / ipratio=1.40 / pbratio=1.30 / aq-mode=1 / aq-strength=1.00 / cutree / zone-count=0 / no-strict-cbr / qg-size=32 / no-rc-grain / qpmax=69 / qpmin=0 / no-const-vbv / sar=0 / overscan=0 / videoformat=5 / range=0 / colorprim=2 / transfer=2 / colormatrix=1 / chromaloc=0 / display-window=0 / max-cll=0,0 / min-luma=0 / max-luma=255 / log2-max-poc-lsb=8 / vui-timing-info / vui-hrd-info / slices=1 / opt-qp-pps / opt-ref-list-length-pps / no-multi-pass-opt-rps / scenecut-bias=0.05 / no-opt-cu-delta-qp / no-aq-motion / no-hdr / no-hdr-opt / no-dhdr10-opt / analysis-reuse-level=5 / scale-factor=0 / refine-intra=0 / refine-inter=0 / refine-mv=0 / no-limit-sao / ctu-info=0
Default : Да
Forced : Да
Цветовой диапазон : Limited
Коэффициенты матрицы : BT.709

Аудио #1
Идентификатор : 2
Формат : DTS
Формат/Информация : Digital Theater Systems
Идентификатор кодека : A_DTS
Продолжительность : 2 ч. 28 м.
Вид битрейта : Постоянный
Битрейт : 1509 Кбит/сек
Каналы : 6 каналов
Расположение каналов : Front: L C R, Side: L R, LFE
Частота : 48,0 КГц
Частота кадров : 93,750 кадра/сек (512 SPF)
Битовая глубина : 24 бит
Метод сжатия : С потерями
Размер потока : 1,56 Гбайт (28%)
Default : Да
Forced : Нет

Аудио #2
Идентификатор : 3
Формат : AC-3
Формат/Информация : Audio Coding 3
Идентификатор кодека : A_AC3
Продолжительность : 2 ч. 28 м.
Вид битрейта : Постоянный
Битрейт : 448 Кбит/сек
Каналы : 6 каналов
Расположение каналов : Front: L C R, Side: L R, LFE
Частота : 48,0 КГц
Частота кадров : 31,250 кадров/сек (1536 SPF)
Битовая глубина : 16 бит
Метод сжатия : С потерями
Размер потока : 475 Мбайт (8%)
ServiceKind/String : Complete Main
Default : Нет
Forced : Нет

Меню
00:00:00.000 : en:Chapter 1
00:04:00.406 : en:Chapter 2
00:08:27.256 : en:Chapter 3
00:09:44.917 : en:Chapter 4
00:12:57.067 : en:Chapter 5
00:15:17.917 : en:Chapter 6
00:22:54.373 : en:Chapter 7
00:26:51.943 : en:Chapter 8
00:29:58.338 : en:Chapter 9
00:35:52.400 : en:Chapter 10
00:42:41.475 : en:Chapter 11
00:46:03.343 : en:Chapter 12
00:48:36.079 : en:Chapter 13
00:55:13.351 : en:Chapter 14
01:01:13.002 : en:Chapter 15
01:04:29.532 : en:Chapter 16
01:06:50.631 : en:Chapter 17
01:13:54.346 : en:Chapter 18
01:14:38.348 : en:Chapter 19
01:17:12.586 : en:Chapter 20
01:21:11.074 : en:Chapter 21
01:28:33.975 : en:Chapter 22
01:35:22.925 : en:Chapter 23
01:40:35.738 : en:Chapter 24
01:46:30.884 : en:Chapter 25
01:54:40.999 : en:Chapter 26
01:57:20.616 : en:Chapter 27
02:00:59.752 : en:Chapter 28
02:04:17.408 : en:Chapter 29
02:10:55.806 : en:Chapter 30
02:18:33.596 : en:Chapter 31
02:22:05.892 : en:Chapter 32
Загрузка...Cкриншот1 Москва слезам не верит (1979) BDRip 1080p [HEVC] 8 bit от ADVOKAT69Загрузка...Cкриншот2 Москва слезам не верит (1979) BDRip 1080p [HEVC] 8 bit от ADVOKAT69Загрузка...Cкриншот3 Москва слезам не верит (1979) BDRip 1080p [HEVC] 8 bit от ADVOKAT69Загрузка...Cкриншот4 Москва слезам не верит (1979) BDRip 1080p [HEVC] 8 bit от ADVOKAT69
Сэмпл Торрент🧲 Магнет

Рейтинги КП и IMDB, кнопки "Позвать в чате" и "Спасибо", а также мультитрекерная статистика сидов и пиров доступны только зарегистрированным/авторизованным пользователям!

Файлы: 1
  • Москва слезам не верит HEVC advokat69.mkv   5.54 ГБ
Поблагодарили: 6
adrenaline137, brukvalub, hold, nach, serg1962, xlxxl
ADVOKAT69
3287005.54 ГБ

Добавление нового комментария

Добавление комментариев доступно только зарегистрированным/авторизованным пользователям.
Аватар не указан
  hold  
Спасибо, а до родную классику забыли )) ...
Аватар ADVOKAT69
  ADVOKAT69  
mvclub писал(а):
Как это "дублированный"?
ну я продублировал!)))спасибо исправил!
Аватар mvclub
  mvclub  
Как это "дублированный"?