💬 Мини-чат

Убедительная просьба не обсуждать тут политику.
AdminЛёшикоБэст, вроде потихоньку идёт. Подождем, если не докачается, то встану.
AdminЛёшикоБэст, перекачайте торрент, а то в профиле не отображается ждете или уже нет
ЛёшикоБэстРаздайте, пожалуйста, Неудержимые / The Expendables (2010) [Theatrical Cut] BDRip 1080p [HEVC] 10 bit от Spartanec1308
OldGamerДа, есть.
ЛёшикоБэстДоброго вечера) Скажите пожалуйста, есть ли в планах сделать релиз дилогии "Зорро" с Антонио Бандерасом?
HANNIBALAdmin, 👍
AdminГоро, встал
ГороРаздайте, пожалуйста, Хищники / Predators (2010) BDRip 1080p [HEVC] 10 bit от HANNIBAL
AdminHANNIBAL, привет. Не помню за сколько брал, но продление в этот раз обошлось примерно в $14 со всякими комиссиями. А аренда VDS обходится примерно в $30-35 за год. Не исключено, что всё это подорожает. Пока что пожертвования с трудом покрывают расходы. Иногда если требуется и со своего кармана оплачиваю, не страшно. Прорвемся.
HANNIBALсколько сейчас стоит
HANNIBALAdmin, ПРИВЕТ
AdminНаконец-то получил банковскую карту. Продлил доменное имя (адрес сайта) на год.
  • ivan_1965
Отправка сообщений доступна только зарегистрированным/авторизованным пользователям.
Онлайн (за 10 мин.): 1

Приключения Паддингтона 2 / Paddington 2 (2017) [iTunes] BDRip 1080p [HEVC] 10 bit от Alex_A

HEVC
10 bit
Обложка Приключения Паддингтона 2 / Paddington 2 (2017) [iTunes] BDRip 1080p [HEVC] 10 bit от Alex_A Год: 2017
Страна: Великобритания, Франция, США
Жанр: Фэнтези, Комедия, Семейный
Продолжительность: 01:43:17

Режиссер: Пол Кинг
В ролях: Майкл Гэмбон, Имелда Стонтон, Бен Уишоу, Мадлен Харрис, Сэмюэл Джослин, Салли Хокинс, Хью Бонневилль, Джули Уолтерс, Мари-Франс Альварез, Санджив Бхаскар

Описание: В антикварном магазине Лондона обаятельный и хорошо воспитанный медведь Паддингтон находит уникальную старинную книгу. Пока он изо всех своих медвежьих сил старается накопить на нее деньги, редчайшее издание внезапно похищают. Паддингтон оказывается вовлечен в аферу века, затеянную знаменитым, но вышедшим в тираж актером, который ныне рекламирует собачьи консервы, а свой талант к перевоплощению использует в охоте за сокровищами, спрятанными по всему Лондону.


Видео: 1920x802, 4071 Kbps
Аудио1: AC3, 6 ch, 384 Kbps - РусскийРусский, Дублированный (iTunes)
Аудио2: AC3, 6 ch, 640 Kbps - АнглийскийАнглийский, Оригинал
Субтитры: Английские

Как за пару секунд удалить ненужные аудиодорожки и субтитры (Внимание! После удаления вы не сможете поддержать раздачу)

Медиаинфо
General
Unique ID : 198282698136511686735423285134561084305 (0x952BDBCBDDBAD0EBB55734649C138391)
Complete name : d:HEVCPaddington 2 (2017) iTunesPaddington.2.2017.1080p.iTunes_HEVCCLUB.mkv
Format : Matroska
Format version : Version 4 / Version 2
File size : 3.68 GiB
Duration : 1 h 43 min
Overall bit rate : 5 098 kb/s
Movie name : Paddington 2 (2017) - HEVC CLUB
Encoded date : UTC 2018-03-13 23:49:54
Writing application : mkvmerge v21.0.0 ('Tardigrades Will Inherit The Earth') 64-bit
Writing library : libebml v1.3.5 + libmatroska v1.4.8
Cover : Yes
Attachments : Cover.jpg

Video
ID : 1
Format : HEVC
Format/Info : High Efficiency Video Coding
Format profile : Main 10@L4.1@High
Codec ID : V_MPEGH/ISO/HEVC
Duration : 1 h 43 min
Bit rate : 4 071 kb/s
Width : 1 920 pixels
Height : 802 pixels
Display aspect ratio : 2.40:1
Frame rate mode : Constant
Frame rate : 24.000 FPS
Color space : YUV
Chroma subsampling : 4:2:0
Bit depth : 10 bits
Bits/(Pixel*Frame) : 0.110
Stream size : 2.94 GiB (80%)
Title : HEVC CLUB
Writing library : x265 2.6+22-ff02513b92c0:[Windows][GCC 7.2.0][64 bit] 10bit
Encoding settings : cpuid=1173503 / frame-threads=3 / numa-pools=8 / wpp / pmode / no-pme / no-psnr / ssim / log-level=2 / input-csp=1 / input-res=1920x802 / interlace=0 / total-frames=0 / level-idc=41 / high-tier=1 / uhd-bd=0 / ref=6 / no-allow-non-conformance / repeat-headers / annexb / no-aud / no-hrd / info / hash=0 / no-temporal-layers / open-gop / min-keyint=23 / keyint=250 / gop-lookahead=0 / bframes=10 / b-adapt=2 / b-pyramid / bframe-bias=0 / rc-lookahead=60 / lookahead-slices=1 / scenecut=40 / radl=0 / no-intra-refresh / ctu=64 / min-cu-size=8 / no-rect / no-amp / max-tu-size=32 / tu-inter-depth=3 / tu-intra-depth=3 / limit-tu=0 / rdoq-level=1 / dynamic-rd=2.00 / no-ssim-rd / signhide / no-tskip / nr-intra=0 / nr-inter=0 / no-constrained-intra / no-strong-intra-smoothing / max-merge=2 / limit-refs=0 / no-limit-modes / me=2 / subme=7 / merange=57 / temporal-mvp / weightp / weightb / no-analyze-src-pics / deblock=-3:-3 / no-sao / no-sao-non-deblock / rd=4 / no-early-skip / no-rskip / no-fast-intra / no-tskip-fast / no-cu-lossless / no-b-intra / no-splitrd-skip / rdpenalty=0 / psy-rd=1.75 / psy-rdoq=2.50 / no-rd-refine / no-lossless / cbqpoffs=0 / crqpoffs=0 / rc=crf / crf=22.0 / qcomp=0.80 / qpstep=6 / stats-write=0 / stats-read=0 / vbv-maxrate=50000 / vbv-bufsize=50000 / vbv-init=0.9 / crf-max=0.0 / crf-min=0.0 / ipratio=1.50 / pbratio=1.00 / aq-mode=1 / aq-strength=0.20 / no-cutree / zone-count=0 / no-strict-cbr / qg-size=32 / no-rc-grain / qpmax=69 / qpmin=0 / no-const-vbv / sar=1 / overscan=0 / videoformat=5 / range=0 / colorprim=2 / transfer=2 / colormatrix=2 / chromaloc=0 / display-window=0 / max-cll=0,0 / min-luma=0 / max-luma=1023 / log2-max-poc-lsb=8 / vui-timing-info / vui-hrd-info / slices=1 / no-opt-qp-pps / no-opt-ref-list-length-pps / no-multi-pass-opt-rps / scenecut-bias=0.05 / no-opt-cu-delta-qp / aq-motion / no-hdr / no-hdr-opt / no-dhdr10-opt / analysis-save=(null) / analysis-load=(null) / analysis-reuse-level=5 / scale-factor=0 / refine-intra=0 / refine-inter=0 / refine-mv=0 / no-limit-sao / ctu-info=0 / no-lowpass-dct / refine-mv-type=0 / copy-pic=1
Default : Yes
Forced : Yes

Audio #1
ID : 2
Format : AC-3
Format/Info : Audio Coding 3
Codec ID : A_AC3
Duration : 1 h 43 min
Bit rate mode : Constant
Bit rate : 384 kb/s
Channel(s) : 6 channels
Channel positions : Front: L C R, Side: L R, LFE
Sampling rate : 48.0 kHz
Frame rate : 31.250 FPS (1536 SPF)
Bit depth : 16 bits
Compression mode : Lossy
Stream size : 284 MiB (8%)
Title : Dub [iTunes]
Language : Russian
Service kind : Complete Main
Default : No
Forced : Yes

Audio #2
ID : 3
Format : AC-3
Format/Info : Audio Coding 3
Codec ID : A_AC3
Duration : 1 h 43 min
Bit rate mode : Constant
Bit rate : 640 kb/s
Channel(s) : 6 channels
Channel positions : Front: L C R, Side: L R, LFE
Sampling rate : 48.0 kHz
Frame rate : 31.250 FPS (1536 SPF)
Bit depth : 16 bits
Compression mode : Lossy
Stream size : 473 MiB (13%)
Title : Original
Language : English
Service kind : Complete Main
Default : Yes
Forced : No

Text #1
ID : 4
Format : UTF-8
Codec ID : S_TEXT/UTF8
Codec ID/Info : UTF-8 Plain Text
Duration : 1 h 35 min
Bit rate : 65 b/s
Count of elements : 1562
Stream size : 45.9 KiB (0%)
Title : Full
Language : English
Default : No
Forced : No

Text #2
ID : 5
Format : UTF-8
Codec ID : S_TEXT/UTF8
Codec ID/Info : UTF-8 Plain Text
Duration : 1 h 39 min
Bit rate : 86 b/s
Count of elements : 1823
Stream size : 62.7 KiB (0%)
Title : SDH
Language : English
Default : No
Forced : No

Menu
00:00:00.000 : en:00:00:00.000
00:08:08.542 : en:00:08:08.542
00:18:48.583 : en:00:18:48.583
00:27:06.000 : en:00:27:06.000
00:38:47.375 : en:00:38:47.375
00:47:46.917 : en:00:47:46.917
00:55:53.708 : en:00:55:53.708
01:02:17.500 : en:01:02:17.500
01:09:31.875 : en:01:09:31.875
01:16:39.042 : en:01:16:39.042
01:24:13.250 : en:01:24:13.250
01:33:50.000 : en:01:33:50.000
Загрузка...Cкриншот1 Приключения Паддингтона 2 / Paddington 2 (2017) [iTunes] BDRip 1080p [HEVC] 10 bit от Alex_AЗагрузка...Cкриншот2 Приключения Паддингтона 2 / Paddington 2 (2017) [iTunes] BDRip 1080p [HEVC] 10 bit от Alex_AЗагрузка...Cкриншот3 Приключения Паддингтона 2 / Paddington 2 (2017) [iTunes] BDRip 1080p [HEVC] 10 bit от Alex_AЗагрузка...Cкриншот4 Приключения Паддингтона 2 / Paddington 2 (2017) [iTunes] BDRip 1080p [HEVC] 10 bit от Alex_A
Торрент🧲 Магнет

Рейтинги КП и IMDB, кнопки "Позвать в чате" и "Спасибо", а также мультитрекерная статистика доступны только зарегистрированным/авторизованным пользователям!

Файлы: 1
  • Paddington.2.2017.1080p.iTunes_HEVCCLUB.mkv   3.68 ГБ
Поблагодарили: 1
Rezident
Admin
0150003.68 ГБ

Добавление нового комментария

Добавление комментариев доступно только зарегистрированным/авторизованным пользователям.