💬 Мини-чат

Для тех, кому интересен процесс переделки сайта - https://rips.club/changelog.html (обновлен 20.04.2024)
Отправка сообщений доступна только зарегистрированным/авторизованным пользователям.
Онлайн (за 10 мин.): 0

24 часа / Trapped (2002) BDRip 1080p [HEVC] 10 bit от OldGamer (RG RIPS CLUB)

HEVC
10 bit
Обложка 24 часа / Trapped (2002) BDRip 1080p [HEVC] 10 bit от OldGamer (RG RIPS CLUB) Год: 2002
Страна: США, Германия
Студия: Columbia Pictures
Жанр: Боевик, Триллер, Драма, Криминал
Продолжительность: 01:45:46

Режиссер: Луис Мандоки
В ролях: Шарлиз Терон, Кортни Лав, Стюарт Таунсенд, Кевин Бейкон, Прюитт Тэйлор Винс, Дакота Фаннинг, Стив Рэнкин, Гари Чок, Джоди Маркелл, Мэтт Коби

Описание: Трое преступников — супруги Хики Джо и Черил и их кузен Джой Марвин — настолько хорошо знают среду, в которой живут, что сумели разработать безукоризненный план вымогательства денег у состоятельных семей. Они действуют уверенно, умело и успешно и настолько хорошо заметают свои следы, что после них остаются только перепуганные жертвы, которые предпочитают хранить молчание, ибо рады уже тому, что остались живы. Но на этот раз они ошиблись в выборе семьи, которая предпочла дать отпор преступникам, вследствие чего события приняли неожиданный поворот…


Исходник: Blu-Ray 1080p
Видео: 1920x1080 (16:9), 12,4 Мбит/сек, HEVC (Main10@L.4.1@High)
Аудио1: AC3, 6 ch, 448 Kbps - РусскийРусский, Дублированный (Лицензия)
Аудио2: AC3, 6 ch, 640 Kbps - EnglishEnglish, Original
Субтитры: Русские полные (SRT), English full (SRT)

Как за пару секунд удалить ненужные аудиодорожки и субтитры (Внимание! После удаления вы не сможете поддержать раздачу)

Лог (x265 info)
x265 [info]: frame I: 652, Avg QP:18.33 kb/s: 19822.14
x265 [info]: frame P: 25009, Avg QP:19.42 kb/s: 16393.90
x265 [info]: frame B: 126501, Avg QP:21.60 kb/s: 11591.44
x265 [info]: Weighted P-Frames: Y:11.6% UV:9.2%
x265 [info]: Weighted B-Frames: Y:16.3% UV:10.4%
x265 [info]: consecutive B-frames: 4.1% 4.7% 7.8% 13.8% 11.3% 32.6% 5.6% 4.5% 3.3% 1.8% 2.6% 6.4% 0.7% 0.3% 0.5%
x265 [info]: encoded 152162 frames in 253598.28s (0.60 fps), 12416.03 kb/s, Avg QP:21.23
Медиаинфо
Формат : Matroska
Версия формата : Version 4
Размер файла : 9,98 Гбайт
Продолжительность : 1 ч. 45 м.
Общий поток : 13,5 Мбит/сек
Название фильма : 24.часа.Trapped.2002.BDRip-HEVC.1080p / Trapped
Дата кодирования : UTC 2020-04-30 02:56:33
Программа кодирования : mkvmerge v45.0.0 ('Heaven in Pennies') 64-bit
Библиотека кодирования : libebml v1.3.10 + libmatroska v1.5.2
Обложка : Yes
Примечание : When their daughter is kidnapped by experienced nappers (Bacon and Love), the Jennings (Theron and Townsend) turn the tables on this seemingly foolproof plan.
Attachments : cover.jpg
DATE_RECORDED : 2002
GENRE : Movie

Видео
Идентификатор : 1
Формат : HEVC
Формат/Информация : High Efficiency Video Coding
Профиль формата : Main 10@L4.1@High
Идентификатор кодека : V_MPEGH/ISO/HEVC
Продолжительность : 1 ч. 45 м.
Битрейт : 12,4 Мбит/сек
Ширина : 1 920 пикселей
Высота : 1 080 пикселей
Соотношение сторон : 16:9
Режим частоты кадров : Постоянный
Частота кадров : 23,976 (24000/1001) кадра/сек
Цветовое пространство : YUV
Субдискретизация насыщенности : 4:2:0
Битовая глубина : 10 бит
Бит/(Пиксели*Кадры) : 0.250
Размер потока : 9,17 Гбайт (92%)
Заголовок : Trapped / Rip by OldGamer
Библиотека кодирования : x265 3.3+2-gd9a7411cc:[Windows][MSVC 1925][64 bit] 10bit
Настройки программы : cpuid=1111039 / frame-threads=3 / numa-pools=12 / wpp / no-pmode / no-pme / no-psnr / no-ssim / log-level=2 / input-csp=1 / input-res=1920x1080 / interlace=0 / total-frames=152162 / level-idc=41 / high-tier=1 / uhd-bd=0 / ref=5 / no-allow-non-conformance / no-repeat-headers / annexb / no-aud / no-hrd / info / hash=0 / no-temporal-layers / open-gop / min-keyint=23 / keyint=240 / gop-lookahead=0 / bframes=14 / b-adapt=2 / b-pyramid / bframe-bias=0 / rc-lookahead=40 / lookahead-slices=0 / scenecut=40 / hist-scenecut=0 / radl=0 / no-splice / no-intra-refresh / ctu=64 / min-cu-size=8 / rect / amp / max-tu-size=32 / tu-inter-depth=4 / tu-intra-depth=4 / limit-tu=1 / rdoq-level=2 / dynamic-rd=0.00 / no-ssim-rd / signhide / no-tskip / nr-intra=0 / nr-inter=0 / no-constrained-intra / no-strong-intra-smoothing / max-merge=5 / limit-refs=3 / no-limit-modes / me=3 / subme=7 / merange=57 / temporal-mvp / no-frame-dup / no-hme / weightp / weightb / no-analyze-src-pics / deblock=-3:-3 / no-sao / no-sao-non-deblock / rd=6 / selective-sao=0 / no-early-skip / rskip / no-fast-intra / no-tskip-fast / no-cu-lossless / b-intra / no-splitrd-skip / rdpenalty=0 / psy-rd=2.00 / psy-rdoq=1.00 / no-rd-refine / no-lossless / cbqpoffs=0 / crqpoffs=0 / rc=crf / crf=19.5 / qcomp=0.60 / qpstep=4 / stats-write=0 / stats-read=0 / vbv-maxrate=50000 / vbv-bufsize=50000 / vbv-init=0.9 / crf-max=0.0 / crf-min=0.0 / ipratio=1.40 / pbratio=1.30 / aq-mode=4 / aq-strength=0.80 / no-cutree / zone-count=1 / zones: / start-frame=146840 / end-frame=152145 / qp=36 / no-strict-cbr / qg-size=32 / no-rc-grain / qpmax=69 / qpmin=0 / no-const-vbv / sar=1 / overscan=0 / videoformat=5 / range=0 / colorprim=2 / transfer=2 / colormatrix=2 / chromaloc=0 / display-window=0 / cll=0,0 / min-luma=0 / max-luma=1023 / log2-max-poc-lsb=8 / vui-timing-info / vui-hrd-info / slices=1 / no-opt-qp-pps / no-opt-ref-list-length-pps / no-multi-pass-opt-rps / scenecut-bias=0.00 / hist-threshold=0.01 / no-opt-cu-delta-qp / no-aq-motion / no-hdr10 / no-hdr10-opt / no-dhdr10-opt / no-idr-recovery-sei / analysis-reuse-level=0 / analysis-save-reuse-level=0 / analysis-load-reuse-level=0 / scale-factor=0 / refine-intra=0 / refine-inter=0 / refine-mv=1 / refine-ctu-distortion=0 / no-limit-sao / ctu-info=0 / no-lowpass-dct / refine-analysis-type=0 / copy-pic=1 / max-ausize-factor=1.0 / no-dynamic-refine / no-single-sei / no-hevc-aq / no-svt / no-field / qp-adaptation-range=1.00 / no-scenecut-aware-qpconformance-window-offsets / right=0 / bottom=0
Язык : English
Default : Да
Forced : Нет

Аудио #1
Идентификатор : 2
Формат : AC-3
Формат/Информация : Audio Coding 3
Коммерческое название : Dolby Digital
Идентификатор кодека : A_AC3
Продолжительность : 1 ч. 45 м.
Вид битрейта : Постоянный
Битрейт : 448 Кбит/сек
Каналы : 6 каналов
Channel layout : L R C LFE Ls Rs
Частота : 48,0 КГц
Частота кадров : 31,250 кадров/сек (1536 SPF)
Метод сжатия : С потерями
Размер потока : 339 Мбайт (3%)
Заголовок : Dub
Язык : Russian
Service kind : Complete Main
Default : Да
Forced : Нет

Аудио #2
Идентификатор : 3
Формат : AC-3
Формат/Информация : Audio Coding 3
Коммерческое название : Dolby Digital
Идентификатор кодека : A_AC3
Продолжительность : 1 ч. 45 м.
Вид битрейта : Постоянный
Битрейт : 640 Кбит/сек
Каналы : 6 каналов
Channel layout : L R C LFE Ls Rs
Частота : 48,0 КГц
Частота кадров : 31,250 кадров/сек (1536 SPF)
Метод сжатия : С потерями
Размер потока : 484 Мбайт (5%)
Язык : English
Service kind : Complete Main
Default : Нет
Forced : Нет

Текст #1
Идентификатор : 4
Формат : UTF-8
Идентификатор кодека : S_TEXT/UTF8
Идентификатор кодека/Информация : UTF-8 Plain Text
Продолжительность : 1 ч. 41 м.
Битрейт : 89 бит/сек
Count of elements : 1688
Размер потока : 66,7 Кбайт (0%)
Язык : Russian
Default : Нет
Forced : Нет

Текст #2
Идентификатор : 5
Формат : UTF-8
Идентификатор кодека : S_TEXT/UTF8
Идентификатор кодека/Информация : UTF-8 Plain Text
Продолжительность : 1 ч. 40 м.
Битрейт : 48 бит/сек
Count of elements : 990
Размер потока : 35,6 Кбайт (0%)
Язык : English
Default : Нет
Forced : Нет

Меню
00:00:00.000 : :Chapter 01
00:07:15.601 : :Chapter 02
00:16:04.755 : :Chapter 03
00:25:08.006 : :Chapter 04
00:39:00.796 : :Chapter 05
00:44:16.653 : :Chapter 06
00:52:52.419 : :Chapter 07
01:04:01.420 : :Chapter 08
01:12:50.574 : :Chapter 09
01:19:37.272 : :Chapter 10
01:29:00.335 : :Chapter 11
01:42:05.119 : :Chapter 12
01:45:46.214 : :Chapter 13
Загрузка...Cкриншот1 24 часа / Trapped (2002) BDRip 1080p [HEVC] 10 bit от OldGamer (RG RIPS CLUB)Загрузка...Cкриншот2 24 часа / Trapped (2002) BDRip 1080p [HEVC] 10 bit от OldGamer (RG RIPS CLUB)Загрузка...Cкриншот3 24 часа / Trapped (2002) BDRip 1080p [HEVC] 10 bit от OldGamer (RG RIPS CLUB)Загрузка...Cкриншот4 24 часа / Trapped (2002) BDRip 1080p [HEVC] 10 bit от OldGamer (RG RIPS CLUB)
Релиз-группа: RIPS CLUB
Сэмпл Торрент🧲 Магнет

Раздача обновлена!
Перекодировано. Добавлена оригинальная дорожка и субтитры.

Рейтинги КП и IMDB, кнопки "Позвать в чате" и "Спасибо", а также мультитрекерная статистика доступны только зарегистрированным/авторизованным пользователям!

Файлы: 1
  • 24.часа.Trapped.2002.BDRip-HEVC.1080p.mkv   9.98 ГБ
Поблагодарили: 11
and50, aquarius, bs158250, GIS88, Guga, kancler, makss333, NoMaD, papast13, SAVOYAR, VadimM
OldGamer
079109.98 ГБ

Добавление нового комментария

Добавление комментариев доступно только зарегистрированным/авторизованным пользователям.