💬 Мини-чат

OldGamerну и акустические излучатели собрать хорошие, типа Penaudio Legato Signature или похожие, тут надо тщательно собирать систему для прослушивания
OldGamerне помешает ещё посетить отоларинголога для промывки слухового аппарата от серных пробок специализированным сертифицированным раствором, это (промывка) имеет немаловажное значение
OldGamer😆🤐🤐
OldGamerи всё же лучше hi-end, с подключением кабелями типа Analysis-Plus Oval 9 из бескислородной меди и с их предварительным прогревом системой типа Nordost Vidar, иначе всё теряет смысл
XuMuKManson_Fan, не надо hi-end акустики, достаточно hi-fi. "Кристольность" на высоких частотах другая, в DTS кажется более "живым" звук. Но самая большая разница, когда сравниваешь АС3 с каким-нибудь DTS-HD MA
IRITРаздайте, пожалуйста, Байки из склепа: Демон ночи / Tales from the Crypt: Demon Knight (1995) BDRip 1080p [HEVC] 10 bit от druidblack
OldGamerManson_Fan, у меня нет hi-end акустики, поэтому не слушал, не знаю, может и есть разница. За других говорить не буду. В любом случае, продвинутым слухачам будет несложно найти, скачать и прикрепить дорожки требуемого им качества.
mafo2Manson_Fan, не все телевизоры поддерживают DTS. например, мой через встроенный плеер его не воспроизводит. можно конечно смотреть через ПК, но порой хочется и через ТВ.
Manson_FanOldGamer, "Скажите зачем релизёры звук DTS 768 kbps переделывают в AC3 640 kbps" Интересно, а разницу в качестве в фильмах кому то удавалось услышать?😕 мне вот нет
Manson_Fanникто еще не сравнивал HEVC и новый AV1?
IRITРаздайте, пожалуйста, Маньяк-полицейский 3: Знак молчания / Maniac Cop 3: Badge of Silence (1993) BDRip 1080p [HEVC] 10 bit от HANNIBAL
Spartanec1308С Днём Великой Победы!
BrooklynВсех с праздником! С Днем Великой Победы! Ура-Ура-Урааааааа
BrooklynADVOKAT69, Спасибо большое!
ADVOKAT69Операция «Ы» и другие приключения Шурика (1965) раздаю
mafo2С Днем Победы!
joker63Поздравляю всех с Днем Победы!
ADVOKAT69Admin, Спасибо деду за победу!Тебе за поздравление!
AdminADVOKAT69, Дедам спасибо.
ADVOKAT69Admin, спасибо большое!✋
  • mvazquez
  • Rendre
  • Rezident
Отправка сообщений доступна только зарегистрированным/авторизованным пользователям.
Онлайн (за 10 мин.): 3

Плохие парни / Bad Boys (1995) [4K Remastered] BDRip 1080p [HEVC] 10 bit от XuMuK

HEVC
10 bit
Обложка Плохие парни / Bad Boys (1995) [4K Remastered] BDRip 1080p [HEVC] 10 bit от XuMuK Год: 1995
Страна: США
Студия: Don Simpson, Jerry Bruckheimer Films
Жанр: Боевик, Триллер, Драма, Комедия
Продолжительность: 01:58:50

Режиссер: Майкл Бэй
В ролях: Уилл Смит, Мартин Лоуренс, Теа Леони, Лиза Бойл, Майкл Талиферро, Эммануель Ксереб, Чеки Карио, Марк Маколей, Ральф Гонсалес, Вик Манни, Фрэнк Джон Хьюз, Майк Киртон, Уилл Никербоксер, Тереза Рэндл, Тиффани Сэмюэлс, Кори Ходжес, Скотт Камбербэтч, Анна Левайн-Томпсон, Джои Романо, Сэм Эйерс, Джо Пантолиано

Описание: Они — полная противоположность друг друга. Один из них — примерный семьянин и не имеет состояния, другой богат и пользуется всеми благами холостяцкой жизни. Помимо дружбы их объединяет работа в полиции. Их новое задание — поймать жестокого преступника, укравшего наркотики с секретного склада, а также спасти девушку, которая случайно оказалась на его пути. Но для этого друзьям придется поменяться местами…


Видео: 1920x1036, 8145 Kbps
Аудио1: AC3, 6 ch, 448 Kbps - РусскийРусский, Дублированный
Аудио2: AC3, 6 ch, 448 Kbps - РусскийРусский, Одноголосый (Гаврилов)
Аудио3: AC3, 6 ch, 448 Kbps - РусскийРусский, Одноголосый (Яроцкий)
Аудио4: AC3, 6 ch, 448 Kbps - АнглийскийАнглийский, Оригинал
Субтитры: Русские (форсированные, полные), английские

Как за пару секунд удалить ненужные аудиодорожки и субтитры (Внимание! После удаления вы не сможете поддержать раздачу)

Медиаинфо
Общее
Уникальный идентификатор : 335967255765630932688330115637940154480 (0xFCC0F09820565052548501740F797070)
Полное имя : H:\HEVC 2\10 BIT\Bad Boys\Bad Boys_1995_BDRip_1080p_[HEVC]_10bit.mkv
Формат : Matroska
Версия формата : Version 4 / Version 2
Размер файла : 8,25 Гбайт
Продолжительность : 1 ч. 58 м.
Общий поток : 9940 Кбит/сек
Название фильма : HEVC by XuMuK
Дата кодирования : UTC 2018-04-14 17:07:22
Программа кодирования : mkvmerge v21.0.0 ('Tardigrades Will Inherit The Earth') 64-bit
Библиотека кодирования : libebml v1.3.5 + libmatroska v1.4.8
Обложка : Yes
Attachments : cover.jpg

Видео
Идентификатор : 1
Формат : HEVC
Формат/Информация : High Efficiency Video Coding
Профиль формата : Main 10@L4.1@High
Идентификатор кодека : V_MPEGH/ISO/HEVC
Продолжительность : 1 ч. 58 м.
Битрейт : 8145 Кбит/сек
Ширина : 1920 пикселей
Высота : 1036 пикселей
Соотношение сторон : 1,85:1
Режим частоты кадров : Постоянный
Частота кадров : 23,976 (24000/1001) кадра/сек
Цветовое пространство : YUV
Субдискретизация насыщенности : 4:2:0
Битовая глубина : 10 бит
Бит/(Пиксели*Кадры) : 0.171
Размер потока : 6,76 Гбайт (82%)
Библиотека кодирования : x265 2.7+17-2e370d98c806:[Windows][GCC 8.0.1][64 bit] 10bit
Настройки программы : cpuid=1173503 / frame-threads=4 / numa-pools=16 / wpp / no-pmode / no-pme / no-psnr / no-ssim / log-level=2 / input-csp=1 / input-res=1920x1036 / interlace=0 / total-frames=170952 / level-idc=41 / high-tier=1 / uhd-bd=0 / ref=5 / no-allow-non-conformance / no-repeat-headers / annexb / no-aud / no-hrd / info / hash=0 / no-temporal-layers / open-gop / min-keyint=23 / keyint=240 / gop-lookahead=0 / bframes=6 / b-adapt=2 / no-b-pyramid / bframe-bias=0 / rc-lookahead=60 / lookahead-slices=4 / scenecut=40 / radl=0 / no-intra-refresh / ctu=32 / min-cu-size=8 / rect / amp / max-tu-size=32 / tu-inter-depth=3 / tu-intra-depth=3 / limit-tu=1 / rdoq-level=2 / dynamic-rd=0.00 / no-ssim-rd / signhide / no-tskip / nr-intra=0 / nr-inter=0 / no-constrained-intra / no-strong-intra-smoothing / max-merge=3 / limit-refs=2 / limit-modes / me=3 / subme=7 / merange=57 / temporal-mvp / weightp / weightb / no-analyze-src-pics / deblock=-3:-3 / no-sao / no-sao-non-deblock / rd=6 / no-early-skip / rskip / no-fast-intra / no-tskip-fast / no-cu-lossless / b-intra / no-splitrd-skip / rdpenalty=0 / psy-rd=2.00 / psy-rdoq=1.00 / no-rd-refine / no-lossless / cbqpoffs=-2 / crqpoffs=-2 / rc=crf / crf=19.0 / qcomp=0.60 / qpstep=4 / stats-write=0 / stats-read=0 / vbv-maxrate=50000 / vbv-bufsize=50000 / vbv-init=0.9 / crf-max=0.0 / crf-min=0.0 / ipratio=1.40 / pbratio=1.30 / aq-mode=1 / aq-strength=0.80 / cutree / zone-count=1 / zones: / start-frame=165469 / end-frame=170952 / qp=35 / no-strict-cbr / qg-size=32 / no-rc-grain / qpmax=69 / qpmin=0 / no-const-vbv / sar=1 / overscan=0 / videoformat=5 / range=0 / colorprim=1 / transfer=1 / colormatrix=1 / chromaloc=0 / display-window=0 / max-cll=0,0 / min-luma=0 / max-luma=1023 / log2-max-poc-lsb=8 / vui-timing-info / vui-hrd-info / slices=1 / no-opt-qp-pps / no-opt-ref-list-length-pps / no-multi-pass-opt-rps / scenecut-bias=0.05 / no-opt-cu-delta-qp / no-aq-motion / no-hdr / no-hdr-opt / no-dhdr10-opt / no-idr-recovery-sei / analysis-reuse-level=5 / scale-factor=0 / refine-intra=0 / refine-inter=0 / refine-mv=0 / no-limit-sao / ctu-info=0 / no-lowpass-dct / refine-mv-type=0 / copy-pic=1 / max-ausize-factor=1.0 / no-dynamic-refine
Default : Да
Forced : Нет
Цветовой диапазон : Limited
Основные цвета : BT.709
Характеристики трансфера : BT.709
Коэффициенты матрицы : BT.709

Аудио #1
Идентификатор : 2
Формат : AC-3
Формат/Информация : Audio Coding 3
Идентификатор кодека : A_AC3
Продолжительность : 1 ч. 58 м.
Вид битрейта : Постоянный
Битрейт : 448 Кбит/сек
Каналы : 6 каналов
Расположение каналов : Front: L C R, Side: L R, LFE
Частота : 48,0 КГц
Частота кадров : 31,250 кадров/сек (1536 SPF)
Битовая глубина : 16 бит
Метод сжатия : С потерями
Размер потока : 381 Мбайт (5%)
Заголовок : Дубляж
Язык : Russian
ServiceKind/String : Complete Main
Default : Да
Forced : Нет

Аудио #2
Идентификатор : 3
Формат : AC-3
Формат/Информация : Audio Coding 3
Идентификатор кодека : A_AC3
Продолжительность : 1 ч. 58 м.
Вид битрейта : Постоянный
Битрейт : 448 Кбит/сек
Каналы : 6 каналов
Расположение каналов : Front: L C R, Side: L R, LFE
Частота : 48,0 КГц
Частота кадров : 31,250 кадров/сек (1536 SPF)
Битовая глубина : 16 бит
Метод сжатия : С потерями
Размер потока : 381 Мбайт (5%)
Заголовок : AVO Гаврилов
Язык : Russian
ServiceKind/String : Complete Main
Default : Нет
Forced : Нет

Аудио #3
Идентификатор : 4
Формат : AC-3
Формат/Информация : Audio Coding 3
Идентификатор кодека : A_AC3
Продолжительность : 1 ч. 58 м.
Вид битрейта : Постоянный
Битрейт : 448 Кбит/сек
Каналы : 6 каналов
Расположение каналов : Front: L C R, Side: L R, LFE
Частота : 48,0 КГц
Частота кадров : 31,250 кадров/сек (1536 SPF)
Битовая глубина : 16 бит
Метод сжатия : С потерями
Размер потока : 381 Мбайт (5%)
Заголовок : AVO Яроцкий
Язык : Russian
ServiceKind/String : Complete Main
Default : Нет
Forced : Нет

Аудио #4
Идентификатор : 5
Формат : AC-3
Формат/Информация : Audio Coding 3
Идентификатор кодека : A_AC3
Продолжительность : 1 ч. 58 м.
Вид битрейта : Постоянный
Битрейт : 448 Кбит/сек
Каналы : 6 каналов
Расположение каналов : Front: L C R, Side: L R, LFE
Частота : 48,0 КГц
Частота кадров : 31,250 кадров/сек (1536 SPF)
Битовая глубина : 16 бит
Метод сжатия : С потерями
Размер потока : 381 Мбайт (5%)
Заголовок : Оригинал
Язык : English
ServiceKind/String : Complete Main
Default : Нет
Forced : Нет

Текст #1
Идентификатор : 6
Формат : UTF-8
Идентификатор кодека : S_TEXT/UTF8
Идентификатор кодека/Информация : UTF-8 Plain Text
Продолжительность : 1 ч. 36 м.
Битрейт : 0 бит/сек
ElementCount : 5
Размер потока : 138 байт (0%)
Заголовок : RUS Forced
Язык : Russian
Default : Да
Forced : Нет

Текст #2
Идентификатор : 7
Формат : UTF-8
Идентификатор кодека : S_TEXT/UTF8
Идентификатор кодека/Информация : UTF-8 Plain Text
Продолжительность : 1 ч. 54 м.
Битрейт : 102 бит/сек
ElementCount : 1733
Размер потока : 85,4 Кбайт (0%)
Заголовок : RUS Full
Язык : Russian
Default : Нет
Forced : Нет

Текст #3
Идентификатор : 8
Формат : UTF-8
Идентификатор кодека : S_TEXT/UTF8
Идентификатор кодека/Информация : UTF-8 Plain Text
Продолжительность : 1 ч. 54 м.
Битрейт : 80 бит/сек
ElementCount : 1877
Размер потока : 67,6 Кбайт (0%)
Заголовок : ENG
Язык : English
Default : Нет
Forced : Нет

Меню
00:00:00.000 : en:Start
00:05:07.472 : en:Heroin Robbery
00:12:01.971 : en:Peeking & Entering
00:17:38.098 : en:Rich Cop, Poor Cop
00:23:33.203 : en:Eddie's Surprise Party
00:31:31.764 : en:Julie's Escape
00:41:09.132 : en:Two Conversations
00:47:35.310 : en:At Lois'
00:54:37.357 : en:Julie Asks for Mike
01:04:05.675 : en:In Julie's Apartment
01:13:49.800 : en:Making Their Getaway
01:20:21.483 : en:Mike's Place
01:27:58.523 : en:Real Bad Headache
01:34:54.271 : en:Problems in the Lab
01:43:09.308 : en:Julie Meets "Marcus"
01:50:51.353 : en:In the Men's Room
Загрузка...Cкриншот1 Плохие парни / Bad Boys (1995) [4K Remastered] BDRip 1080p [HEVC] 10 bit от XuMuKЗагрузка...Cкриншот2 Плохие парни / Bad Boys (1995) [4K Remastered] BDRip 1080p [HEVC] 10 bit от XuMuKЗагрузка...Cкриншот3 Плохие парни / Bad Boys (1995) [4K Remastered] BDRip 1080p [HEVC] 10 bit от XuMuKЗагрузка...Cкриншот4 Плохие парни / Bad Boys (1995) [4K Remastered] BDRip 1080p [HEVC] 10 bit от XuMuK
Сэмпл Торрент🧲 Магнет

Рейтинги КП и IMDB, кнопки "Позвать в чате" и "Спасибо", а также мультитрекерная статистика доступны только зарегистрированным/авторизованным пользователям!

Файлы: 1
  • Bad Boys_1995_BDRip_1080p_[HEVC]_10bit.mkv   8.25 ГБ
Поблагодарили: 5
brukvalub, bs158250, D16T, ko1ob, TETRIS
Admin
6281208.25 ГБ

Добавление нового комментария

Добавление комментариев доступно только зарегистрированным/авторизованным пользователям.
Аватар не указан
  XuMuK  
anderb писал(а):
Круто! Хотелось бы "поскромнее размерчик" с битрейтом 5-6 Мбит
Привыкай к хорошему, не надо себя ограничивать битрейтом))
Аватар не указан
  Remontaz  
Класс !!! Спасибо !!!
Аватар Студень
  Студень  
anderb писал(а):
Круто! Хотелось бы "поскромнее размерчик" с битрейтом 5-6 Мбит
это же химический. он на битрейт не жадничает
Аватар не указан
  anderb  
Круто! Хотелось бы "поскромнее размерчик" с битрейтом 5-6 Мбит
Аватар Студень
  Студень  
VadimM писал(а):
Отлично! Спасибо! Ждём вторую часть...👍
Эти раздачи несколько месяцев в сети лежат
Аватар VadimM
  VadimM  
Отлично! Спасибо! Ждём вторую часть...👍