Чат

⚫︎
Список изменений сайта - https://rips.club/changelog.html (обновлен 24.05.2024)
  • arwis
  • justmkr
Онлайн (за 10 мин.): 2
Отправка сообщений доступна только зарегистрированным/авторизованным пользователям.

🎤︎Tarja Turunen - Act II (2018) BDRip 1080p [HEVC] 8 bit от ADVOKAT69


Обложка Tarja Turunen - Act II (2018) BDRip 1080p [HEVC] 8 bit от ADVOKAT69
HEVC
8 bit
✂︎Сэмпл⤓︎Торрент🧲︎Магнет$Пожертвования
Год: 2018
Страна:
Жанр: Музыка
Длительность: 01:15:19, 02:15:46

Состав:
Tarja Turunen

Описание: Сняла во время мирового турне Тарьи «The Shadow Shows», в течение которого влиятельный певец тяжелой рок-группы обогнал мир 7 ½ раза и сыграл более 200 шоу в 40 странах перед 1 миллионом человек


ТреклистLondon’s Metropolis Studios, June 6, 2016

1. No Bitter End
2. Eagle Eye
3. Sing For Me
4. Love To Hate
5. The Living End
6. Medusa
7. Calling From The Wild
8. Victim Of Ritual
9. Die Alive
10. Innocence
11. Until My Last Breath
12. Too Many

Filmed at Milan’s Teatro della Luna Assago on November 29, 2016
1. Against The Odds
2. No Bitter End
3. 500 Letters
4. Eagle Eye
5. Demons In You
6. Lucid Dreamer
7. Shameless
8. The Living End
9. Calling From The Wild
10. Supremacy
11. Tutankhamen – Ever Dream - The Riddler – Slaying the Dreamer
12. Goldfinger
13. Deliverance


Видео: 1920x1080, 3073 Kbps, 1920x816, 3143 Kbps
Аудио: DTS, 6 ch, 1509 Kbps
Субтитры: нет

МедиаинфоОбщее
Уникальный идентификатор : 192480222856054953278042231802796706912 (0x90CE57AD6E0ED07389D8ABF692240C60)
Полное имя : I:\КИНО HEVC\Tarja Turunen - Act II HEVC advokat69\London’s Metropolis Studios, June 6, 2016.mkv
Формат : Matroska
Версия формата : Version 4 / Version 2
Размер файла : 2,41 Гбайт
Продолжительность : 1 ч. 15 м.
Общий поток : 4584 Кбит/сек
Дата кодирования : UTC 2018-10-01 15:36:43
Программа кодирования : mkvmerge v9.2.0 ('Photograph') 64bit
Библиотека кодирования : libebml v1.3.3 + libmatroska v1.4.4
Encoding Gui : Hybrid 2017.05.06.1

Видео
Идентификатор : 1
Формат : HEVC
Формат/Информация : High Efficiency Video Coding
Профиль формата : Main@L4.1@High
Идентификатор кодека : V_MPEGH/ISO/HEVC
Продолжительность : 1 ч. 15 м.
Битрейт : 3073 Кбит/сек
Ширина : 1920 пикселей
Высота : 1080 пикселей
Соотношение сторон : 16:9
Режим частоты кадров : Постоянный
Частота кадров : 23,976 (24000/1001) кадра/сек
Цветовое пространство : YUV
Субдискретизация насыщенности : 4:2:0
Битовая глубина : 8 бит
Бит/(Пиксели*Кадры) : 0.062
Размер потока : 1,62 Гбайт (67%)
Библиотека кодирования : x265 2.5+5-0b3ba15b33ea:[Windows][GCC 7.2.0][64 bit] 8bit+10bit+12bit
Настройки программы : cpuid=1050111 / frame-threads=2 / numa-pools=4 / wpp / no-pmode / no-pme / no-psnr / no-ssim / log-level=2 / input-csp=1 / input-res=1920x1080 / interlace=0 / total-frames=0 / level-idc=41 / high-tier=1 / uhd-bd=0 / ref=3 / no-allow-non-conformance / no-repeat-headers / annexb / no-aud / no-hrd / info / hash=0 / no-temporal-layers / open-gop / min-keyint=23 / keyint=250 / bframes=4 / b-adapt=0 / b-pyramid / bframe-bias=0 / rc-lookahead=15 / lookahead-slices=6 / scenecut=40 / no-intra-refresh / ctu=64 / min-cu-size=8 / no-rect / no-amp / max-tu-size=32 / tu-inter-depth=1 / tu-intra-depth=1 / limit-tu=0 / rdoq-level=0 / dynamic-rd=0.00 / no-ssim-rd / signhide / no-tskip / nr-intra=0 / nr-inter=0 / no-constrained-intra / strong-intra-smoothing / max-merge=2 / limit-refs=3 / no-limit-modes / me=1 / subme=2 / merange=57 / temporal-mvp / weightp / no-weightb / no-analyze-src-pics / deblock=-3:-3 / no-sao / no-sao-non-deblock / rd=2 / no-early-skip / rskip / fast-intra / no-tskip-fast / no-cu-lossless / no-b-intra / rdpenalty=0 / psy-rd=2.00 / psy-rdoq=0.00 / no-rd-refine / analysis-reuse-mode=0 / no-lossless / cbqpoffs=0 / crqpoffs=0 / rc=crf / crf=20.0 / qcomp=0.60 / qpstep=4 / stats-write=0 / stats-read=0 / vbv-maxrate=50000 / vbv-bufsize=50000 / vbv-init=0.9 / crf-max=0.0 / crf-min=0.0 / ipratio=1.40 / pbratio=1.30 / aq-mode=1 / aq-strength=1.00 / cutree / zone-count=0 / no-strict-cbr / qg-size=32 / no-rc-grain / qpmax=69 / qpmin=0 / no-const-vbv / sar=0 / overscan=0 / videoformat=5 / range=0 / colorprim=2 / transfer=2 / colormatrix=1 / chromaloc=0 / display-window=0 / max-cll=0,0 / min-luma=0 / max-luma=255 / log2-max-poc-lsb=8 / vui-timing-info / vui-hrd-info / slices=1 / opt-qp-pps / opt-ref-list-length-pps / no-multi-pass-opt-rps / scenecut-bias=0.05 / no-opt-cu-delta-qp / no-aq-motion / no-hdr / no-hdr-opt / no-dhdr10-opt / analysis-reuse-level=5 / scale-factor=0 / refine-intra=0 / refine-inter=0 / refine-mv=0 / no-limit-sao / ctu-info=0
Default : Да
Forced : Да
Цветовой диапазон : Limited
Коэффициенты матрицы : BT.709

Аудио
Идентификатор : 2
Формат : DTS
Формат/Информация : Digital Theater Systems
Идентификатор кодека : A_DTS
Продолжительность : 1 ч. 15 м.
Вид битрейта : Постоянный
Битрейт : 1509 Кбит/сек
Каналы : 6 каналов
Расположение каналов : Front: L C R, Side: L R, LFE
Частота : 48,0 КГц
Частота кадров : 93,750 кадра/сек (512 SPF)
Битовая глубина : 24 бит
Метод сжатия : С потерями
Размер потока : 813 Мбайт (33%)
Default : Да
Forced : Нет

Меню
00:00:00.000 : en:Chapter 1
00:01:03.271 : en:Chapter 2
00:06:30.598 : en:Chapter 3
00:11:20.471 : en:Chapter 4
00:16:10.469 : en:Chapter 5
00:22:26.720 : en:Chapter 6
00:27:24.059 : en:Chapter 7
00:38:06.242 : en:Chapter 8
00:43:37.656 : en:Chapter 9
00:49:39.893 : en:Chapter 10
00:54:44.281 : en:Chapter 11
00:59:46.958 : en:Chapter 12
01:05:37.934 : en:Chapter 13
Загрузка...Cкриншот1 Tarja Turunen - Act II (2018) BDRip 1080p [HEVC] 8 bit от ADVOKAT69Загрузка...Cкриншот2 Tarja Turunen - Act II (2018) BDRip 1080p [HEVC] 8 bit от ADVOKAT69Загрузка...Cкриншот3 Tarja Turunen - Act II (2018) BDRip 1080p [HEVC] 8 bit от ADVOKAT69Загрузка...Cкриншот4 Tarja Turunen - Act II (2018) BDRip 1080p [HEVC] 8 bit от ADVOKAT69
Поблагодарили: 0
Файлы: 2
  • Tarja Turunen - Act II HEVC advokat69
    • 2.41 ГБLondon’s Metropolis Studios, June 6, 2016.mkv
    • 4.41 ГБMilan’s Teatro della Luna Assago on November 29, 2016.mkv

Рейтинги КП и IMDB, кнопки "Раздайте, пожалуйста" и "Спасибо", а также мультитрекерная статистика доступны только зарегистрированным/авторизованным пользователям!

ADVOKAT69
00300(2) 6.83 ГБ

💬︎ Комментарии

Добавление комментариев доступно только зарегистрированным/авторизованным пользователям.